#TITLE:100;
#SUBTITLE:;
#ARTIST:Dave Rodgers;
#TITLETRANSLIT:;
#SUBTITLETRANSLIT:;
#ARTISTTRANSLIT:;
#GENRE:;
#CREDIT:;
#BANNER:ppp.jpg;
#BACKGROUND:ppp.jpg;
#LYRICSPATH:;
#CDTITLE:;
#MUSIC:100.mp3;
#OFFSET:-0.224;
#SAMPLESTART:55.840;
#SAMPLELENGTH:18.360;
#SELECTABLE:YES;
#BPMS:0.000=155.140;
#STOPS:;
#DELAYS:;
#TIMESIGNATURES:0.000=4=4
;
#BGCHANGES:;
#KEYSOUNDS:;
#ATTACKS:;
// cache tags:
#FIRSTBEAT:16.000;
#LASTBEAT:207.000;
#SONGFILENAME:/Songs/ParaPara/100/100.sm;
#HASMUSIC:1;
#HASBANNER:1;
#MUSICLENGTH:84.695;
// end cache tags

//---------------para-single - Blank----------------
#NOTES:
     para-single:
     Blank:
     Beginner:
     2:
     0.177,0.244,0.071,0.201,0.047,82.000,6.000,17.000,0.000,0.000,0.000,0.000,-1.000,-1.000,0.177,0.244,0.071,0.201,0.047,82.000,6.000,17.000,0.000,0.000,0.000,0.000,-1.000,-1.000:
00000
00000
00000
00000
,
00000
00000
00000
00000
,
00000
00000
00000
00000
,
00000
00000
00000
00000
,
00020
00000
00000
00000
,
00000
00000
00000
00030
,
02000
00000
00000
00000
,
00000
00000
00000
03000
,
00020
00000
00000
00000
,
00000
00000
00000
00030
,
02000
00000
00000
00000
,
00000
00000
00000
03000
,
01000
00000
00100
00000
00010
00000
00001
00000
00000
00000
00000
00000
,
00010
00000
00100
00000
01000
00000
10000
00000
00000
00000
00000
00000
,
00200
00000
00000
00300
,
01000
00010
00010
01000
,
01000
00000
00100
00000
00010
00000
00001
00000
00000
00000
00000
00000
,
00010
00000
00100
00000
01000
00000
10000
00000
00000
00000
00000
00000
,
00200
00000
00000
00300
,
01000
00010
00010
01000
,
00020
00000
02000
00030
,
00000
03000
00000
00000
,
00010
00010
01000
01000
,
02020
03030
00000
00000
,
00020
00000
02000
00030
,
00000
03000
00000
00000
,
00010
00010
01000
01000
,
02020
03030
00000
00000
,
00010
00100
00010
01010
,
00000
00000
00001
00000
,
00001
10000
00010
00000
,
10000
00001
01000
00000
,
00010
00100
00010
01010
,
00000
00000
00001
00000
,
00000
00010
00000
00000
,
00000
01000
00000
00000
,
00010
00100
00010
01010
,
00000
00000
00001
00000
,
00001
10000
00010
00000
,
10000
00001
01000
00000
,
00010
00100
00010
01010
,
00000
00000
00001
00000
,
00000
00010
00000
00000
,
00000
00000
00000
00000
,
00000
00000
00000
02000
00000
00000
00000
00000
,
00000
00000
00000
00000
,
00000
00000
00000
00000
,
00000
00000
00000
03000
,
00020
00000
00000
00000
,
00000
00000
00000
00030
,
02000
00000
00000
00000
,
00000
00000
00000
03000
;

//---------------para-single - Blank----------------
#NOTES:
     para-single:
     Blank:
     Edit:
     2:
     0.177,0.244,0.071,0.201,0.047,82.000,6.000,17.000,0.000,0.000,0.000,0.000,-1.000,-1.000,0.177,0.244,0.071,0.201,0.047,82.000,6.000,17.000,0.000,0.000,0.000,0.000,-1.000,-1.000:
00000
00000
00000
00000
,
00000
00000
00000
00000
,
00000
00000
00000
00000
,
00000
00000
00000
00000
,
00020
00000
00000
00000
,
00000
00000
00000
00030
,
02000
00000
00000
00000
,
00000
00000
00000
03000
,
00020
00000
00000
00000
,
00000
00000
00000
00030
,
02000
00000
00000
00000
,
00000
00000
00000
03000
,
01000
00000
00100
00000
00010
00000
00001
00000
00000
00000
00000
00000
,
00010
00000
00100
00000
01000
00000
10000
00000
00000
00000
00000
00000
,
00200
00000
00000
00300
,
01000
00010
00010
01000
,
01000
00000
00100
00000
00010
00000
00001
00000
00000
00000
00000
00000
,
00010
00000
00100
00000
01000
00000
10000
00000
00000
00000
00000
00000
,
00200
00000
00000
00300
,
01000
00010
00010
01000
,
00020
00000
02000
00030
,
00000
03000
00000
00000
,
00010
00010
01000
01000
,
02020
03030
00000
00000
,
00020
00000
02000
00030
,
00000
03000
00000
00000
,
00010
00010
01000
01000
,
02020
03030
00000
00000
,
00010
00100
00010
01010
,
00000
00000
00001
00000
,
00001
10000
00010
00000
,
10000
00001
01000
00000
,
00010
00100
00010
01010
,
00000
00000
00001
00000
,
00000
00010
00000
00000
,
00000
01000
00000
00000
,
00010
00100
00010
01010
,
00000
00000
00001
00000
,
00001
10000
00010
00000
,
10000
00001
01000
00000
,
00010
00100
00010
01010
,
00000
00000
00001
00000
,
00000
00010
00000
00000
,
00000
00000
00000
00000
,
00000
00000
00000
02000
00000
00000
00000
00000
,
00000
00000
00000
00000
,
00000
00000
00000
00000
,
00000
00000
00000
03000
,
00020
00000
00000
00000
,
00000
00000
00000
00030
,
02000
00000
00000
00000
,
00000
00000
00000
03000
;
