#TITLE:Dancer;
#SUBTITLE:;
#ARTIST:Mako;
#TITLETRANSLIT:;
#SUBTITLETRANSLIT:;
#ARTISTTRANSLIT:;
#GENRE:;
#CREDIT:;
#BANNER:ppp.jpg;
#BACKGROUND:;
#LYRICSPATH:;
#CDTITLE:;
#MUSIC:Dancer.mp3;
#OFFSET:1.720;
#SAMPLESTART:45.080;
#SAMPLELENGTH:12.000;
#SELECTABLE:YES;
#BPMS:0.000=154.160;
#STOPS:20.000=1.946
;
#DELAYS:;
#TIMESIGNATURES:0.000=4=4
;
#BGCHANGES:;
#KEYSOUNDS:;
#ATTACKS:;
// cache tags:
#FIRSTBEAT:20.000;
#LASTBEAT:215.000;
#SONGFILENAME:/Songs/ParaPara/Dancer/Dancer.sm;
#HASMUSIC:1;
#HASBANNER:1;
#MUSICLENGTH:86.680;
// end cache tags

//---------------para-single - Arcade Style----------------
#NOTES:
     para-single:
     Arcade Style:
     Edit:
     1:
     0.239,0.349,0.242,0.311,0.046,97.000,21.000,27.000,0.000,0.000,0.000,0.000,-1.000,-1.000,0.239,0.349,0.242,0.311,0.046,97.000,21.000,27.000,0.000,0.000,0.000,0.000,-1.000,-1.000:
00000
00000
00000
00000
,
00000
00000
00000
00000
,
00000
00000
00000
00000
,
00000
00000
00000
00000
,
00000
00000
00000
00000
,
00002
00000
00000
00000
,
00000
00000
00000
00000
,
00003
00000
02020
03030
,
00000
20000
00000
00000
,
30000
00000
02020
03030
,
00000
00002
00000
00000
,
00003
00000
02020
03030
,
00000
20000
00000
00000
,
30000
00000
02020
03030
,
00000
00000
00100
00000
,
00100
00000
00100
00000
,
00100
00000
00100
00000
,
00100
00000
00100
00000
,
00100
00000
00100
00000
,
00100
00000
00100
00000
,
00100
00000
00100
00000
,
00100
00000
00100
00000
,
00100
02000
03000
00000
,
00000
01000
00000
00010
,
00000
00000
00000
01000
00100
00010
00001
00000
00000
00010
00000
00000
,
00001
00000
00000
00010
00100
01000
10000
00000
00000
01000
00000
00000
,
10000
02000
03000
00000
,
00000
01000
00000
00010
,
00000
00000
00000
01000
00100
00010
00001
00000
00000
00010
00000
00000
,
00001
00000
00000
00010
00100
01000
10000
00000
00000
01000
00000
00000
,
10000
00001
00000
00001
,
00000
00001
00000
00001
,
00000
10000
00000
10000
,
00000
10000
00000
10000
,
00000
10001
00000
10001
,
00000
10001
00000
10001
,
00000
10001
00000
10001
,
00000
10001
00000
10001
,
00000
00001
00000
00001
,
00000
00001
00000
00001
,
00000
10000
00000
10000
,
00000
10000
00000
10000
,
00000
10001
00000
10001
,
00000
10001
00000
10001
,
00000
00010
00010
00010
,
00010
00100
01010
00000
,
00000
00002
00000
00000
,
00003
00000
02020
03030
,
00000
20000
00000
00000
,
30000
00000
02020
03030
,
00000
00002
00000
00000
,
00003
00000
02020
03030
,
00000
20000
00000
00000
,
30000
00000
02020
03030
,
00000
00002
00000
00000
,
00003
00000
00000
00000
;

//---------------para-single - Blank----------------
#NOTES:
     para-single:
     Blank:
     Beginner:
     3:
     0.239,0.248,0.242,0.311,0.046,97.000,21.000,27.000,0.000,0.000,0.000,0.000,-1.000,-1.000,0.239,0.248,0.242,0.311,0.046,97.000,21.000,27.000,0.000,0.000,0.000,0.000,-1.000,-1.000:
00000
00000
00000
00000
,
00000
00000
00000
00000
,
00000
00000
00000
00000
,
00000
00000
00000
00000
,
00000
00000
00000
00000
,
00002
00000
00000
00003
,
00000
02020
03030
00000
,
20000
00000
00000
30000
,
00000
02020
03030
00000
,
00002
00000
00000
00003
,
00000
02020
03030
00000
,
20000
00000
00000
30000
,
00000
02020
03030
00000
,
00000
00100
00000
00100
,
00000
00100
00000
00100
,
00000
00100
00000
00100
,
00000
00100
00000
00100
,
00000
00100
00000
00100
,
00000
00100
00000
00100
,
00000
00100
00000
00100
,
00000
00100
00000
00100
,
02000
03000
00000
00000
,
01000
00000
00010
00000
,
01000
00100
00010
00001
00000
00000
00010
00000
00000
00001
00000
00000
,
00010
00100
01000
10000
00000
00000
01000
00000
00000
10000
00000
00000
,
02000
03000
00000
00000
,
01000
00000
00010
00000
,
01000
00100
00010
00001
00000
00000
00010
00000
00000
00001
00000
00000
,
00010
00100
01000
10000
00000
00000
01000
00000
00000
10000
00000
00000
,
00001
00000
00001
00000
,
00001
00000
00001
00000
,
10000
00000
10000
00000
,
10000
00000
10000
00000
,
10001
00000
10001
00000
,
10001
00000
10001
00000
,
10001
00000
10001
00000
,
10001
00000
10001
00000
,
00001
00000
00001
00000
,
00001
00000
00001
00000
,
10000
00000
10000
00000
,
10000
00000
10000
00000
,
10001
00000
10001
00000
,
10001
00000
10001
00000
,
00010
00010
00010
00010
,
00100
01010
00000
00000
,
00002
00000
00000
00003
,
00000
02020
03030
00000
,
20000
00000
00000
30000
,
00000
02020
03030
00000
,
00002
00000
00000
00003
,
00000
02020
03030
00000
,
20000
00000
00000
30000
,
00000
02020
03030
00000
,
00002
00000
00000
00003
;
