#TITLE:DuDu DaDa;
#SUBTITLE:;
#ARTIST:Danny Keith;
#TITLETRANSLIT:;
#SUBTITLETRANSLIT:;
#ARTISTTRANSLIT:;
#GENRE:;
#CREDIT:;
#BANNER:banner.png;
#BACKGROUND:;
#LYRICSPATH:;
#CDTITLE:cdtitle.png;
#MUSIC:dududada.mp3;
#OFFSET:0.443;
#SAMPLESTART:58.580;
#SAMPLELENGTH:12.000;
#SELECTABLE:YES;
#BPMS:0.000=155.000;
#STOPS:;
#DELAYS:;
#TIMESIGNATURES:0.000=4=4
;
#BGCHANGES:1.000=flipped.avi=1.000=0=0=1=====,
99999=-nosongbg-=1.000=0=0=0 // don't automatically add -songbackground-
;
#KEYSOUNDS:;
#ATTACKS:;
// cache tags:
#FIRSTBEAT:37.000;
#LASTBEAT:358.500;
#SONGFILENAME:/Songs/ParaPara/DuDuDaDa/dududada.sm;
#HASMUSIC:1;
#HASBANNER:1;
#MUSICLENGTH:138.567;
// end cache tags

//---------------para-single - ----------------
#NOTES:
     para-single:
     :
     Beginner:
     5:
     0.324,0.323,0.318,0.419,0.000,212.000,44.000,58.000,0.000,0.000,0.000,0.000,-1.000,-1.000,0.324,0.323,0.318,0.419,0.000,212.000,44.000,58.000,0.000,0.000,0.000,0.000,-1.000,-1.000:
00000
00000
00000
00000
,
00000
00000
00000
00000
,
00000
00000
00000
00000
,
00000
00000
00000
00000
,
00000
00000
00000
00000
,
00000
00000
00000
00000
,
00000
00000
00000
00000
,
00000
00000
00000
00000
,
00000
00000
00000
00000
,
00000
10001
10001
00000
,
00000
10001
10001
00000
,
00000
10001
10001
00000
,
00000
00010
00010
01000
,
01000
10001
10001
00000
,
00000
10001
10001
00000
,
00000
10001
10001
00000
,
00000
00010
00010
01000
,
01000
01000
00100
00010
,
00000
00010
00100
01000
,
00000
00000
01000
00100
00010
00000
00010
00100
,
01000
00100
00100
00200
,
00300
01000
00100
00010
,
00000
00010
00100
01000
,
00000
00000
01000
00100
00010
00000
00010
00100
,
01000
00100
00100
00200
,
00300
20002
00000
00000
,
30003
00100
00100
00200
,
00300
01010
00000
00000
,
00000
01010
00000
00000
,
00000
20002
00000
00000
,
30003
00100
00100
00200
,
00300
01010
00000
00000
,
00000
00001
10000
00001
,
10000
00000
00010
01000
00000
02000
00020
00000
,
00000
03030
00010
00000
00010
00000
01000
00000
,
01000
01010
00000
00000
,
00000
00000
00000
02020
,
03030
00000
00010
01000
00000
02000
00020
00000
,
00000
03030
00010
00000
00010
00000
01000
00000
,
01000
00002
00003
20000
,
30000
00000
00000
02020
,
03030
00000
00010
01000
00000
02000
00020
00000
,
00000
03030
00010
00000
00010
00000
01000
00000
,
01000
01010
00000
00000
,
00000
00000
00000
02020
,
03030
00000
00010
01000
00000
02000
00020
00000
,
00000
03030
00010
00000
00010
00000
01000
00000
,
01000
00002
00003
20000
,
30000
00000
00000
02020
,
03030
00000
00000
00000
00000
20200
00000
00000
,
00000
00000
00000
00000
,
30300
10001
10001
00000
,
00000
00010
00010
01000
,
01000
10001
10001
00000
,
00000
10001
10001
00000
,
00000
10001
10001
00000
,
00000
00010
00010
01000
,
01000
01000
00100
00010
,
00000
00010
00100
01000
,
00000
00000
01000
00100
00010
00000
00010
00100
,
01000
00100
00100
00200
,
00300
01000
00100
00010
,
00000
00010
00100
01000
,
00000
00000
01000
00100
00010
00000
00010
00100
,
01000
00100
00100
00200
,
00300
20002
00000
00000
,
30003
00100
00100
00200
,
00300
01010
00000
00000
,
00000
01010
00000
00000
,
00000
20002
00000
00000
,
30003
00100
00100
00200
,
00300
01010
00000
00000
,
00000
00001
10000
00001
,
10000
00000
00010
01000
00000
02000
00020
00000
,
00000
03030
00010
00000
00010
00000
01000
00000
,
01000
01010
00000
00000
,
00000
00000
00000
02020
,
03030
00000
00010
01000
00000
02000
00020
00000
,
00000
03030
00010
00000
00010
00000
01000
00000
,
01000
00002
00003
20000
,
30000
00000
00000
02020
,
03030
00000
00010
01000
00000
02000
00020
00000
,
00000
03030
00010
00000
00010
00000
01000
00000
,
01000
01010
00000
00000
,
00000
00000
00000
02020
,
03030
00000
00010
01000
00000
02000
00020
00000
,
00000
03030
00010
00000
00010
00000
01000
00000
,
01000
00002
00003
20000
,
30000
00000
00000
02020
,
03030
00000
00000
00000
00000
10100
00000
00000
;
