#TITLE:Spitfire;
#SUBTITLE:;
#ARTIST:GO2;
#TITLETRANSLIT:;
#SUBTITLETRANSLIT:;
#ARTISTTRANSLIT:;
#GENRE:;
#CREDIT:;
#BANNER:go2.jpg;
#BACKGROUND:;
#LYRICSPATH:;
#CDTITLE:go2.jpg;
#MUSIC:spitfire.mp3;
#OFFSET:0.000;
#SAMPLESTART:44.360;
#SAMPLELENGTH:12.000;
#SELECTABLE:YES;
#BPMS:0.000=157.000;
#STOPS:;
#DELAYS:;
#TIMESIGNATURES:0.000=4=4
;
#BGCHANGES:;
#KEYSOUNDS:;
#ATTACKS:;
// cache tags:
#FIRSTBEAT:20.000;
#LASTBEAT:215.000;
#SONGFILENAME:/Songs/ParaPara/Spitfire/Spitfire.sm;
#HASMUSIC:1;
#HASBANNER:1;
#MUSICLENGTH:91.115;
// end cache tags

//---------------para-single - Blank----------------
#NOTES:
     para-single:
     Blank:
     Beginner:
     1:
     0.351,0.472,0.757,0.307,0.022,127.000,69.000,28.000,0.000,0.000,0.000,0.000,-1.000,-1.000,0.351,0.472,0.757,0.307,0.022,127.000,69.000,28.000,0.000,0.000,0.000,0.000,-1.000,-1.000:
00000
00000
00000
00000
,
00000
00000
00000
00000
,
00000
00000
00000
00000
,
00000
00000
00000
00000
,
00000
00000
00000
00000
,
10001
10001
00000
10001
,
10001
10001
00000
10001
,
10001
10001
20002
30003
,
10001
10001
20002
30003
,
10001
10001
00000
10001
,
10001
10001
00000
10001
,
10001
10001
20002
30003
,
10001
10001
20002
30003
,
00010
00010
01000
01000
,
01010
00000
00010
01000
,
00010
00010
01000
01000
,
01010
00000
00010
01000
,
00010
00010
01000
01000
,
01010
00000
00010
01000
,
01000
00000
00000
00100
00000
00000
00010
00000
00000
00001
00000
00000
00000
00000
00000
00000
,
00010
00000
00000
00100
00000
00000
01000
00000
00000
10000
00000
00000
00000
00000
00000
00000
,
01100
01100
00020
00030
,
00110
00110
02000
03000
,
00020
02000
03030
00100
,
00000
00000
00000
02020
00000
03030
00000
00000
,
01100
01100
00020
00030
,
00110
00110
02000
03000
,
00010
00000
01000
00000
,
00010
01000
00000
00000
,
00001
00000
10000
00000
00000
00001
00000
00000
,
00000
00000
10001
00000
,
00010
00000
01000
00000
,
00000
02020
03030
00000
,
00000
00000
00000
00000
,
00100
01010
00000
01010
,
00010
00000
01000
00000
,
00010
01000
00000
00000
,
00001
00000
10000
00000
00000
00001
00000
00000
,
00000
00000
10001
00000
,
00010
00000
01000
00000
,
00000
02020
00000
00000
03030
00000
00000
00000
,
00000
00000
00000
00000
,
00100
01010
00000
01010
,
00010
00000
01000
00000
,
00010
01000
00000
00000
,
01000
00000
11000
00000
,
10001
10001
00000
10001
,
10001
10001
00000
10001
,
10001
10001
20002
30003
,
10001
10001
20002
30003
,
10001
10001
00000
10001
,
10001
10001
00000
10001
,
10001
10001
20002
30003
,
10001
10001
20002
30003
;

//---------------para-single - Blank----------------
#NOTES:
     para-single:
     Blank:
     Edit:
     1:
     0.351,0.472,0.757,0.307,0.022,127.000,69.000,28.000,0.000,0.000,0.000,0.000,-1.000,-1.000,0.351,0.472,0.757,0.307,0.022,127.000,69.000,28.000,0.000,0.000,0.000,0.000,-1.000,-1.000:
00000
00000
00000
00000
,
00000
00000
00000
00000
,
00000
00000
00000
00000
,
00000
00000
00000
00000
,
00000
00000
00000
00000
,
10001
10001
00000
10001
,
10001
10001
00000
10001
,
10001
10001
20002
30003
,
10001
10001
20002
30003
,
10001
10001
00000
10001
,
10001
10001
00000
10001
,
10001
10001
20002
30003
,
10001
10001
20002
30003
,
00010
00010
01000
01000
,
01010
00000
00010
01000
,
00010
00010
01000
01000
,
01010
00000
00010
01000
,
00010
00010
01000
01000
,
01010
00000
00010
01000
,
01000
00000
00000
00100
00000
00000
00010
00000
00000
00001
00000
00000
00000
00000
00000
00000
,
00010
00000
00000
00100
00000
00000
01000
00000
00000
10000
00000
00000
00000
00000
00000
00000
,
01100
01100
00020
00030
,
00110
00110
02000
03000
,
00020
02000
03030
00100
,
00000
00000
00000
02020
00000
03030
00000
00000
,
01100
01100
00020
00030
,
00110
00110
02000
03000
,
00010
00000
01000
00000
,
00010
01000
00000
00000
,
00001
00000
10000
00000
00000
00001
00000
00000
,
00000
00000
10001
00000
,
00010
00000
01000
00000
,
00000
02020
03030
00000
,
00000
00000
00000
00000
,
00100
01010
00000
01010
,
00010
00000
01000
00000
,
00010
01000
00000
00000
,
00001
00000
10000
00000
00000
00001
00000
00000
,
00000
00000
10001
00000
,
00010
00000
01000
00000
,
00000
02020
00000
00000
03030
00000
00000
00000
,
00000
00000
00000
00000
,
00100
01010
00000
01010
,
00010
00000
01000
00000
,
00010
01000
00000
00000
,
01000
00000
11000
00000
,
10001
10001
00000
10001
,
10001
10001
00000
10001
,
10001
10001
20002
30003
,
10001
10001
20002
30003
,
10001
10001
00000
10001
,
10001
10001
00000
10001
,
10001
10001
20002
30003
,
10001
10001
20002
30003
;
