#TITLE:Carlito;
#SUBTITLE:Club Mix;
#ARTIST:Spaghettini;
#TITLETRANSLIT:;
#SUBTITLETRANSLIT:;
#ARTISTTRANSLIT:;
#GENRE:;
#CREDIT:;
#BANNER:banner.png;
#BACKGROUND:;
#LYRICSPATH:;
#CDTITLE:cdtitle.png;
#MUSIC:carlito.mp3;
#OFFSET:0.063;
#SAMPLESTART:40.000;
#SAMPLELENGTH:12.000;
#SELECTABLE:YES;
#BPMS:0.000=145.150;
#STOPS:;
#DELAYS:;
#TIMESIGNATURES:0.000=4=4
;
#BGCHANGES:0.500=flipped.mpg=1.000=0=0=1=====,
99999=-nosongbg-=1.000=0=0=0 // don't automatically add -songbackground-
;
#KEYSOUNDS:;
#ATTACKS:;
// cache tags:
#FIRSTBEAT:17.000;
#LASTBEAT:183.000;
#SONGFILENAME:/Songs/TraPara/Carlito/carlito.sm;
#HASMUSIC:1;
#HASBANNER:1;
#MUSICLENGTH:78.268;
// end cache tags

//---------------para-single - ----------------
#NOTES:
     para-single:
     :
     Easy:
     5:
     0.228,0.351,0.179,0.089,0.006,104.000,14.000,7.000,0.000,0.000,0.000,0.000,-1.000,-1.000,0.228,0.351,0.179,0.089,0.006,104.000,14.000,7.000,0.000,0.000,0.000,0.000,-1.000,-1.000:
00000
00000
00000
00000
,
00000
00000
00000
00000
,
00000
00000
00000
00000
,
00000
00000
00000
00000
,
00000
00000
00010
00100
00000
00000
00100
00010
,
00000
00002
10003
00000
,
00000
00000
00100
01000
00000
00000
00100
00010
,
00000
00000
00100
01000
00000
00000
00000
00000
,
00000
00010
00000
00010
,
00000
00000
00010
00000
,
00000
01000
00000
01000
,
00000
00100
00000
00100
,
00100
01000
00000
00000
,
00000
00002
00003
00000
,
00000
20000
30000
00000
,
00000
20002
30003
00010
,
01000
00000
00000
00000
00000
00000
01010
00100
,
01010
00000
00000
01010
,
00000
00000
00100
01010
20002
00000
00000
00000
,
30003
00000
00000
00000
00000
00000
00000
00000
00000
00000
00100
01010
10001
00000
00000
00000
,
00000
00010
00000
01000
,
01000
01000
01000
01000
,
01000
01000
00010
00010
,
01000
00000
00010
00000
,
01000
01000
00010
00010
,
01000
00000
00100
00000
,
00100
00000
00000
00000
,
00100
00000
00000
00000
00001
00000
00010
00100
,
01000
10001
00000
00000
,
10000
00000
10001
00000
,
00000
01000
00010
00010
,
01000
00000
00010
00000
,
01000
01000
00010
00010
,
01000
00000
00100
00000
,
00100
00000
00000
00000
,
00100
00000
00000
00000
00001
00000
00010
00100
,
01000
10001
00000
00000
,
10000
00000
10001
00000
,
00000
01000
00010
00010
,
01000
00000
00010
00000
,
01000
01000
00010
00010
,
01000
00000
00100
00000
,
00100
00000
00000
00000
,
00100
00000
00000
00000
00001
00000
00010
00100
,
01000
10001
00000
00000
,
10000
00000
10001
00100
;
