#TITLE:Dj Doc;
#SUBTITLE:;
#ARTIST:;
#TITLETRANSLIT:;
#SUBTITLETRANSLIT:;
#ARTISTTRANSLIT:;
#CREDIT:;
#BANNER:bann.JPG;
#BACKGROUND:bann.JPG;
#LYRICSPATH:;
#CDTITLE:;
#MUSIC:djdoc.MP3;
#OFFSET:-3.720;
#SAMPLESTART:12.020;
#SAMPLELENGTH:12.000;
#SELECTABLE:YES;
#BPMS:0.000=95.000,9.000=94.980,9.333=94.920;
#STOPS:;
#BGCHANGES:-14.700=S0.avi=1.000=0=0=1
,127.667=S0.avi=1.000=0=0=1
;
// cache tags:
#FIRSTBEAT:5.500;
#LASTBEAT:127.000;
#SONGFILENAME:Songs/3DDX/DJDOC/djdoc.sm;
#HASMUSIC:1;
#HASBANNER:1;
#MUSICLENGTH:89.463;
// end cache tags

//---------------ds3ddx-single - ----------------
#NOTES:
     ds3ddx-single:
     :
     Easy:
     5:
     0.327,0.319,0.604,0.000,0.520,139.000,54.000,0.000,0.000,11.000:
00000000
00000000
00000000
00000000
,
00000000
00000000
00000000
00000000
00000000
00000000
00000000
00000000
00000000
00110000
00000000
00000000
00000000
00000000
00000000
00000000
00000000
00000101
00000000
00000000
00000000
00000000
00000000
00000000
,
00000000
00000100
00000000
00000000
00000000
00100000
00000000
00000000
00000000
00000000
01000000
00000000
00000000
00000000
00000010
00000000
00000000
00000000
11000000
00000000
00000000
00000000
00000000
00000000
,
00000000
00000000
00000000
00000011
00000000
00000000
00000000
00000000
00000000
00000000
00000000
00000000
00100000
00000000
00000000
00000100
00000000
00000000
00000000
00000010
00000000
00000000
00000000
00000000
,
01000000
00000000
00000000
00000000
00010100
00000000
00000000
00000000
00000000
00000000
00000000
00000000
00000000
00010100
00000000
00000000
00000000
00000000
00000000
00000000
00000000
00000010
00000000
00000000
,
00000000
00000100
00000000
00000000
00000000
00000010
00000000
00000100
00000000
00000010
00000000
00000000
00000000
00000110
00000000
00000000
00000000
00000000
00000000
00000000
00000000
00000000
01100000
00000000
,
00000000
00000000
00000000
00000000
00000000
00000000
00100100
00000000
00000000
00000000
00000000
00000000
00000000
00000000
00000000
11000011
00000000
00000000
00000000
00000000
00000000
00000000
00000000
00010100
,
00000000
00000000
00000000
00000000
10100000
00000000
00000000
00000000
00100000
00000000
00000100
00000000
,
00000010
00000000
00000000
00000000
00000000
01000000
00000000
00000000
00000000
00000011
00000000
00000000
00000000
00000000
00000000
00000000
00000000
11000000
00000000
00000000
00000000
00000000
00000000
00000000
,
00000000
00000100
00000000
00000000
00000000
00100000
00000000
00000000
00000000
01000000
00000000
00000000
00000000
00000010
00000000
00000000
00000000
00000000
00110000
00000000
00000000
00000000
00000000
00000000
,
00000000
00000000
00110000
00000000
00000000
00000000
00000000
00000000
00000000
00000000
00000000
01000000
00000000
00000000
00000000
00100000
00000000
00000000
00000000
01000000
00000000
00100000
00000000
01000000
,
00000000
00000000
00000000
00000000
01100000
00000000
00000000
00000000
00000000
00000000
00000000
00000000
00000110
00000000
00000000
00000000
00000000
00000000
00000000
00000000
00000000
01000010
00000000
00000000
,
00000000
00000000
00000000
00000000
00000000
00110100
00000000
00000000
00000000
00000000
00000000
00000000
00000000
01000000
00000000
00000000
00000000
00000010
00000000
00000000
00000000
01000000
00000000
01000000
,
00000000
01000000
00000000
00000000
00000000
00000000
00000010
00000000
00000000
00000000
01000000
00000000
00000000
00000000
00000010
00000000
00000010
00000000
00000010
00000000
00000000
00000000
00000000
00100000
,
00000000
00000000
00000000
00000100
00000000
00000000
00000000
00000010
00000000
00000000
00000000
01000000
00000000
00000000
00000000
00000000
01000000
00000000
00000000
00000000
00000000
00000000
00000000
00000000
,
00010100
00000000
00000000
00000000
00010100
00000000
00000000
00000000
00000011
00000000
00000000
00000000
00000000
00000000
00000000
00000000
00000000
10100000
00000000
00000000
00000000
00000000
00000000
00000000
,
00000000
00000100
00000000
00000000
00000000
00100000
00000000
00000000
00000000
00000010
00000000
00000000
00000000
00000000
01000000
00000000
00000000
00000000
00000010
00000000
00000000
00000000
00000010
00000000
,
00000000
00000000
01000000
00000000
00000000
00000000
01000000
00000000
00000000
00000000
00000000
01000010
00000000
00000000
00000000
00000000
00000000
00000000
00000000
00110100
00000000
00000000
00000000
00000000
,
00000000
00000000
00000000
01000100
00000000
00000000
00000000
00000000
00000000
00000000
00000000
00100010
00000000
00000000
00000000
00000000
00000000
00000000
00000000
00000000
01000000
00000000
00000000
00000000
,
00000010
00000000
00000000
00000000
00010101
00000000
00000000
00000000
00000000
00000000
00000000
00000000
00100010
00000000
00000000
00000000
00000000
00000000
00000000
00000000
00000000
01000100
00000000
00000000
,
00000000
00000000
00000000
00000000
00000000
00000010
00000000
00000000
00000000
00000000
01000000
00000000
00000000
00000000
10110000
00000000
00000000
00000000
00000000
00000000
00000000
00000000
00000010
00000000
,
00000000
00000000
00000010
00000000
00000000
00000000
00000100
00000000
00000000
00000000
00000100
00000000
00000000
00000000
00000000
00000010
00000000
00000100
00000000
00000010
00000000
00000000
00000000
00000100
,
00000000
00000010
00000000
00000100
00000000
00000000
00000000
00000000
01100000
00000000
00000000
00000000
00000000
00000000
00000000
00000000
00000110
00000000
00000000
00000000
00000000
00000000
00000000
00000000
,
00000000
01000010
00000000
00000000
00000000
00010100
00000000
00000000
00000000
10000101
00000000
00000000
00000000
00000000
00000000
00000000
00000000
00100010
00000000
00000000
00000000
00000000
00000000
00000000
,
00000000
01000100
00000000
00000000
00000000
00000000
00000000
00000000
00000000
00000000
00000010
00000000
00000000
00000000
01000000
00000000
00000000
00000000
10110000
00000000
00000000
00000000
00000000
00000000
,
00000000
00000000
00000000
01000100
00000000
00000000
00000000
00000000
00000000
00000000
00000000
00100010
00000000
00000000
00000000
00000000
00000000
00000000
00000000
00000000
01000000
00000000
00000000
00000000
,
00000010
00000000
00000000
00000000
00010101
00000000
00000000
00000000
00000000
00000000
00000000
00000000
01000000
00000000
00000000
00000000
00000000
01000000
00000000
00000000
00000000
00100000
00000000
00000000
,
00000000
00100000
00000000
00000000
00000000
01000000
00000000
00100000
00000000
01000000
00000000
00000000
00000000
00100000
00000000
00000000
01000000
00000000
00100000
00000000
00000000
00000000
00000110
00000000
,
00000000
00000000
00000000
00000000
00000000
00000000
01100000
00000000
00000000
00000000
00000000
00000000
00000000
00000000
01000010
00000000
00000000
00000000
00000000
00110000
00000000
00000000
00000000
10100001
,
00000000
00000000
00000000
00000000
00000100
00000000
00100000
00000000
01000000
00000000
00000010
00000000
,
01000010
00000000
00000000
00000000
00010100
00000000
00000000
00000000
10000101
00000000
00000000
00000000
00000000
00000000
00000000
00000000
00000000
00100000
00000000
00000000
00000000
00000100
00000000
00000000
,
00000000
00000010
00000000
00000000
00000000
01000000
00000000
00000000
00000000
00000000
01000010
00000000
00000000
00000000
00110000
00000000
00000000
00000000
10100001
00000000
00000000
00000000
00000000
00000000
;

//---------------ds3ddx-single - Copied from----------------
#NOTES:
     ds3ddx-single:
     Copied from:
     Hard:
     5:
     0.327,0.319,0.604,0.000,0.520,139.000,54.000,0.000,0.000,11.000:
00000000
00000000
00000000
00000000
,
00000000
00000000
00000000
00000000
00000000
00000000
00000000
00000000
00000000
00110000
00000000
00000000
00000000
00000000
00000000
00000000
00000000
00000101
00000000
00000000
00000000
00000000
00000000
00000000
,
00000000
00000100
00000000
00000000
00000000
00100000
00000000
00000000
00000000
00000000
01000000
00000000
00000000
00000000
00000010
00000000
00000000
00000000
11000000
00000000
00000000
00000000
00000000
00000000
,
00000000
00000000
00000000
00000011
00000000
00000000
00000000
00000000
00000000
00000000
00000000
00000000
00100000
00000000
00000000
00000100
00000000
00000000
00000000
00000010
00000000
00000000
00000000
00000000
,
01000000
00000000
00000000
00000000
00010100
00000000
00000000
00000000
00000000
00000000
00000000
00000000
00000000
00010100
00000000
00000000
00000000
00000000
00000000
00000000
00000000
00000010
00000000
00000000
,
00000000
00000100
00000000
00000000
00000000
00000010
00000000
00000100
00000000
00000010
00000000
00000000
00000000
00000110
00000000
00000000
00000000
00000000
00000000
00000000
00000000
00000000
01100000
00000000
,
00000000
00000000
00000000
00000000
00000000
00000000
00100100
00000000
00000000
00000000
00000000
00000000
00000000
00000000
00000000
11000011
00000000
00000000
00000000
00000000
00000000
00000000
00000000
00010100
,
00000000
00000000
00000000
00000000
10100000
00000000
00000000
00000000
00100000
00000000
00000100
00000000
,
00000010
00000000
00000000
00000000
00000000
01000000
00000000
00000000
00000000
00000011
00000000
00000000
00000000
00000000
00000000
00000000
00000000
11000000
00000000
00000000
00000000
00000000
00000000
00000000
,
00000000
00000100
00000000
00000000
00000000
00100000
00000000
00000000
00000000
01000000
00000000
00000000
00000000
00000010
00000000
00000000
00000000
00000000
00110000
00000000
00000000
00000000
00000000
00000000
,
00000000
00000000
00110000
00000000
00000000
00000000
00000000
00000000
00000000
00000000
00000000
01000000
00000000
00000000
00000000
00100000
00000000
00000000
00000000
01000000
00000000
00100000
00000000
01000000
,
00000000
00000000
00000000
00000000
01100000
00000000
00000000
00000000
00000000
00000000
00000000
00000000
00000110
00000000
00000000
00000000
00000000
00000000
00000000
00000000
00000000
01000010
00000000
00000000
,
00000000
00000000
00000000
00000000
00000000
00110100
00000000
00000000
00000000
00000000
00000000
00000000
00000000
01000000
00000000
00000000
00000000
00000010
00000000
00000000
00000000
01000000
00000000
01000000
,
00000000
01000000
00000000
00000000
00000000
00000000
00000010
00000000
00000000
00000000
01000000
00000000
00000000
00000000
00000010
00000000
00000010
00000000
00000010
00000000
00000000
00000000
00000000
00100000
,
00000000
00000000
00000000
00000100
00000000
00000000
00000000
00000010
00000000
00000000
00000000
01000000
00000000
00000000
00000000
00000000
01000000
00000000
00000000
00000000
00000000
00000000
00000000
00000000
,
00010100
00000000
00000000
00000000
00010100
00000000
00000000
00000000
00000011
00000000
00000000
00000000
00000000
00000000
00000000
00000000
00000000
10100000
00000000
00000000
00000000
00000000
00000000
00000000
,
00000000
00000100
00000000
00000000
00000000
00100000
00000000
00000000
00000000
00000010
00000000
00000000
00000000
00000000
01000000
00000000
00000000
00000000
00000010
00000000
00000000
00000000
00000010
00000000
,
00000000
00000000
01000000
00000000
00000000
00000000
01000000
00000000
00000000
00000000
00000000
01000010
00000000
00000000
00000000
00000000
00000000
00000000
00000000
00110100
00000000
00000000
00000000
00000000
,
00000000
00000000
00000000
01000100
00000000
00000000
00000000
00000000
00000000
00000000
00000000
00100010
00000000
00000000
00000000
00000000
00000000
00000000
00000000
00000000
01000000
00000000
00000000
00000000
,
00000010
00000000
00000000
00000000
00010101
00000000
00000000
00000000
00000000
00000000
00000000
00000000
00100010
00000000
00000000
00000000
00000000
00000000
00000000
00000000
00000000
01000100
00000000
00000000
,
00000000
00000000
00000000
00000000
00000000
00000010
00000000
00000000
00000000
00000000
01000000
00000000
00000000
00000000
10110000
00000000
00000000
00000000
00000000
00000000
00000000
00000000
00000010
00000000
,
00000000
00000000
00000010
00000000
00000000
00000000
00000100
00000000
00000000
00000000
00000100
00000000
00000000
00000000
00000000
00000010
00000000
00000100
00000000
00000010
00000000
00000000
00000000
00000100
,
00000000
00000010
00000000
00000100
00000000
00000000
00000000
00000000
01100000
00000000
00000000
00000000
00000000
00000000
00000000
00000000
00000110
00000000
00000000
00000000
00000000
00000000
00000000
00000000
,
00000000
01000010
00000000
00000000
00000000
00010100
00000000
00000000
00000000
10000101
00000000
00000000
00000000
00000000
00000000
00000000
00000000
00100010
00000000
00000000
00000000
00000000
00000000
00000000
,
00000000
01000100
00000000
00000000
00000000
00000000
00000000
00000000
00000000
00000000
00000010
00000000
00000000
00000000
01000000
00000000
00000000
00000000
10110000
00000000
00000000
00000000
00000000
00000000
,
00000000
00000000
00000000
01000100
00000000
00000000
00000000
00000000
00000000
00000000
00000000
00100010
00000000
00000000
00000000
00000000
00000000
00000000
00000000
00000000
01000000
00000000
00000000
00000000
,
00000010
00000000
00000000
00000000
00010101
00000000
00000000
00000000
00000000
00000000
00000000
00000000
01000000
00000000
00000000
00000000
00000000
01000000
00000000
00000000
00000000
00100000
00000000
00000000
,
00000000
00100000
00000000
00000000
00000000
01000000
00000000
00100000
00000000
01000000
00000000
00000000
00000000
00100000
00000000
00000000
01000000
00000000
00100000
00000000
00000000
00000000
00000110
00000000
,
00000000
00000000
00000000
00000000
00000000
00000000
01100000
00000000
00000000
00000000
00000000
00000000
00000000
00000000
01000010
00000000
00000000
00000000
00000000
00110000
00000000
00000000
00000000
10100001
,
00000000
00000000
00000000
00000000
00000100
00000000
00100000
00000000
01000000
00000000
00000010
00000000
,
01000010
00000000
00000000
00000000
00010100
00000000
00000000
00000000
10000101
00000000
00000000
00000000
00000000
00000000
00000000
00000000
00000000
00100000
00000000
00000000
00000000
00000100
00000000
00000000
,
00000000
00000010
00000000
00000000
00000000
01000000
00000000
00000000
00000000
00000000
01000010
00000000
00000000
00000000
00110000
00000000
00000000
00000000
10100001
00000000
00000000
00000000
00000000
00000000
;
