#TITLE:Roflcopter;
#SUBTITLE:;
#ARTIST:Bonehead;
#TITLETRANSLIT:;
#SUBTITLETRANSLIT:;
#ARTISTTRANSLIT:;
#CREDIT:;
#BANNER:Roflcopter-banner.png;
#BACKGROUND:Roflcopter-bg.png;
#LYRICSPATH:;
#CDTITLE:;
#MUSIC:music.ogg;
#OFFSET:0.005;
#SAMPLESTART:16.307;
#SAMPLELENGTH:14.490;
#SELECTABLE:YES;
#BPMS:0.000=265.000;
#STOPS:;
#BGCHANGES:;
// cache tags:
#FIRSTBEAT:32.000;
#LASTBEAT:501.000;
#SONGFILENAME:Songs/SSSC Pack 2/Roflcopter - [Chaoz]/Roflcopter.sm;
#HASMUSIC:1;
#HASBANNER:1;
#MUSICLENGTH:114.090;
// end cache tags

//---------------dance-single - C. Clinton----------------
#NOTES:
     dance-single:
     C. Clinton:
     Challenge:
     14:
     1.000,1.000,1.000,0.035,0.184,575.000,265.000,4.000,4.000,0.000:

0000
0000
0000
0000
,
0000
0000
0000
0000
,
0000
0000
0000
0000
,
0000
0000
0000
0000
,
0000
0000
0000
0000
,
0000
0000
0000
0000
,
0000
0000
0000
0000
,
0000
0000
0000
0000
,
1001
0000
1000
0000
,
0010
0000
0100
0000
,
0101
0000
0001
0000
,
1000
0000
0000
0000
0100
0000
0010
0001
,
0011
0000
0001
0000
,
1000
0000
0010
0000
,
0110
0000
0100
0000
,
0101
0000
1001
0000
,
1100
0000
0000
0000
,
0000
0000
0000
0000
,
0011
0000
0110
0000
1100
0000
1001
1001
,
1001
0000
0000
0000
0000
0000
0101
0000
0000
0000
0000
0000
0100
0010
0100
0010
0000
0000
1000
0000
0000
0001
0000
0000
,
1001
0000
1100
0000
0110
0000
0011
0011
,
0011
0000
0000
0000
0000
0000
1001
0000
0000
0000
0000
0000
1000
0010
1000
0010
0000
0000
0100
0000
0000
0001
0000
0000
,
0101
0000
1001
0000
1100
0000
0110
0110
,
0110
0000
0000
0000
0000
0000
0011
0000
0000
0000
0000
0000
0001
1000
0001
1000
0000
0000
0010
0000
0000
0100
0000
0000
,
0110
0000
0101
0000
1001
0000
1100
1100
,
1100
0000
0110
0000
0022
0000
0000
0033
,
0011
0000
1001
0000
1010
0000
0110
0110
,
0110
0000
0101
0000
1001
0000
1100
0100
,
0110
0000
0011
0000
1001
0000
0011
0011
,
0011
0000
0000
0000
0000
0000
0110
0000
0000
0000
0000
0000
1000
0100
1000
0100
0000
0000
1000
0000
0000
0001
0000
0000
,
1001
0000
0101
0000
0110
0000
1010
1010
,
1010
0000
0110
0000
0101
0000
1001
1000
,
1100
0000
0110
0000
0011
0000
1001
1001
,
1001
0000
0000
0000
0000
0000
1010
0000
0000
0000
0000
0000
0010
0100
0010
0100
0000
0000
0001
0000
0000
0100
0000
0000
,
0110
0010
1000
0001
,
0010
0000
0100
0000
1000
0000
0001
1000
,
1001
1000
0010
0100
,
0101
0000
0001
1001
0000
1000
0010
0100
,
0110
0010
1000
0001
,
1000
0000
0100
0000
0010
0000
0001
0010
,
0110
0100
1000
0001
,
1001
0000
1000
1010
0000
0010
0100
0001
,
0101
0001
1000
0100
,
0010
0000
0100
0000
0010
0000
0001
1000
,
1001
1000
0100
0010
,
0011
0000
0001
1001
0000
1000
0001
0100
,
0110
0010
1000
0010
,
0100
0000
0001
0000
1000
0000
0100
0010
,
0110
0100
1000
0001
,
1010
0000
0010
0110
0000
0100
0001
1000
,
1100
0000
0000
0000
,
0000
0000
0000
0000
,
0000
0000
0000
0000
,
1000
0000
0001
0000
1000
0000
0001
0000
1000
0001
1000
0001
1000
0001
1000
0001
,
1000
0000
1010
0000
0110
0000
0101
0101
,
0101
0000
1001
0000
1100
0000
0110
0010
,
0011
0000
1001
0000
1010
0000
0110
0110
,
0110
0000
0000
0000
0000
0000
0101
0000
0000
0000
0000
0000
0001
1000
0100
0010
0000
0000
0001
0000
0000
1000
0000
0000
,
1100
0000
1001
0000
0101
0000
0110
0110
,
0110
0000
1010
0000
1001
0000
0011
0010
,
0110
0000
1100
0000
0110
0000
0011
0011
,
0011
0000
0000
0000
0000
0000
1001
0000
0000
0000
0000
0000
1000
0010
0100
0001
0000
0000
1000
0000
0000
0001
0000
0000
,
0011
0000
0110
0000
1100
0000
1001
1001
,
1001
0000
0101
0000
0110
0000
1010
1000
,
1001
0000
0101
0000
0110
0000
1010
1010
,
1010
0000
0000
0000
0000
0000
1001
0000
0000
0000
0000
0000
1000
0100
0010
0001
0000
0000
1000
0000
0000
0001
0000
0000
,
0101
0000
1001
0000
1100
0000
1001
1001
,
1001
0000
0101
0000
0110
0000
1010
1000
,
1001
0000
0011
0000
0110
0000
1100
1100
,
1100
0000
0000
0000
0000
0000
1001
0000
0000
0000
0000
0000
0001
0100
0010
1000
0000
0000
0001
0000
0000
0100
0000
0000
,
0110
0000
0010
1000
0010
0000
0110
0000
0101
0000
0000
0000
0000
0000
0000
0000
,
1001
0000
1000
0100
1000
0000
1100
0000
0110
0000
0000
0000
0000
0000
0000
0000
,
0011
0000
0001
0010
0001
0000
1001
0000
1010
0000
0000
0000
0000
0000
0000
0000
,
0110
0000
0100
0001
0100
0000
0101
0000
1001
0000
0000
0000
1000
0000
0000
0000
,
1100
0100
0010
0010
0001
0001
1000
1000
,
1001
0001
0100
0100
0010
0010
1000
1000
,
1001
0001
0010
0100
0110
0100
1000
0001
,
1001
0000
0000
0000
1010
0000
0000
0000
0110
0000
0100
0000
0001
0100
0001
0100
,
0001
0000
0100
0000
0010
0000
1000
0001
,
0000
0001
1000
0000
0010
0000
0100
0001
,
1000
0000
0100
0000
0010
0000
0001
1000
,
0000
1000
0001
0000
0100
0000
0010
1000
,
1001
0000
0001
0000
1000
0000
0100
0010
,
0000
0010
0100
0000
1000
0000
0001
0010
,
0100
0000
1000
0000
0001
0000
1000
0010
,
0000
0010
1000
0000
0001
0000
0100
0010
,
1010
0000
1000
0000
0001
0000
1000
0100
,
0000
0100
0010
0000
0001
0000
1000
0001
,
0100
0000
0010
0000
1000
0000
0001
0010
,
0000
0010
0100
0000
1000
0000
0100
0010
,
0011
0000
0001
0000
1000
0000
0010
0100
,
0000
0100
0010
0000
1000
0000
0001
0010
,
0100
0000
1000
0000
0001
0000
1000
0010
,
0000
0010
0100
0000
0001
0000
1000
0010
,
1010
0000
0000
0000
,
0000
0000
0000
0000
,
1000
0000
0001
0000
1000
0000
0001
0000
1000
0001
1000
0001
1000
0001
1000
0001
,
1000
0000
1100
0000
0110
0000
0011
0110
,
0011
0000
1001
0000
0101
0000
0110
0010
,
1010
0000
0110
0000
0101
0000
1001
1100
,
1001
0000
0000
0000
0000
0000
0101
0000
0000
0000
0000
0000
0100
0010
1000
0001
0000
0000
1000
0000
0000
0100
0000
0000
,
0110
0000
0011
0000
1001
0000
1010
0110
,
1010
0000
0101
0000
1001
0000
1100
0100
,
0110
0000
0011
0000
1001
0000
0011
0110
,
0011
0000
1001
0000
,
1010
0000
0110
0000
0101
0000
0110
1010
,
0110
0000
0101
0000
1001
0000
1100
0100
,
0110
0000
0011
0000
1001
0000
0101
0110
,
0101
0000
0000
0000
0000
0000
1001
0000
0000
0000
0000
0000
1000
0010
0100
0001
0000
0000
1000
0000
0000
0010
0000
0000
,
0110
0000
0101
0000
1001
0000
1100
0110
,
1100
0000
0110
0000
0011
0000
1001
1000
,
1010
0000
0101
0000
1001
0000
1100
0110
,
1100
0000
1001
0000
0202
0000
0000
0303
,
0110
0000
1010
0000
0101
0000
1001
1010
,
1001
0000
0011
0000
0110
0000
1100
0100
,
0110
0000
1100
0000
1001
0000
0101
0110
,
0101
0000
0000
0000
0000
0000
0110
0000
0000
0000
0000
0000
0010
1000
0001
0010
0000
0000
0100
0000
0000
1000
0000
0000
,
0011
0000
1100
0000
1001
0000
0101
0110
,
0101
0000
0110
0000
1010
0000
1001
0001
,
0011
0000
0110
0000
1100
0000
1001
0101
,
0001
0000
1000
0000
0001
0000
1000
0000
0001
1000
0001
1000
0001
1000
0001
1000
,
0001
0000
0000
0000
,
0000
0000
0000
0000
,
0000
0000
0000
0000
,
0000
0000
0000
0000
,
0000
MMMM
0000
0000
;
