#TITLE:Your Best Nightmare;
#SUBTITLE:Undertale OST\;
#ARTIST:Toby Fox;
#TITLETRANSLIT:;
#SUBTITLETRANSLIT:;
#ARTISTTRANSLIT:;
#CREDIT:owenviau1;
#BANNER:BN.PNG;
#BACKGROUND:BG.PNG;
#LYRICSPATH:;
#CDTITLE:../CDTitleOV1.png;
#MUSIC:Your Best Nightmare.mp3;
#OFFSET:-0.031;
#SAMPLESTART:38.692;
#SAMPLELENGTH:29.999;
#SELECTABLE:YES;
#DISPLAYBPM:95.000:190.000;
#BPMS:0.000=95.000,36.000=190.000,132.000=1520.000,160.000=380.000,161.000=190.000,209.000=1520.000,237.000=380.000,238.000=190.000,286.000=1520.000,314.000=380.000,315.000=190.000,403.000=1520.000,431.000=380.000,432.000=190.000,480.000=1520.000,508.000=380.000,509.000=190.000,557.000=1520.000,585.000=380.000,586.000=190.000,666.000=1520.000,694.000=380.000,695.000=190.000,743.000=1520.000,771.000=380.000,772.000=190.000,820.000=1520.000,848.000=380.000,849.000=190.000,945.000=1520.000;
#STOPS:;
#BGCHANGES:;
// cache tags:
#FIRSTBEAT:0.000;
#LASTBEAT:945.000;
#SONGFILENAME:Songs/owenviau1 Simfiles 7/Your Best Nightmare - [owenviau1] v1.0.3/Your Best Nightmare.sm;
#HASMUSIC:1;
#HASBANNER:1;
#MUSICLENGTH:240.039;
// end cache tags

//---------------dance-single - 17.31 (17) (owenviau----------------
#NOTES:
     dance-single:
     17.31 (17) (owenviau:
     Challenge:
     17:
     1.000,1.000,0.000,0.054,1.000,2450.000,0.000,13.000,98.000,0.000:

2000
0000
0000
0000
0000
0000
0000
0000
0000
3020
0000
0000
0000
0000
0000
0000
0000
0000
0230
0000
0000
0000
0000
0000
0000
0000
0000
0000
0000
0000
0000
0000
,
0000
0000
0000
0000
0000
0000
0000
0000
0000
0000
0000
0000
0000
0000
0000
0000
0302
0000
0000
0000
0000
0000
0000
0000
0000
2003
0000
0000
0000
0000
0000
0000
,
0000
3020
0000
0000
0000
0000
0000
0000
0000
0000
0000
0000
0000
0000
0000
0000
,
0230
0000
0000
0000
0000
0000
0000
0000
0000
0302
0000
0000
0000
0000
0000
0000
0000
0000
2003
0000
0000
0000
0000
0000
0000
0000
0000
0000
0000
0000
0000
0000
,
0000
0000
0000
0000
0000
0000
0000
0000
0000
0000
0000
0000
0000
0000
0000
0000
3200
0000
0000
0000
0000
0000
0000
0000
0000
0320
0000
0000
0000
0000
0000
0000
,
0000
0032
0000
0000
0000
0000
0000
0000
0000
0000
0000
0000
0000
0000
0000
0000
,
0003
0000
0000
0000
0000
0000
0000
0000
0000
0000
0000
0000
0000
0000
0000
0000
MMMM
0000
0000
0000
MMMM
0000
0000
MMMM
MMMM
MMMM
MMMM
0000
MMMM
0000
0000
0000
,
MMMM
0000
0000
0000
0000
0000
M00M
0000
0000
0000
0000
0000
M000
0000
0000
0000
0000
0000
M000
0000
0000
0000
0000
0000
M000
0000
0000
0000
0000
0000
M000
0000
0000
0000
0000
0000
0000
0000
MMMM
0000
MMMM
0000
MMMM
0000
MMMM
0000
0000
0000
MMMM
0000
0000
0000
0000
0000
0000
0000
0000
0000
MMMM
0000
0000
0000
0000
MMMM
,
0000
0000
MMMM
0000
0000
MMMM
0000
0000
0000
MMMM
0000
0000
0000
0000
MMMM
0000
0000
0000
0000
MMMM
MMMM
MMMM
MMMM
0000
0000
0000
0000
0000
0000
0000
0000
0000
,
1000
0100
0010
0001
0100
0010
1000
0001
0100
0001
1000
0010
0100
0001
1000
0100
,
0010
0001
0100
0010
1000
0001
0010
0100
1000
0001
0010
0001
0100
0010
1000
0001
,
0010
0100
1000
0010
1000
0001
0100
0010
0100
0001
1000
0100
1000
0010
0100
0010
,
1000
0001
0010
0100
1000
0001
0100
0010
1000
0100
0010
0001
1000
0010
1000
0001
,
0100
0010
0100
0001
1000
0100
0010
0001
0100
0010
1000
0001
0010
0100
1000
0010
,
0100
0001
1000
0100
1000
0010
0100
0010
1000
0001
0010
0100
1000
0001
0010
0001
,
0100
0010
1000
0001
0010
0100
1000
0010
0100
0001
1000
0010
1000
0001
0100
0010
,
0100
0001
1000
0100
1000
0010
0100
0010
1000
0001
0010
0100
1000
0010
0100
0001
,
0010
0001
0100
0010
1000
0001
0010
0100
1000
0010
0100
0001
0100
0010
1000
0001
,
1000
0100
0010
0001
0100
0010
1000
0001
0100
0001
1000
0010
0100
0001
1000
0100
,
0010
0001
0100
0010
1000
0001
0010
0100
1000
0001
0010
0001
0100
0010
1000
0001
,
0010
0100
1000
0010
1000
0001
0100
0010
0100
0001
1000
0100
1000
0010
0100
0010
,
1000
0001
0010
0100
1000
0010
0100
0010
1000
0100
0010
0001
1000
0010
1000
0001
,
0100
0010
0100
0001
1000
0100
0010
0001
0100
0010
1000
0001
0010
0100
1000
0010
,
0100
0001
1000
0100
1000
0010
0100
0010
1000
0001
0010
0100
1000
0001
0010
0001
,
0100
0010
1000
0001
0010
0100
1000
0010
0100
0001
1000
0010
1000
0001
0100
0010
,
0100
0001
1000
0100
1000
0010
0100
0010
1000
0001
0010
0100
1000
0010
0100
0001
,
0010
0001
0100
0010
1000
0100
0010
0001
0100
0010
1000
0001
0100
0001
1000
0010
,
0100
0001
1000
0100
0010
0001
0100
0010
1000
0001
0010
0100
1000
0001
0010
0001
,
0100
0010
1000
0001
0010
0100
1000
0010
1000
0001
0100
0010
0100
0001
1000
0100
,
1000
0010
0100
0010
1000
0001
0010
0100
1000
0010
0100
0010
1000
0100
0010
0001
,
1000
0010
1000
0001
0100
0010
0100
0001
1000
0100
0010
0001
0100
0010
1000
0001
,
0010
0100
1000
0010
0100
0001
1000
0100
1000
0001
0100
0010
0100
0001
0010
0100
,
1000
0001
0010
0001
0100
0010
1000
0001
0010
0100
1000
0010
0100
0001
1000
0100
,
0010
0000
0000
0000
,
0000
0000
0000
0000
,
0000
0000
0000
0000
,
0000
0000
0000
0000
,
0000
0000
0000
0000
,
0000
0000
0000
0000
,
0000
0000
0000
0000
,
0000
0000
0000
0000
0000
0000
0001
0100
0010
1000
0000
0000
0100
0010
0001
1000
0000
0000
0010
0100
0010
1000
0000
0000
,
0001
0010
0001
0100
0000
0000
0010
1000
0010
0100
0000
0000
0001
1000
0100
0010
0000
0000
0001
1000
0010
0100
0000
0000
,
0010
0100
0001
0010
0000
0000
0100
1000
0010
0100
0000
0000
0001
0100
0001
0010
0000
0000
0100
1000
0010
0100
0000
0000
,
0001
1000
0001
0010
0000
0000
0100
1000
0010
0100
0000
0000
0001
0010
0001
1000
0000
0000
0010
0100
0001
1000
0000
0000
,
0100
0000
0010
0000
0001
0000
1000
0000
0000
0000
0000
0000
0010
0000
0000
0000
0000
0000
0100
0000
0000
0000
0000
0000
0001
0000
0000
0000
0000
0000
1000
0000
0000
0100
0000
0000
0010
0000
0000
0001
0000
0000
1000
0000
0000
0000
0000
0000
,
0010
0100
0001
0000
1000
0000
0100
0000
0010
0000
0001
1000
0010
0100
0010
0000
,
1000
0001
1000
0000
0100
0000
0010
0000
0001
0000
1000
0010
0100
0001
1000
0000
,
0100
0010
0001
0000
1000
0000
0010
0000
0100
0000
0010
1000
0001
0010
0100
0000
,
1000
0010
0100
0000
0001
0000
0010
0000
0001
0000
1000
0010
0100
0001
1000
0000
,
0100
0010
0001
0000
1000
0000
0010
0000
0100
0000
0010
1000
0001
0010
0100
0000
,
1000
0010
0100
0000
0010
0000
1000
0000
0001
0000
0100
0010
0100
0001
1000
0000
,
0100
0010
0001
0000
1000
0000
0010
0000
0100
0000
0010
1000
0001
0010
0100
0000
,
1000
0010
0100
0000
0001
0000
0000
0000
0000
0000
0000
0000
0000
0000
0000
0000
,
0000
0000
0000
0000
,
0000
0000
0000
0000
,
0000
0000
0000
0000
,
0000
0000
0000
0000
,
0000
0000
0000
0000
,
0000
0000
0000
0000
,
0000
0000
0000
0000
0000
0000
0000
0000
0010
0100
1000
0001
0100
0010
0100
0001
,
1000
0001
0100
0010
0100
0001
1000
0100
0010
0001
0100
0010
1000
0001
0010
0100
,
1000
0001
0010
0001
0100
0010
1000
0001
0010
0100
1000
0010
1000
0001
0100
0010
,
0100
0001
1000
0100
1000
0010
0100
0010
1000
0001
0010
0100
1000
0001
0100
0010
,
1000
0100
0010
0001
1000
0010
1000
0001
0100
0010
0100
0001
1000
0100
0010
0001
,
0100
0010
1000
0001
0010
0100
1000
0010
0100
0001
1000
0100
1000
0010
0100
0010
,
1000
0001
0010
0100
1000
0001
0010
0001
0100
0010
1000
0001
0010
0100
1000
0010
,
0100
0001
1000
0010
1000
0001
0100
0010
0100
0001
1000
0100
1000
0010
0100
0010
,
1000
0001
0010
0100
1000
0010
0100
0001
0010
0001
0100
0010
1000
0001
0010
0100
,
1000
0010
0100
0001
0100
0010
1000
0001
1000
0100
0010
0001
0100
0010
1000
0001
,
0100
0001
1000
0010
0100
0001
1000
0100
0010
0001
0100
0010
1000
0001
0010
0100
,
1000
0001
0010
0001
0100
0010
1000
0001
0010
0100
1000
0010
1000
0001
0100
0010
,
0100
0001
1000
0100
1000
0001
0100
0010
1000
0000
0000
0000
0000
0000
0000
0000
,
0000
0000
0000
0000
,
0000
0000
0000
0000
,
0000
0000
0000
0000
,
0000
0000
0000
0000
,
0000
0000
0000
0000
,
0000
0000
0000
0000
,
0000
0000
0000
0000
0000
0000
0000
0000
0000
0000
0000
0000
1000
0100
0010
0001
,
0100
0010
1000
0001
0100
0001
1000
0010
0100
0001
1000
0100
0010
0001
0100
0010
,
1000
0001
0010
0100
1000
0001
0010
0001
0100
0010
1000
0001
0010
0100
1000
0010
,
1000
0001
0100
0010
0100
0001
1000
0100
1000
0010
0100
0010
1000
0001
0010
0100
,
1000
0001
0100
0010
1000
0100
0010
0001
1000
0010
1000
0001
0100
0010
0100
0001
,
1000
0100
0010
0001
0100
0010
1000
0001
0010
0100
1000
0010
0100
0001
1000
0100
,
1000
0010
0100
0010
1000
0001
0010
0100
1000
0001
0010
0001
0100
0010
1000
0001
,
0010
0100
1000
0010
0100
0001
1000
0010
1000
0001
0100
0010
0100
0001
1000
0100
,
1000
0010
0100
0010
1000
0001
0010
0100
1000
0010
0100
0001
0010
0001
0100
0010
,
1000
0001
0010
0100
1000
0010
0100
0001
0100
0010
1000
0001
1000
0100
0010
0001
,
0100
0010
1000
0001
0100
0001
1000
0010
0100
0001
1000
0100
0010
0001
0100
0010
,
1000
0001
0010
0100
1000
0001
0010
0001
0100
0010
1000
0001
0010
0100
1000
0010
,
1000
0001
0100
0010
0100
0001
1000
0100
1000
0010
0100
0010
1000
0001
0010
0100
,
1000
0010
0100
0010
1000
0100
0010
0001
1000
0010
1000
0001
0100
0010
0100
0001
,
1000
0100
0010
0001
0100
0010
1000
0001
0010
0100
1000
0010
0100
0001
1000
0100
,
1000
0010
0100
0010
1000
0001
0010
0100
1000
0001
0010
0001
0100
0010
1000
0001
,
0010
0100
1000
0010
0100
0001
1000
0010
1000
0001
0100
0010
0100
0001
1000
0100
,
1000
0010
0100
0010
1000
0001
0010
0100
1000
0010
0100
0001
0010
0001
0100
0010
,
1000
0100
0010
0001
0100
0010
1000
0001
0100
0001
1000
0010
0100
0001
1000
0100
,
0010
0001
0100
0010
1000
0001
0010
0100
1000
0001
0010
0001
0100
0010
1000
0001
,
0010
0100
1000
0010
1000
0001
0100
0010
0100
0001
1000
0100
1000
0010
0100
0010
,
1000
0001
0010
0100
1000
0010
0100
0010
1000
0100
0010
0001
1000
0010
1000
0001
,
0100
0010
0100
0001
1000
0100
0010
0001
0100
0010
1000
0001
1000
0000
0000
0000
,
0000
0000
0000
0000
,
0000
0000
0000
0000
,
0000
0000
0000
0000
,
0000
0000
0000
0000
,
0000
0000
0000
0000
,
0000
0000
0000
0000
,
0000
0000
0000
0000
,
0001
0010
0100
1000
0001
0100
0010
1000
0010
0100
0001
1000
0100
0010
0001
0100
,
0010
1000
0001
0010
0100
1000
0001
0010
0001
0100
0010
1000
0001
0010
0100
1000
,
0010
1000
0001
0100
0010
0100
0001
1000
0100
1000
0010
0100
0010
1000
0001
0010
,
0100
1000
0001
0100
0010
1000
0100
0010
0001
1000
0010
1000
0001
0100
0010
0100
,
0001
1000
0100
0010
0001
0100
0010
1000
0001
0010
0100
1000
0010
0100
0001
1000
,
0100
1000
0010
0100
0010
1000
0001
0010
0100
1000
0001
0010
0001
0100
0010
1000
,
0001
0010
0100
1000
0010
0100
0001
1000
0010
1000
0001
0100
0010
0100
0001
1000
,
0100
1000
0010
0100
0010
1000
0001
0010
0100
1000
0010
0100
0001
0010
0001
0100
,
0010
1000
0001
0010
0100
1000
0010
0100
0001
0100
0010
1000
0001
1000
0100
0010
,
0001
0100
0010
1000
0001
0100
0001
1000
0010
0100
0001
1000
0100
0010
0001
0100
,
0010
1000
0001
0010
0100
1000
0001
0010
0001
0100
0010
1000
0001
0010
0100
1000
,
0010
1000
0001
0100
0010
0100
0001
1000
0100
1000
0010
0100
0010
1000
0001
0010
,
0100
0000
0000
0000
,
0000
0000
0000
0000
,
0000
0000
0000
0000
,
0000
0000
0000
0000
,
0000
0000
0000
0000
,
0000
0000
0000
0000
,
0000
0000
0000
0000
,
0000
0000
0000
0000
1000
0100
0010
0001
0100
0010
1000
0001
0100
0001
1000
0010
,
0100
0001
1000
0100
0010
0001
0100
0010
1000
0001
0010
0100
1000
0001
0010
0001
,
0100
0010
1000
0001
0010
0100
1000
0010
1000
0001
0100
0010
0100
0001
1000
0100
,
1000
0010
0100
0010
1000
0001
0010
0100
1000
0001
0100
0010
1000
0100
0010
0001
,
1000
0010
1000
0001
0100
0010
0100
0001
1000
0100
0010
0001
0100
0010
1000
0001
,
0010
0100
1000
0010
0100
0001
1000
0100
1000
0010
0100
0010
1000
0001
0010
0100
,
1000
0001
0010
0001
0100
0010
1000
0001
0010
0100
1000
0010
0100
0001
1000
0010
,
1000
0001
0100
0010
0100
0001
1000
0100
1000
0010
0100
0010
1000
0001
0010
0100
,
1000
0010
0100
0001
0010
0001
0100
0010
1000
0001
0010
0100
1000
0010
0100
0001
,
0100
0010
1000
0001
1000
0100
0010
0001
0100
0010
1000
0001
0100
0001
1000
0010
,
0100
0001
1000
0100
0010
0001
0100
0010
1000
0001
0010
0100
1000
0001
0010
0001
,
0100
0010
1000
0001
0010
0100
1000
0010
1000
0001
0100
0010
0100
0001
1000
0100
,
1000
0001
0100
0010
1000
0000
0000
0000
0000
0000
0000
0000
0000
0000
0000
0000
,
0000
0000
0000
0000
,
0000
0000
0000
0000
,
0000
0000
0000
0000
,
0000
0000
0000
0000
,
0000
0000
0000
0000
,
0000
0000
0000
0000
,
0000
0000
0000
0000
0000
0000
0000
0000
0001
0010
0100
1000
0001
0100
0010
1000
,
0010
0100
0001
1000
0100
0010
0001
0100
0010
1000
0001
0010
0100
1000
0001
0010
,
0001
0100
0010
1000
0001
0010
0100
1000
0010
1000
0001
0100
0010
0100
0001
1000
,
0100
1000
0010
0100
0010
1000
0001
0010
0100
1000
0001
0100
0010
1000
0100
0010
,
0001
1000
0010
1000
0001
0100
0010
0100
0001
1000
0100
0010
0001
0100
0010
1000
,
0001
0010
0100
1000
0010
0100
0001
1000
0100
1000
0010
0100
0010
1000
0001
0010
,
0100
1000
0001
0010
0001
0100
0010
1000
0001
0010
0100
1000
0010
0100
0001
1000
,
0010
1000
0001
0100
0010
0100
0001
1000
0100
1000
0010
0100
0010
1000
0001
0010
,
0100
1000
0010
0100
0001
0010
0001
0100
0010
1000
0001
0010
0100
1000
0010
0100
,
0001
0100
0010
1000
0001
1000
0100
0010
0001
0100
0010
1000
0001
0100
0001
1000
,
0010
0100
0001
1000
0100
0010
0001
0100
0010
1000
0001
0010
0100
1000
0001
0010
,
0001
0100
0010
1000
0001
0010
0100
1000
0010
1000
0001
0100
0010
0100
0001
1000
,
0100
1000
0010
0100
0010
1000
0001
0010
0100
1000
0001
0100
0010
0100
0001
1000
,
0100
1000
0010
0100
0010
1000
0001
0010
0100
1000
0001
0100
0010
1000
0100
0010
,
0001
1000
0010
1000
0001
0100
0010
0100
0001
1000
0100
0010
0001
0100
0010
1000
,
0001
0010
0100
1000
0010
0100
0001
1000
0100
1000
0010
0100
0010
1000
0001
0010
,
0100
1000
0001
0010
0001
0100
0010
1000
0002
0000
0000
0000
0000
0000
0000
0000
,
0000
0000
0000
0000
,
0000
0000
0003
0000
,
0000
0000
0000
0000
,
0000
0000
0000
0000
,
0000
0000
0000
0000
,
0000
0000
0000
0000
,
0000
0000
0000
0000
,
0000
0000
0000
0000
,
0000
0000
0000
0000
,
0000
0000
0000
0000
,
0000
0000
0000
0000
0000
0000
1000
0100
,
0010
0000
0001
1000
0010
0100
0010
0000
1000
0001
1000
0000
0100
0000
0010
0000
,
0001
0000
1000
0010
0100
0001
1000
0000
0100
0010
0001
0000
1000
0000
0010
0000
,
0100
0000
0010
1000
0001
0010
0100
0000
1000
0010
0100
0000
0001
0000
0010
0000
,
0001
0000
1000
0010
0100
0001
1000
0000
0100
0010
0001
0000
1000
0000
0010
0000
,
0100
0000
0010
1000
0001
0010
0100
0000
1000
0010
0100
0000
0010
0000
1000
0000
,
0001
0000
0100
0010
0100
0001
1000
0000
0100
0010
0001
0000
1000
0000
0100
0000
,
0010
0000
0001
1000
0010
0100
0010
0000
1000
0001
1000
0000
0100
0000
0010
0000
,
0001
0000
1000
0010
0100
0001
1000
0000
0100
0010
0001
0000
1000
0000
0010
0000
,
0100
0000
0010
1000
0001
0010
0100
0000
1000
0010
0100
0000
0001
0000
0010
0000
,
0001
0000
1000
0010
0100
0001
1000
0000
0100
0010
0001
0000
1000
0000
0010
0000
,
0100
0000
0010
1000
0001
0010
0100
0000
1000
0010
0100
0000
0010
0000
1000
0000
,
0001
0000
0100
0010
0100
0001
1000
0000
0100
0010
0001
0000
1000
0000
0000
0000
,
0000
0000
0000
0000
,
0000
0000
0000
0000
,
0000
0000
0000
0000
,
0000
0000
0000
0000
,
0000
0000
0000
0000
,
0000
0000
0000
0000
,
0000
0000
0000
0000
,
0001
0010
0100
1000
0001
0100
0010
1000
0010
0100
0001
1000
0100
0010
0001
0100
,
0010
1000
0001
0010
0100
1000
0001
0010
0001
0100
0010
1000
0001
0010
0100
1000
,
0010
1000
0001
0100
0010
0100
0001
1000
0100
1000
0010
0100
0010
1000
0001
0010
,
0100
1000
0001
0100
0010
1000
0100
0010
0001
1000
0010
1000
0001
0100
0010
0100
,
0001
1000
0100
0010
0001
0100
0010
1000
0001
0010
0100
1000
0010
0100
0001
1000
,
0100
1000
0010
0100
0010
1000
0001
0010
0100
1000
0001
0010
0001
0100
0010
1000
,
0001
0010
0100
1000
0010
0100
0001
1000
0010
1000
0001
0100
0010
0100
0001
1000
,
0100
1000
0010
0100
0010
1000
0001
0010
0100
1000
0010
0100
0001
0010
0001
0100
,
0010
1000
0001
0010
0100
1000
0010
0100
0001
0100
0010
1000
0001
1000
0100
0010
,
0001
0100
0010
1000
0001
0100
0001
1000
0010
0100
0001
1000
0100
0010
0001
0100
,
0010
1000
0001
0010
0100
1000
0001
0010
0001
0100
0010
1000
0001
0010
0100
1000
,
0010
1000
0001
0100
0010
0100
0001
1000
0100
1000
0010
0100
0010
1000
0001
0010
,
0100
0000
0000
0000
,
0000
0000
0000
0000
,
0000
0000
0000
0000
,
0000
0000
0000
0000
,
0000
0000
0000
0000
,
0000
0000
0000
0000
,
0000
0000
0000
0000
,
0000
0000
0000
0000
1000
0100
0010
0001
0100
0010
1000
0001
0100
0001
1000
0010
,
0100
0001
1000
0100
0010
0001
0100
0010
1000
0001
0010
0100
1000
0001
0010
0001
,
0100
0010
1000
0001
0010
0100
1000
0010
1000
0001
0100
0010
0100
0001
1000
0100
,
1000
0010
0100
0010
1000
0001
0010
0100
1000
0001
0100
0010
1000
0100
0010
0001
,
1000
0010
1000
0001
0100
0010
0100
0001
1000
0100
0010
0001
0100
0010
1000
0001
,
0010
0100
1000
0010
0100
0001
1000
0100
1000
0010
0100
0010
1000
0001
0010
0100
,
1000
0001
0010
0001
0100
0010
1000
0001
0010
0100
1000
0010
0100
0001
1000
0010
,
1000
0001
0100
0010
0100
0001
1000
0100
1000
0010
0100
0010
1000
0001
0010
0100
,
1000
0010
0100
0001
0010
0001
0100
0010
1000
0001
0010
0100
1000
0010
0100
0001
,
0100
0010
1000
0001
1000
0100
0010
0001
0100
0010
1000
0001
0100
0001
1000
0010
,
0100
0001
1000
0100
0010
0001
0100
0010
1000
0001
0010
0100
1000
0001
0010
0001
,
0100
0010
1000
0001
0010
0100
1000
0010
1000
0001
0100
0010
0100
0001
1000
0100
,
1000
0001
0100
0010
1000
0100
0010
0001
1000
0010
1000
0001
0100
0010
0100
0001
,
1000
0100
0010
0001
0100
0010
1000
0001
0010
0100
1000
0010
0100
0001
1000
0100
,
1000
0010
0100
0010
1000
0001
0010
0100
1000
0001
0010
0001
0100
0010
1000
0001
,
0010
0100
1000
0010
0100
0001
1000
0010
1000
0001
0100
0010
0100
0001
1000
0100
,
1000
0010
0100
0010
1000
0001
0010
0100
1000
0010
0100
0001
0010
0001
0100
0010
,
1000
0001
0010
0100
1000
0010
0100
0001
0100
0010
1000
0001
1000
0100
0010
0001
,
0100
0010
1000
0001
0100
0001
1000
0010
0100
0001
1000
0100
0010
0001
0100
0010
,
1000
0001
0010
0100
1000
0001
0010
0001
0100
0010
1000
0001
0010
0100
1000
0010
,
1000
0001
0100
0010
0100
0001
1000
0100
1000
0001
0100
0010
1000
0100
0010
0001
,
1000
0010
1000
0001
0100
0010
0100
0001
1000
0100
0010
0001
0100
0010
1000
0001
,
0010
0100
1000
0010
0100
0001
1000
0100
1000
0010
0100
0010
1000
0001
0010
0100
,
1000
0001
0010
0001
0100
0010
1000
0001
0010
0100
1000
0010
0100
0001
1000
0010
,
1000
0001
0100
0010
1000
0000
0000
0000
0000
0000
0000
0000
0000
0000
0000
0000
;
