#TITLE:A Quick Death;
#SUBTITLE:;
#ARTIST:Kkrusty;
#TITLETRANSLIT:;
#SUBTITLETRANSLIT:;
#ARTISTTRANSLIT:;
#CREDIT:;
#BANNER:../fthescorept1bn.png;
#BACKGROUND:../fthescorept1bg.png;
#LYRICSPATH:;
#CDTITLE:;
#MUSIC:A Quick Death.ogg;
#OFFSET:0.009;
#SAMPLESTART:19.220;
#SAMPLELENGTH:15.020;
#SELECTABLE:YES;
#BPMS:0.000=250.000;
#STOPS:;
#BGCHANGES:;
// cache tags:
#FIRSTBEAT:0.000;
#LASTBEAT:148.000;
#SONGFILENAME:Songs/Fuck The Score Part I/A Quick Death [Dossar]/A Quick Death.sm;
#HASMUSIC:1;
#HASBANNER:1;
#MUSICLENGTH:36.375;
// end cache tags

//---------------dance-single - ----------------
#NOTES:
     dance-single:
     :
     Challenge:
     16:
     1.000,1.000,0.000,0.000,1.000,437.000,0.000,0.000,0.000,0.000:
1000
0001
0100
0001
1000
0100
0010
0100
,
1000
0001
0100
0001
1000
0100
0010
0100
,
1000
0001
0100
0001
1000
0100
0010
0100
,
1000
0000
0001
0010
0100
0000
1000
0000
0100
0010
0100
0000
1000
0001
0010
0001
,
1000
0100
0010
0001
1000
0000
0010
0100
0001
1000
0001
1000
0100
0000
0010
0000
,
0001
1000
0100
1000
0001
0010
0100
1000
0001
0000
0010
0000
0100
0000
1000
0000
,
0001
0010
0001
1000
0100
0010
0001
0000
1000
0000
0010
0000
0100
0000
0001
0000
,
0010
0000
0100
0000
1000
0000
0010
0000
0100
0000
0001
1000
0010
0100
0001
0000
,
1000
0000
0010
0100
0001
0000
0100
0010
1000
0000
0001
0100
0001
1000
0010
0100
,
0001
0000
1000
0010
0100
0010
1000
0000
0001
0000
0010
0000
0100
0000
0010
0000
,
0001
1000
0001
0000
0010
0000
0100
0000
1000
0000
0001
0000
1000
0100
1000
0000
,
0001
0000
0100
0010
0100
0000
0001
0000
1000
0000
0010
0000
0100
0000
0001
0000
,
1000
0010
0100
0001
1000
0001
0100
0010
1000
0000
0001
0100
0001
0000
1000
0000
,
0001
0100
0010
1000
0001
1000
0010
0100
0001
1000
0001
0000
1000
0010
1000
0001
,
0100
0010
1000
0001
0100
0000
0010
0000
1000
0000
0001
0000
1000
0100
1000
0001
,
1000
0100
0010
0001
1000
0000
0001
0010
0001
0010
0001
0000
1000
0100
1000
0000
,
0001
0100
0001
0000
1000
0010
1000
0000
0001
0000
0100
0000
0010
0000
1000
0010
,
0100
0000
0001
0000
1000
0010
0100
0001
1000
0100
1000
0001
0100
0010
1000
0001
,
1000
0000
0010
0100
0001
1000
0001
0100
0010
1000
0001
0000
1000
0100
1000
0000
,
0001
0010
0100
1000
0001
0010
0001
1000
0100
0010
0100
1000
0001
0000
1000
0000
,
0010
0100
0010
1000
0001
0100
0010
0100
0001
1000
0010
0100
0001
0000
1000
0010
,
0100
0000
0001
1000
0010
0100
0001
1000
0001
0000
0010
0000
0100
1000
0100
0010
,
0001
0000
0000
0000
0000
0000
1000
0000
0000
0001
0000
0000
0010
0000
0000
0001
0000
0000
1000
0000
0000
0100
0000
0000
0010
0000
0000
0000
0001
0000
0000
0000
0010
0000
0000
0000
0100
0000
0000
0000
0000
0000
1000
0000
0000
0000
0000
0000
,
0001
0100
0010
1000
0010
0100
0001
1000
0010
0100
0001
1000
0001
0000
1000
0010
,
0100
0001
0100
0010
1000
0000
0001
0010
0100
0000
1000
0100
0010
0000
0001
0010
,
0100
1000
0100
1000
0100
0000
0010
0001
0010
0000
0100
0000
1000
0001
1000
0010
,
0100
0000
0001
0000
1000
0010
0100
0001
1000
0001
1000
0100
1000
0001
0100
0010
,
1000
0001
1000
0010
0100
0001
1000
0010
0100
0001
0100
0010
1000
0001
0100
0000
,
0010
0000
1000
0000
0001
0000
0010
0000
0100
1000
0100
0000
0010
0001
0010
0000
,
0001
1000
0100
1000
0001
0010
0100
1000
0001
0000
1000
0000
0100
1000
0100
0010
,
0001
0000
1000
0010
0100
0000
0001
1000
0010
1000
0001
0100
0010
1000
0001
0100
,
0001
0000
1000
0000
0001
0000
0100
0010
1000
0000
0001
0100
0001
0000
1000
0000
,
0100
0000
0010
0100
1000
0000
0100
0010
0001
0000
1000
0000
0100
0010
0001
0000
,
1000
0000
0010
0100
0001
1000
0001
0000
0100
0000
0010
1000
0001
0000
0100
0001
,
1000
0010
0100
0001
1000
0010
1000
0000
0001
0000
0010
0100
1000
0000
0001
0000
,
0010
0100
1000
0000
0001
0000
1000
0000
0100
1000
0100
0010
0001
0000
0000
0000
,
0001
0001
0001
0001
,
0001
0000
0000
0000
;
