#TITLE:Gaussian Blur;
#SUBTITLE:;
#ARTIST:Kil;
#TITLETRANSLIT:;
#SUBTITLETRANSLIT:;
#ARTISTTRANSLIT:;
#CREDIT:DukAmok;
#BANNER:Gaussian_Blur.png;
#BACKGROUND:Gaussian_Blur-bg.png;
#LYRICSPATH:;
#CDTITLE:!duktitle.png;
#MUSIC:Gaussian Blur.mp3;
#OFFSET:1.169;
#SAMPLESTART:75.068;
#SAMPLELENGTH:11.560;
#SELECTABLE:YES;
#BPMS:0.000=200.190,184.000=197.000,188.000=200.100,222.333=202.625,223.000=200.185,310.000=205.185,312.000=210.185,314.000=215.185,323.500=207.550;
#STOPS:;
#BGCHANGES:;
// cache tags:
#FIRSTBEAT:4.000;
#LASTBEAT:360.000;
#SONGFILENAME:Songs/IzzySM Keyboard Mega Pack/Gaussian Blur/Gaussian Blur.sm;
#HASMUSIC:1;
#HASBANNER:1;
#MUSICLENGTH:106.752;
// end cache tags

//---------------dance-single - ----------------
#NOTES:
     dance-single:
     :
     Hard:
     12:
     1.000,1.000,0.628,0.206,1.000,977.000,67.000,22.000,0.000,3.000:
0000
0000
0000
0000
,
0001
0010
0100
1000
0001
0100
0010
1000
0001
0010
0001
0100
0010
1000
0100
0010
,
0001
0100
0010
0100
0010
1000
0100
0010
0100
0010
0001
1000
0010
0100
0001
0010
,
0001
1000
0100
0010
0100
1000
0010
0100
0001
0010
0001
0010
0001
0100
0010
1000
,
0100
0010
0001
0010
0100
1000
0010
0100
0010
1000
0001
0010
0001
0100
0010
1000
,
0100
0010
0100
1000
0010
0100
0001
0010
0001
0100
0010
1000
0100
1000
0100
0010
,
0001
0010
0001
0100
0010
0100
0010
1000
0100
0010
0100
0001
0100
1000
0010
0100
,
0001
0010
0001
0100
0010
1000
0100
1000
0010
0100
0001
0010
0001
0010
0001
0100
,
0010
1000
0100
0010
0000
0000
0110
0000
0101
0000
0000
0000
0000
0000
0000
0000
,
0001
0100
0010
0100
0001
0100
0010
1000
0100
0010
0001
0010
0100
1000
0100
0010
,
0001
0100
0001
0100
0010
1000
0100
0010
0100
1000
0001
1000
0010
0100
0001
0100
,
0010
1000
0001
0010
0100
1000
0010
0100
0001
0010
0001
0100
0010
0100
0001
0010
,
0100
0010
0001
0010
0100
1000
0010
0100
0010
1000
0001
0010
0001
0100
0010
1000
,
0100
0010
0100
1000
0010
0100
0001
0010
0001
0100
0010
1000
0100
0010
0001
0100
,
0010
1000
0100
0010
0001
0100
0010
1000
0100
0010
0001
0100
0001
0010
0100
1000
,
0001
0010
0001
0010
0100
1000
0010
1000
0010
0100
0001
0010
0001
0010
0001
1000
,
0100
0000
0000
1010
0011
0000
0000
0000
,
0011
0101
1010
1100
0011
0101
1010
1100
,
1010
1001
0101
0011
1010
0110
0011
0101
,
1001
0011
0101
0110
1010
0110
1001
0000
,
0000
0000
0000
0000
,
0010
0100
0010
0100
0010
0100
0010
0100
0010
0100
0010
0100
0010
0100
0010
0100
,
0001
1000
0001
1000
0001
1000
0001
1000
0001
1000
0001
1000
0001
1000
0001
1000
,
0010
1000
0100
1000
0010
1000
0100
1000
0001
1000
0100
1000
0010
1000
0100
1000
,
0010
0100
0001
0100
0010
0100
0001
0100
1000
0100
0010
0100
0001
0100
0010
0000
,
1000
0100
0010
1000
0100
0010
1000
0100
0010
1000
0100
0010
1000
0100
0010
0001
,
0100
0010
1000
0100
0010
0001
0100
0010
1000
0100
0010
0001
0100
0010
1000
0001
,
0010
0001
0100
0010
0001
0100
0010
0001
0100
0010
0001
0100
0010
0001
0010
0100
,
1000
0100
0010
0001
0010
0100
1000
0100
0010
0001
0010
0100
1000
0100
0010
0001
,
0010
1000
0001
0010
1000
0001
0010
1000
0001
0010
1000
0001
0010
0001
0100
0010
,
1000
0010
0100
0001
0010
0001
0100
0010
1000
0100
0010
0100
1000
0010
0001
1000
,
0100
0010
0001
0100
0010
0001
0100
0010
0001
0100
0010
0001
0100
0010
0001
0010
,
0100
1000
0010
0100
0001
0010
0001
0100
0010
0100
0001
0010
1000
0010
0001
0100
,
0010
0100
0010
1000
0100
0010
0100
1000
0010
0100
0001
0010
0001
0100
0010
0100
,
0001
0010
0100
1000
0100
0010
0100
1000
0010
0100
0010
1000
0010
0100
0001
0010
,
0001
0100
1000
0001
0010
1000
0001
0100
1000
0001
0010
1000
0001
0010
0100
0010
,
0001
0010
0100
0010
0001
1000
0100
0010
0100
1000
0001
0100
0010
0100
0010
0001
,
0010
0000
0000
0000
,
1001
0011
0220
0000
,
1330
0000
0000
0000
0000
0000
0100
0000
0010
0000
0001
0000
2200
0000
0000
0000
0000
0000
0000
0000
0000
0300
0000
0000
,
3202
0000
0323
0000
,
2030
0000
0000
0000
3002
0000
0010
0100
1003
0000
0100
0010
0001
0100
0010
0100
,
0002
0000
0023
0000
,
0230
0000
0000
0000
,
0000
0000
0000
0000
,
2300
0000
0000
0000
,
0000
0000
0000
0000
,
3001
0000
0100
0010
0100
0000
0010
1000
0100
0000
0010
0001
0010
0000
0100
1000
,
0001
0000
0010
0001
0010
0000
0001
0100
0010
0000
1000
0100
0010
0000
0001
0010
,
0100
0000
0010
0001
0100
0000
0010
1000
0010
0000
1000
0100
0001
0000
0001
0100
,
1000
0000
0010
0100
0001
0000
0010
0001
1000
0000
0010
1000
0001
0000
0010
0001
,
0010
0000
0100
1000
0100
0000
0010
0100
0010
0000
0001
1000
0001
0000
0010
0100
,
0010
0000
0001
1000
0100
0000
0010
0001
0100
0000
0010
1000
0100
0000
0000
0000
,
0010
0000
0100
1000
0010
0000
0100
0001
0100
0000
0001
0010
1000
0000
1000
0010
,
0001
0000
0100
0010
1000
0000
0100
1000
0001
0000
0100
0001
1000
0000
0100
1000
,
0100
0000
0010
0001
0010
0000
0100
0010
0100
0000
1000
0001
1000
0000
0100
0010
,
0110
1100
0110
0101
0022
0000
0033
0000
,
0110
0011
0110
1010
0220
0000
0330
0000
,
0011
1001
1100
1010
0022
0000
0033
0000
,
1010
0101
0011
1100
2002
0000
3003
0000
,
0110
1001
0011
1100
,
0110
0011
0101
0110
1010
1001
0101
0011
,
0001
0100
0010
1000
0100
0000
1000
0010
0100
0001
0010
0000
0100
1000
0010
0100
,
0001
0010
0001
0100
0010
0000
1000
0100
0010
0001
0010
0000
0001
0010
0100
1000
,
0010
0100
0001
0010
1000
0000
0010
0001
0100
0010
1000
0000
0001
0010
0100
0010
,
0100
0000
0010
0000
0001
0000
1000
0000
0010
0000
0100
0000
0001
0000
0010
0000
0001
0000
0100
0000
0010
0000
1000
0000
0100
0010
0001
0010
0100
1000
0100
0010
,
0001
0010
0001
0100
0010
0000
1000
0010
0100
0010
1000
0000
0010
0100
0001
0010
,
0100
1000
0010
0100
0001
0000
0010
0001
0100
0010
0100
0000
0001
0010
1000
0010
,
0001
0010
0001
0100
0010
0000
1000
0010
0100
0001
0010
0000
0001
0010
0100
0010
,
0001
0000
0010
0000
0100
0000
1000
0000
0001
0000
0100
0000
0010
0000
1000
0000
0001
0000
0010
0000
0100
0000
1000
0000
0001
0100
0010
1000
0001
0010
0100
1000
,
0001
0010
0100
1000
0001
0010
0100
1000
0001
0010
0100
1000
0001
0010
0100
1000
,
0001
0100
0010
1000
0001
0100
0010
1000
0001
0100
0010
1000
0001
0100
0010
1000
,
0001
1000
0010
0100
0010
1000
0001
1000
0010
0100
0010
1000
0001
1000
0010
0100
,
0010
1000
0100
1000
0010
1000
0100
0010
0001
0010
0001
0100
0010
1000
0100
0010
,
0001
0010
0001
0100
0010
1000
0100
1000
0010
0100
0010
1000
0100
0010
0001
0010
,
0001
0100
0010
0100
0010
1000
0100
0010
0001
0010
0001
0100
0010
1000
0100
0010
,
0100
0010
0100
0010
0100
0010
0100
0010
1001
0000
0000
0000
0000
0000
0001
0010
,
0101
0000
1001
0000
,
0001
0010
0100
1000
0001
0010
0100
1000
0001
0100
0010
1000
0001
0100
0010
1000
,
0001
0010
0001
0100
0010
1000
0100
1000
0010
0001
0010
1000
0100
1000
0100
0010
,
0001
0010
0001
0100
0001
0100
0010
0100
1000
0100
0001
0010
0001
0100
0010
1000
,
0100
0010
0001
0100
0010
0100
0001
0010
0100
1000
0100
0010
0100
1000
0010
0100
,
0001
0010
0001
0100
0020
0000
0000
0000
0000
0000
0000
0000
0000
0000
0000
0000
,
0000
0000
0000
0000
,
0000
0000
0000
0000
,
0000
0000
0000
0000
,
0000
0000
0000
0000
,
0000
0000
0000
0000
,
0000
0000
0000
0000
,
0000
0000
0000
0000
,
0030
0000
0000
0000
;
