#TITLE:The Steel Monster Above The City;
#SUBTITLE:;
#ARTIST:Kitsune^2;
#TITLETRANSLIT:;
#SUBTITLETRANSLIT:;
#ARTISTTRANSLIT:;
#CREDIT:;
#BANNER:../ban - Jawn2.png;
#BACKGROUND:../Jawn2 - bg.png;
#LYRICSPATH:;
#CDTITLE:../CDa.png;
#MUSIC:The Steel Monster Above The City.ogg;
#OFFSET:0.009;
#SAMPLESTART:38.060;
#SAMPLELENGTH:26.480;
#SELECTABLE:YES;
#BPMS:0.000=145.065;
#STOPS:;
#BGCHANGES:;
// cache tags:
#FIRSTBEAT:12.000;
#LASTBEAT:304.000;
#SONGFILENAME:Songs/Jimmy Jawns 2/The Steel Monster Above the City - [Aoreo]/The Steel Monster Above The City.sm;
#HASMUSIC:1;
#HASBANNER:1;
#MUSICLENGTH:128.804;
// end cache tags

//---------------dance-single - J. Nero----------------
#NOTES:
     dance-single:
     J. Nero:
     Challenge:
     21:
     1.000,1.000,0.008,0.528,1.000,1005.000,1.000,68.000,0.000,0.000:
0000
0000
0000
0000
,
0000
0000
0000
0000
,
0000
0000
0000
0000
,
1000
0000
0000
0000
0001
0000
1000
0000
0020
0000
0000
0000
1030
0000
0000
0000
0001
0000
0010
0000
0100
0000
1000
0000
0001
0100
0001
1000
0010
0000
1000
0000
,
0100
0000
0010
0000
0100
0000
1000
0000
0002
0000
0000
0000
0103
0000
0010
0000
0100
0000
0001
0000
1000
0000
0100
0000
0010
0001
1000
0001
0100
0000
0001
0000
,
1000
0000
0000
0000
0001
0000
1000
0000
0020
0000
0000
0000
0130
0000
0000
0000
0001
0000
1000
0000
0100
0000
0010
0000
0100
1000
0001
0100
0001
0000
1000
0000
,
0010
0000
0100
0000
0010
0000
1000
0000
0002
0000
0000
0000
1003
0000
0100
0000
0010
0000
0100
0000
1000
0000
0010
0000
0100
0001
1000
0001
0010
0000
0100
0000
,
1000
0010
0100
0001
1000
0100
0010
0001
1000
0010
0100
0001
1000
0001
0020
0030
,
0001
1000
0100
0010
0001
1000
0010
0100
0001
1000
0100
0010
0001
1000
0020
0030
,
0200
0300
0000
0000
0000
0000
0001
0000
0100
0000
0000
0000
0000
0000
0000
0000
0002
0003
0000
0000
0000
0000
1000
0000
0001
0000
0000
0000
0000
0000
0000
0000
,
0200
0300
0000
0000
0000
0000
0001
0000
0010
0000
0000
0000
0000
0000
0000
0000
0001
0100
0001
1000
0010
0000
1000
0000
0010
0000
0100
0000
0001
0000
1000
0000
,
0200
0000
0000
0000
0000
0000
0320
0000
0000
0000
0031
1000
0002
0000
0000
0000
0000
0000
0000
0000
0003
0000
0000
0000
1000
0001
1000
0100
0010
0000
0000
0000
,
0002
0000
0000
0000
0000
0000
0203
0000
0000
0000
0000
0000
0320
0000
0000
0000
0000
0000
0000
0000
0000
0000
0030
0000
1000
0000
0001
0100
0001
0000
1000
0000
,
0200
0000
0000
0000
0000
0000
0320
0000
0000
0000
0031
1000
0002
0000
0000
0000
0000
0000
0000
0000
0003
0000
0000
0000
1000
0001
1000
0100
0010
0000
0000
0000
,
0002
0000
0000
0000
0000
0000
2003
0000
0000
0000
0000
0000
3020
0000
0000
0000
0000
0000
0000
0000
0030
0000
0000
0000
1000
0000
0001
0100
0001
0000
1000
0000
,
0001
0000
0100
0000
0001
0000
0010
0000
0100
0000
1000
0000
0010
0000
0100
0000
0001
0100
0001
1000
0010
0100
0010
1000
0001
1000
0100
0010
0100
1000
0001
0100
,
0001
0000
0100
0000
0001
0000
0010
0000
0100
0000
1000
0000
0010
0000
0100
0000
0001
1000
0001
0010
0100
1000
0001
1000
0010
0100
0010
1000
0001
1000
0100
0010
,
0002
0000
0000
0000
0000
0000
2003
0000
0000
0000
3001
0100
0002
0000
0000
0000
0000
0000
0000
0000
0003
0000
0000
0000
1000
0001
1000
0100
0010
0000
0001
0000
,
1000
0000
0010
0000
1000
0000
0010
0000
0200
0000
0000
0000
0301
0000
1000
0000
0001
0000
0010
0000
0100
0000
1000
0000
0001
0000
1000
0100
1000
0000
0001
0000
,
1000
0000
0100
0000
0010
0000
0100
0000
1000
0000
0010
0000
0100
0000
0001
0000
1000
0001
1000
0100
0010
0001
1000
0001
0100
0010
1000
0010
0100
0001
1000
0001
,
0100
0000
0001
0000
0010
0000
0100
0000
0010
0000
0001
0000
1000
0000
0010
0000
0100
0001
1000
0001
0010
0100
1000
0001
1000
0010
0100
0010
1000
0001
0100
0010
,
2000
0000
0000
0000
0000
0000
3200
0000
0000
0000
1300
0001
2000
0000
0000
0000
0000
0000
0000
0000
3000
0000
0000
0000
0001
1000
0001
0010
0100
0000
1000
0000
,
0001
0000
0010
0000
0100
0000
0010
0000
0001
0000
0100
0000
0002
0000
0000
0000
0000
0000
1003
0000
0100
0000
1000
0000
0001
0000
0100
0010
1000
0000
0001
0000
,
0100
0000
0001
1000
0001
0000
0010
0000
0100
0000
1000
0001
1000
0000
0010
0000
,
0100
0001
0100
0001
0010
0000
0100
0000
1000
0001
1000
0100
0010
0001
0100
0001
,
0010
0000
0100
1000
0010
0000
0100
0000
0001
0000
1000
0100
1000
0000
0010
0000
,
0100
0001
0100
0001
0010
0000
0100
0000
1000
0010
1000
0100
0010
0001
1000
0010
,
0100
0000
0001
1000
0001
0000
0010
0000
0100
0000
1000
0001
1000
0000
0010
0000
,
1000
0010
1000
0010
0100
0000
0001
0000
1000
0001
1000
0100
0010
0001
1000
0010
,
1000
0001
1000
0010
0100
0010
1000
0001
1000
0010
0100
0001
1000
0001
0010
0100
0010
0001
1000
0001
0010
0100
1000
0001
1000
0010
0100
0010
1000
0001
0100
0010
,
0100
0001
1000
0001
0010
0100
0010
0001
1000
0001
0100
0010
1000
0010
0100
0001
0100
0001
1000
0010
0100
0010
1000
0001
1000
0100
0010
0001
1000
0001
0100
0010
,
1000
0010
0100
0001
1000
0001
0010
0100
0010
0001
1000
0001
0100
0010
1000
0010
0100
0001
1000
0001
0010
0100
0010
0001
1000
0001
0010
0100
1000
0001
1000
0010
,
0100
0010
1000
0001
1000
0100
0010
0001
1000
0001
0100
0010
1000
0010
0100
0001
4000
3000
0000
0000
0000
0000
0004
0003
0000
0000
0000
0000
4000
3000
0001
0000
,
0100
0010
1000
0001
1000
0100
0010
0001
1000
0001
0100
0010
1000
0010
0100
0001
0100
0010
1000
0010
0100
0001
1000
0001
0010
0100
1000
0001
1000
0100
0010
0100
,
1000
0001
1000
0010
0100
0001
0100
0010
1000
0010
0100
0001
1000
0001
0010
0100
1000
0000
0001
0000
1000
0000
0010
0000
0100
0000
0001
0000
0010
0000
0100
0000
,
1000
0000
0001
0100
0000
0001
0010
0000
0100
0000
1000
0010
0000
1000
0100
0000
,
0010
0000
0001
0100
0000
0001
0010
0000
0100
0000
1000
0010
0000
1000
0100
0000
,
0010
0000
0001
0100
0000
0001
0010
0000
0100
0000
1000
0010
0000
1000
0100
0000
,
0010
0000
0000
0000
0000
0000
0001
0000
0000
0100
0000
0000
0000
0000
0000
0001
0000
0000
0010
0000
0000
0000
0000
0000
0100
0000
0000
0000
0000
0000
1000
0000
0001
0000
1000
0000
0010
0000
0000
0000
0000
0000
1000
0000
0010
0000
0100
0000
,
0001
0010
0001
0100
0010
1000
0010
0100
0001
0010
0100
1000
0010
0100
0010
1000
,
0001
0010
0001
0100
0010
1000
0010
0100
0001
0010
0100
1000
0010
0100
0010
1000
,
0001
0010
0001
0100
0010
1000
0010
0100
0001
0010
0100
1000
0010
0100
0010
1000
,
0001
0000
0000
0010
0000
0000
0001
0000
0000
0100
0000
0000
0010
0000
0000
1000
0000
0000
0010
0000
0000
0100
0000
0000
0001
0000
0000
0000
0000
0000
1000
0000
0100
0000
0010
0000
0001
0000
0000
0000
0000
0000
1000
0000
0000
0000
0000
0000
,
0002
0000
0000
0000
0000
0000
0000
0000
0000
0000
0000
0000
0000
0000
0000
0000
0000
0000
0000
0000
0000
1003
0010
1000
,
0200
0000
0000
0310
0000
0010
0002
0000
0000
0000
0003
0000
1000
0100
1000
0001
,
0200
0000
0000
0000
0000
0000
0000
0000
0000
0000
0000
0000
0301
1000
0001
0010
,
0200
0000
0000
0000
0000
0000
0000
0000
2300
0000
0000
0000
0000
0000
0000
0000
3010
0000
0100
0000
0001
1000
0001
0010
0100
1000
0001
0000
0100
0000
0001
0000
,
2000
0000
0000
0000
0000
0000
0000
0000
0000
0000
0000
0000
0000
0000
0000
0000
0000
0000
0000
0000
0000
3001
0100
0001
,
0020
0000
0000
0000
0000
0000
0000
0000
0000
0130
0000
0000
0000
0000
0000
0100
0000
0000
2000
0000
0000
0000
0000
0000
0000
0000
0000
0000
0000
0000
0000
0000
0000
0000
0000
0000
3001
0000
0100
0000
0001
0000
1000
0000
0000
0100
0000
0000
,
0020
0000
0000
0000
0000
0000
0000
0000
0000
0000
0000
0000
0000
0000
0000
0000
0000
0000
0000
0000
0000
0000
0000
0000
0031
1000
0001
0000
0010
0000
0100
0000
,
2000
0000
0000
0000
0000
0000
0000
0000
3020
0000
0000
0000
0000
0000
1030
0001
2000
0000
0000
0000
0000
0000
3001
0100
0001
1000
0100
0010
0001
1000
0001
0100
,
0040
0030
0000
0000
0000
0000
0400
0300
0000
0000
0000
0000
0004
0003
0000
0000
0000
0000
0000
0000
0000
0000
0000
0000
0000
0000
0000
0000
0000
0000
0000
0000
,
0040
0030
0000
0000
0000
0000
0400
0300
0000
0000
0000
0000
4000
3000
0000
0000
0000
0000
0000
0000
0000
0000
0000
0000
0000
0000
0000
0000
0000
0000
0000
0000
,
0004
0003
0000
0000
0000
0000
0400
0300
0000
0000
0000
0000
0040
0030
0000
0000
0000
0000
0000
0000
0000
0000
0000
0000
0000
0000
0000
0000
0000
0000
0000
0000
,
4000
3000
0000
0000
0000
0000
0400
0300
0000
0000
0000
0000
0040
0030
0000
0000
0000
0000
0000
0000
0000
0000
0001
1000
0001
0000
0000
0000
1000
0000
0001
0000
,
0200
0000
0000
0320
0000
0000
2030
0000
0000
3001
0100
0001
0010
0100
1000
0001
,
2000
0000
0000
3020
0000
0000
0230
0000
0000
0301
1000
0001
0010
0100
1000
0001
,
0200
0000
0000
0320
0000
0000
2030
0000
0000
3001
0100
0010
0100
0001
0010
0100
,
2000
0000
0000
3020
0000
0000
0230
0000
0000
0310
1000
0001
1000
0100
0010
0001
,
2000
0000
0000
3020
0000
0000
0230
0000
0000
0301
1000
0001
0010
0100
1000
0001
,
0200
0000
0000
0320
0000
0000
2030
0000
0000
3001
0100
0001
1000
0100
0010
0001
,
2000
0000
0000
3020
0000
0000
0230
0000
0000
0301
1000
0001
0010
0100
1000
0001
,
1000
0100
0010
0100
1000
0010
0200
0000
0000
0301
1000
0001
0010
0000
0100
0000
,
1000
0010
1000
0100
0010
0001
0100
0001
0010
0100
1000
0010
1000
0100
0010
0001
,
0100
0000
0001
0000
0010
0000
0100
0000
1000
0000
0010
0000
1000
0000
0100
0000
0010
0000
0001
0000
1000
0000
0001
0100
0001
0000
0010
0000
0100
0000
1000
0000
,
0001
0000
1000
0010
1000
0000
0100
0000
0010
0000
0001
1000
0001
0000
0010
0000
,
0100
1000
0100
1000
0010
0000
0100
0000
0001
1000
0001
0010
0100
1000
0010
0100
,
0001
0000
1000
0010
1000
0000
0001
0000
0100
0000
0001
0010
0100
0000
1000
0000
,
0001
0000
0100
0000
0001
0000
0010
0000
0100
0000
0000
0000
1000
0000
0000
0000
0001
0000
1000
0000
0001
0000
0100
0010
0100
0000
0001
0000
1000
0000
0100
0000
,
0010
0000
0000
0000
0001
0000
1000
0000
0020
0000
0000
0000
1030
0000
0000
0000
0001
0000
0010
0000
0100
0000
1000
0000
0001
0100
0001
1000
0010
0000
1000
0000
,
0100
0000
0010
0000
0100
0000
1000
0000
0002
0000
0000
0000
0103
0000
0010
0000
0100
0000
0001
0000
1000
0000
0100
0000
0010
0001
1000
0001
0100
0000
0001
0000
,
1000
0000
0000
0000
0001
0000
1000
0000
0020
0000
0000
0000
0130
0000
0000
0000
0001
0000
1000
0000
0100
0000
0010
0000
0100
1000
0001
0100
0001
0000
1000
0000
,
0010
0000
0100
0000
0010
0000
1000
0000
0002
0000
0000
0000
1003
0000
0010
0000
0100
0001
0100
0000
0010
0000
1000
0001
1000
0000
0100
0000
0010
0000
0001
0000
,
1000
0001
1000
0100
0010
0100
1000
0001
1000
0010
0100
0001
0100
0010
1000
0010
0100
0001
1000
0010
0100
0001
1000
0001
0010
0100
1000
0001
1000
0100
0010
0100
,
1000
0001
1000
0010
0100
0010
1000
0001
0100
0010
0100
0001
1000
0100
0010
0100
1000
0001
1000
0100
0010
0001
1000
0001
0100
0010
0100
0001
1000
0100
0010
0001
,
4000
0004
0000
0000
0000
0000
0000
0000
0000
0000
0000
0000
0000
0000
0000
0000
0000
0000
0000
0000
0000
0000
0000
0000
0000
0000
0000
0000
0000
0000
0000
0000
,
3003
0000
0000
0000
;
