#TITLE:KeyKey;
#SUBTITLE:;
#ARTIST:La-Quebrata;
#TITLETRANSLIT:;
#SUBTITLETRANSLIT:;
#ARTISTTRANSLIT:;
#CREDIT:;
#BANNER:keykey-bn.png;
#BACKGROUND:keykey-bg.png;
#LYRICSPATH:;
#CDTITLE:cdtitle.PNG;
#MUSIC:KeyKey.mp3;
#OFFSET:-0.073;
#SAMPLESTART:12.220;
#SAMPLELENGTH:15.000;
#SELECTABLE:YES;
#BPMS:0.000=144.980,152.000=145.100,338.000=141.460,344.000=140.300,348.000=139.000,350.000=144.320,352.000=152.000,356.000=145.000;
#STOPS:;
#BGCHANGES:;
// cache tags:
#FIRSTBEAT:16.000;
#LASTBEAT:360.000;
#SONGFILENAME:Songs/Fabulously Fresh Flock of Fantastic Files F5/(Zaghurim) KeyKey/KeyKey.sm;
#HASMUSIC:1;
#HASBANNER:1;
#MUSICLENGTH:149.786;
// end cache tags

//---------------dance-single - ----------------
#NOTES:
     dance-single:
     :
     Hard:
     12:
     0.984,1.000,1.000,0.080,0.951,862.000,158.000,12.000,0.000,2.000:
0000
0000
0000
0000
,
0000
0000
0000
0000
,
0000
0000
0000
0000
,
0000
0000
0000
0000
,
0010
0000
0010
0000
,
0010
0010
0010
0010
,
0010
0010
0010
0010
,
0010
0000
0000
0000
0010
0000
0000
0100
0010
1000
0001
0000
1000
0001
0100
0010
,
0001
0000
0010
0000
0100
0000
1000
0000
0001
0000
0100
0000
0010
0000
1000
0000
0001
0000
0010
0000
0100
0000
1000
0000
0001
0000
0000
0100
0000
0000
0001
0000
0000
1000
0000
0000
0010
0000
0000
0100
0000
0000
0010
0000
0000
1000
0000
0000
,
0001
0000
0010
0000
0100
0000
1000
0000
0001
0000
0100
0000
0010
0000
1000
0000
0001
0000
0010
0000
0100
0000
1000
0000
0001
0000
0000
0100
0000
0000
0001
0000
0000
1000
0000
0000
0010
0000
0000
0100
0000
0000
0001
0000
0000
1000
0000
0000
,
0011
0000
0000
0000
0000
0000
0101
0000
0000
0000
0000
0000
1001
0000
0000
0000
0000
0000
1010
0000
0000
0000
0000
0000
0001
0000
0000
0100
0000
0000
0001
0000
0000
0100
0000
0000
0010
0000
0000
0100
0000
0000
0001
0000
0010
0000
0100
0000
,
1000
0000
0010
0000
0100
0000
0001
0000
0010
0000
0100
0000
1000
0000
0010
0000
0100
0000
0001
0000
0010
0000
0100
0000
1000
0000
0000
0001
0000
0000
1000
0000
0000
0010
0000
0000
0100
0000
0000
0001
0000
0000
0100
0000
0000
0010
0000
0000
,
1100
0000
0000
0000
0000
0000
1010
0000
0000
0000
0000
0000
1001
0000
0000
0000
0000
0000
0101
0000
0000
0000
0000
0000
0001
0000
0000
1000
0000
0000
0001
0000
0000
0100
0000
0000
0001
0000
0000
1000
0000
0000
0001
0000
0010
0000
0100
0000
,
1000
0000
0001
0000
0100
0000
0010
0000
1000
0000
0001
0000
0010
0000
0100
0000
1000
0000
0001
0000
0100
0000
0010
0000
1000
0000
0000
0000
0000
0000
1001
0000
0000
0000
0000
0000
1000
0000
0000
0001
0000
0000
1100
0000
0000
0000
0000
0000
,
1010
0000
0000
0000
0000
0000
1001
0000
0000
0000
0000
0000
0101
0000
0000
0000
0000
0000
1000
0000
0000
0001
0000
0000
1000
0000
0000
0001
0000
0000
1000
0000
0000
0001
0000
0000
1000
0000
0000
0001
0000
0000
1000
0000
0100
0000
0010
0000
,
0001
0000
1000
0000
0010
0000
0100
0000
0001
0000
1000
0000
0010
0000
0100
0000
0001
0000
1000
0000
0100
0000
0010
0000
0001
0000
0000
0010
0000
0000
1100
0000
0000
0000
0000
0000
0001
0000
0000
0100
0000
0000
0010
0000
0000
1000
0000
0000
,
0001
0000
0000
0010
0101
0000
0010
1000
0000
0010
1001
0000
0001
0100
0010
1000
,
0001
0000
0000
0001
0110
0000
0001
1000
0000
0010
0101
0000
1000
0001
1000
0000
,
0000
0000
0000
0000
,
0000
0000
0000
0000
,
1001
0000
0000
0000
0000
0000
1001
0000
0000
0000
0000
0000
1001
0000
0000
0000
0000
0000
1001
0000
0000
0000
0000
0000
1000
0000
0000
0001
0000
0000
1000
0000
0000
0001
0000
0000
1000
0000
0000
0001
0000
0000
1000
0000
0100
0000
0010
0000
,
0001
0000
1000
0000
0010
0000
0100
0000
0001
0000
1000
0000
0100
0000
0010
0000
0001
0000
1000
0000
0000
0000
0000
0000
0010
0000
0000
1000
0000
0000
0010
0000
0000
0100
0000
0000
0010
0000
0000
1000
0000
0000
0010
0000
0000
0100
0000
0000
,
0011
0010
1010
1000
1010
0010
0110
0100
,
0101
0000
0001
0000
0101
0000
0100
0000
0110
0000
0010
0000
0010
0100
0010
0100
,
0011
0001
0101
0100
0110
0010
1010
1000
,
1001
0000
0001
0000
0101
0000
0100
0000
0110
0000
0010
0000
0010
1000
0010
1000
,
0011
0001
0101
0100
0110
0010
1010
1000
,
1010
0000
0010
0000
0110
0000
0100
0000
0101
0000
0001
0000
0001
1000
0001
1000
,
0011
0010
0110
0100
0101
0001
1001
1000
,
1010
0000
0010
0000
0110
0000
0100
0000
0101
0000
0001
0000
0001
0100
0001
0100
,
0011
0010
0110
0100
0110
0010
1010
1000
,
1001
0000
0001
0000
0101
0000
0100
0000
0110
0000
0010
0000
0010
0100
0010
0100
,
1010
1000
1001
0001
0101
0100
0110
0010
,
1010
0000
1000
0000
1001
0000
0001
0000
0101
0000
0100
0000
0100
0001
0100
0001
,
1100
1000
1010
0010
1010
1000
1100
0100
,
1100
0000
1000
0000
1001
0000
0001
0000
0101
0000
0100
0000
0100
0001
0100
0001
,
1100
1000
1001
0001
0101
0100
0110
0010
,
1010
0000
1000
0000
1001
0000
0001
0000
0101
0000
0100
0000
0100
0010
0100
0010
,
1001
0000
0000
0100
1001
0000
0001
0100
0000
0100
0010
0000
0010
1000
0010
1000
,
0011
0000
0000
0100
1010
0000
0100
0010
0000
0010
0100
0000
0001
1000
0001
1000
,
0011
0000
0000
0001
1100
0000
1000
0001
0000
0001
1000
0000
1000
0010
1000
0010
,
1100
0000
0000
1000
0110
0000
0001
0100
0000
0100
0001
0000
0001
0100
0001
0100
,
0011
0000
0000
0100
1010
0000
0010
0100
0000
0100
0010
0000
0001
1000
0001
1000
,
0011
0000
0000
0100
1010
0000
0100
0010
0000
0010
0100
0000
1000
0001
1000
0001
,
1100
0000
0000
0001
1100
0000
0001
1000
0000
1000
0001
0000
0001
0100
0001
0100
,
1010
0000
0000
0010
0101
0000
0010
0100
0000
0001
1000
0000
1000
0001
1000
0001
,
0110
0000
0000
0100
1001
0000
0010
0100
0000
0100
0010
0000
0010
0100
0010
0100
,
1001
0000
0000
0100
1010
0000
1000
0010
0000
0010
1000
0000
0010
0100
0010
0100
,
0011
0000
0000
0001
0110
0000
1000
0010
0000
0010
1000
0000
1000
0010
0100
0001
,
1100
0000
0000
1000
0110
0000
0001
0100
0000
0100
0001
0000
0001
0100
0010
1000
,
0011
0000
0000
0100
1010
0000
0001
0010
0000
0010
0100
0000
0100
1000
0010
1000
,
0011
0000
0000
0100
1010
0000
1000
0100
0000
0100
0010
0000
0001
0010
0001
0010
,
1100
0000
0000
0001
1100
0000
0001
1000
0000
1000
0001
0000
0001
1000
0001
1000
,
0011
0000
0000
0000
0011
0000
0000
0000
0011
0000
0011
0000
0001
0010
0100
1000
,
0011
0000
1000
0001
1100
0000
0001
0100
0010
1000
0010
0000
0010
0100
0001
1000
,
0110
0000
0001
1000
0011
0000
1000
0001
0100
0010
0100
0000
0010
1000
0010
0100
,
1001
0000
0100
0010
1001
0000
0010
0100
0001
1000
0010
0000
0100
0001
1000
0010
,
0101
0000
1000
0010
0101
0000
0010
1000
0010
0100
0001
0000
0001
1000
0010
0100
,
1001
0000
0100
0010
1100
0000
0010
0100
0001
1000
0010
0000
0100
0001
1000
0010
,
1100
0000
0001
0100
0011
0000
1000
0001
0100
0010
1000
0000
0001
0100
0010
1000
,
0011
0000
1000
0001
1100
0000
0001
1000
0010
0100
0001
0000
1000
0001
0100
0010
,
1100
0000
0001
0100
0011
0000
1000
0001
0100
0010
1000
0000
0001
0010
0100
1000
,
0011
0000
1000
0001
1100
0000
0001
0100
0010
1000
0010
0000
0100
0001
1000
0010
,
1001
0000
0100
0010
1100
0000
0010
0100
0010
1000
0010
0000
0100
0001
1000
0010
,
1100
0000
0001
0100
1010
0000
0001
0010
0100
1000
0010
0000
1000
0100
0010
0001
,
1100
0000
0001
0100
0011
0000
1000
0001
0100
0010
1000
0000
0001
0010
0100
1000
,
0110
0000
0001
1000
0011
0000
1000
0001
0100
0010
1000
0000
0001
1000
0010
0100
,
0011
0000
1000
0001
0110
0000
0001
1000
0010
0100
0001
0000
1000
0010
0100
0001
,
1100
0000
0100
0010
0101
0000
0010
0100
0010
1000
0010
0000
0100
0001
1000
0010
,
1001
0000
0100
0010
1100
0000
0001
0010
0100
1000
0001
0000
0010
0100
1000
0100
,
1001
0001
0001
0001
,
0001
0000
0001
0000
0001
0000
0001
0000
0001
0000
0001
0000
0001
0010
0100
1000
,
0001
0001
0001
0001
,
0001
0000
0001
0000
0001
0000
0001
0000
0001
0000
0001
0000
0001
0010
0100
1000
,
0001
0001
0001
0001
,
0001
0000
0001
0000
0001
0000
0001
0000
0001
0000
0001
0000
0001
0010
0100
1000
,
0011
0001
0001
0001
0001
0001
0001
0001
,
0001
0000
0001
0000
0001
0000
0001
0000
0001
0000
0001
0000
0001
1000
0001
1000
,
0001
0001
0001
0001
0001
0001
0001
0001
,
0001
0000
0001
0000
0001
0000
0001
0000
0001
0000
0001
0000
0001
1000
0001
1000
,
0001
0001
0001
0001
0001
0001
0001
0001
,
0011
0000
0001
0000
0001
0000
0001
0000
0001
0000
0001
0000
0001
1000
0001
1000
,
0011
0001
0001
0001
0011
0001
0001
0001
,
0011
0001
0011
0001
0011
0101
1001
1010
,
2100
0000
3020
0000
,
0231
0001
0302
0100
,
2003
0000
3200
0320
,
0032
0000
2003
0000
,
3020
0000
0000
0230
,
1302
1000
0000
1000
,
0103
0000
0000
0000
;
