#TITLE:Moonlight Shadow;
#SUBTITLE:;
#ARTIST:Mike Oldfield feat. Nightcore;
#TITLETRANSLIT:;
#SUBTITLETRANSLIT:;
#ARTISTTRANSLIT:;
#CREDIT:owenviau1;
#BANNER:BN.PNG;
#BACKGROUND:BG.PNG;
#LYRICSPATH:;
#CDTITLE:ov1_title.png;
#MUSIC:Nightcore - Moonlight Shadow.mp3;
#OFFSET:-0.320;
#SAMPLESTART:54.750;
#SAMPLELENGTH:29.999;
#SELECTABLE:YES;
#BPMS:0.000=180.500;
#STOPS:;
#BGCHANGES:;
// cache tags:
#FIRSTBEAT:4.000;
#LASTBEAT:464.000;
#SONGFILENAME:Songs/Owenviau1 Simfiles 4/Nightcore - Moonlight Shadow [owenviau1]/Nightcore - Moonlight Shadow.sm;
#HASMUSIC:1;
#HASBANNER:1;
#MUSICLENGTH:159.973;
// end cache tags

//---------------dance-single - ----------------
#NOTES:
     dance-single:
     :
     Challenge:
     11:
     1.000,1.000,1.000,0.075,0.172,944.000,448.000,12.000,0.000,1.000:

0000
0000
0000
0000
,
1001
0010
0101
1000
0110
0001
1100
0010
,
0101
1000
0011
0100
1001
0010
0110
0001
,
1001
0010
1100
1000
0011
0010
0101
1000
,
1010
0001
0110
1000
0101
0010
1001
1000
,
0101
0001
1010
1000
0110
0010
1001
0001
,
1100
0100
1001
0010
0110
1000
0011
0001
,
1100
0001
0110
1000
0011
0001
0110
1000
,
1100
0010
1001
0010
0101
0110
1010
0101
,
1001
0010
0110
0101
1001
0110
1001
1010
,
1001
0100
0001
0110
1000
0001
0010
0100
,
1010
0101
0011
1001
0100
0010
1001
1010
,
1001
1000
0101
0010
0110
1001
0001
1010
,
0101
0010
1000
0110
1001
1100
0110
0011
,
1001
0010
0001
1100
0010
0100
0001
1000
,
0011
0110
1100
1001
0001
0010
1100
1001
,
0110
1000
0101
0010
1100
0011
1000
0110
,
1100
0000
0010
0000
1001
0000
1000
0100
0010
0001
1000
0000
0110
0000
0001
0000
,
1001
0000
0010
0000
1100
0000
0001
1000
0010
0100
0001
0000
1010
0000
0001
0000
,
0110
0000
1000
0000
0101
0000
1000
0100
0010
0001
1000
0000
0101
0000
0010
0000
,
0011
0000
1000
0000
1010
0000
0100
0001
0010
0100
1000
0000
0101
0000
0010
0000
,
1100
0000
0001
0000
0101
0000
0010
0100
1000
0100
0010
0000
0101
0000
1000
0000
,
0110
0000
0001
0000
0101
0000
1000
0001
0100
0001
0010
0000
1100
0000
0010
0000
,
0101
0000
1000
0000
1001
0000
0100
0010
1000
0001
0100
0000
0011
0000
1000
0000
,
0110
0000
0001
0000
1001
0000
1000
0001
0100
0010
1000
0000
1010
0000
1001
0000
,
0101
0010
1001
0101
1001
0110
1001
1010
,
1001
0100
0001
0110
1000
0001
0010
0100
,
1010
0101
0011
1001
0100
0010
1001
1010
,
1001
1000
0101
0010
0110
1001
0001
1000
,
0101
0010
1000
0110
1001
1100
0110
0011
,
1001
0010
0001
1100
0010
0100
0001
1000
,
0011
0110
1100
1001
0001
0010
1100
1001
,
0110
1000
0101
0010
1100
0011
1000
0100
,
1001
0000
0010
0000
0101
0000
1000
0100
0010
0001
1000
0000
0110
0000
0001
0000
,
1001
0000
0010
0000
1100
0000
0001
1000
0010
0100
0001
0000
1010
0000
0001
0000
,
0110
0000
1000
0000
0101
0000
1000
0100
0010
0001
1000
0000
0101
0000
0010
0000
,
0011
0000
1000
0000
1010
0000
0100
0001
0010
0100
1000
0000
0101
0000
0010
0000
,
1100
0000
0001
0000
0101
0000
0010
0100
1000
0100
0010
0000
0101
0000
1000
0000
,
0110
0000
0001
0000
0101
0000
1000
0001
0100
0001
0010
0000
1100
0000
1010
0000
,
0101
0000
1001
0000
0110
1001
1100
0110
,
0002
0003
0000
0000
0002
0003
0000
0000
0002
0000
0000
0000
0003
0000
0000
0000
,
1100
0010
0101
1000
0110
0001
1100
0010
,
0101
1000
0011
0100
1001
0010
0110
0001
,
1001
0010
1100
1000
0011
0010
0101
1000
,
1010
0001
0110
1000
0101
0010
1001
1000
,
0101
0001
1010
1000
0110
0010
1001
0001
,
1100
0100
1001
0010
0110
1000
0011
0001
,
1100
0001
0110
1000
0011
0001
0110
1000
,
1100
0010
1001
0100
1010
0100
0011
0100
,
1001
0010
0101
1000
0110
0001
1100
0010
,
0101
1000
0011
0100
1001
0010
0110
0001
,
1001
0010
1100
1000
0011
0010
0101
1000
,
1010
0001
0110
1000
0101
0010
1001
1000
,
0101
0001
1010
1000
0110
0010
1001
0001
,
1100
0100
1001
0010
0110
1000
0011
0001
,
1100
0001
0110
1000
0011
0001
0110
1000
,
1100
0010
1001
0100
1001
1000
0011
1000
,
0110
0001
0101
1000
0110
0001
1100
0010
,
0101
1000
0011
0100
1001
0010
0110
0001
,
1001
0010
1100
1000
0011
0010
0101
1000
,
1010
0001
0110
1000
0101
0010
1001
1000
,
0101
0001
1010
1000
0110
0010
1001
0001
,
1100
0100
1001
0010
0110
1000
0011
0001
,
1100
0001
0110
1000
0011
0001
0110
1000
,
1100
0010
1001
0100
0011
0110
1100
0110
,
1001
0000
0010
0000
0110
0000
1000
0100
0010
0001
1000
0000
0110
0000
0001
0000
,
1001
0000
0010
0000
1100
0000
0001
1000
0010
0100
0001
0000
1010
0000
0001
0000
,
0110
0000
1000
0000
0101
0000
1000
0100
0010
0001
1000
0000
0101
0000
0010
0000
,
0011
0000
1000
0000
1010
0000
0100
0001
0010
0100
1000
0000
0101
0000
0010
0000
,
1100
0000
0001
0000
0101
0000
0010
1000
0100
0010
0001
0000
0101
0000
1000
0000
,
0110
0000
0001
0000
0101
0000
1000
0001
0100
0001
0010
0000
1100
0000
0010
0000
,
0101
0000
1000
0000
1001
0000
0100
0010
1000
0001
0100
0000
0011
0000
1000
0000
,
0110
0000
0001
0000
1001
0000
1000
0001
0100
0010
1000
0000
1010
0000
1001
0000
,
0110
1000
1001
0001
0110
1000
0011
0010
,
1100
0001
0110
1000
0101
0010
1001
1000
,
0110
0001
1100
0010
0101
0010
1001
1000
,
0110
0001
0011
1000
0101
0010
1010
0001
,
1100
1000
0011
0010
1100
0010
1001
1000
,
0101
0010
1001
1000
0110
0001
1001
0010
,
1100
1000
0011
0001
0110
1000
0011
0001
,
1100
0001
0110
1000
1001
0001
0110
0011
,
1001
0100
1010
0001
0110
1000
0011
0010
,
1100
0001
0110
1000
0101
0010
1001
1000
,
0110
0001
1100
0010
0101
0010
1001
1000
,
0110
0001
0011
1000
0101
0010
1010
0001
,
1100
1000
0011
0010
1100
0010
1001
1000
,
0101
0010
1001
1000
0110
0001
1001
0010
,
1100
1000
0011
0001
0110
1000
0011
0001
,
1100
0001
0110
1000
1001
0001
0110
0011
,
1001
1000
0101
0010
1010
0001
0101
0010
,
1100
0000
0001
0000
0110
0000
1000
0000
0101
0000
0010
0000
1001
0000
1000
0001
,
0110
0001
1100
0010
0101
0010
1001
1000
,
0110
0001
0011
1000
0101
0010
1010
0001
,
1001
0110
0101
0011
1100
0110
0011
1001
,
0110
0000
0101
0000
1001
0000
1100
0000
1001
0000
0011
0000
0110
0000
1000
0001
,
1000
0100
0010
0001
1000
0010
1000
0001
0100
0001
1000
0100
0010
0001
0010
0100
,
2000
0000
0000
0000
0000
0000
0000
0000
3000
0000
0000
0000
0000
0000
0002
2003
,
3002
0003
0000
0000
0002
0003
0000
0000
2002
0000
0000
0000
3103
0000
0010
0000
,
0101
1000
1001
0001
0110
1000
0011
0010
,
1100
0001
0110
1000
0101
0010
1001
1000
,
0110
0001
1100
0010
0101
0010
1001
1000
,
0110
0001
0011
1000
0101
0010
1010
0001
,
1100
1000
0011
0010
1100
0010
1001
1000
,
0101
0010
1001
1000
0110
0001
1001
0010
,
1100
1000
0011
0001
0110
1000
0011
0001
,
1100
0001
0110
1000
1001
0001
0110
0011
,
1001
0100
1010
0001
0110
1000
0011
0010
,
1100
0001
0110
1000
0101
0010
1001
1000
,
0110
0001
1100
0010
0101
0010
1001
1000
,
0110
0001
0011
1000
0101
0010
1010
0001
,
1100
1000
0011
0010
1100
0010
1001
1000
,
0101
0010
1001
1000
0110
0001
1001
0010
,
1100
1000
0011
0001
0110
1000
0011
0001
,
1100
0001
0110
1000
1001
0001
0110
0011
,
2002
0000
0000
0000
,
0000
0000
0000
0000
,
3003
0000
0000
0000
;

//---------------dance-single - ----------------
#NOTES:
     dance-single:
     :
     Hard:
     10:
     0.624,0.653,0.056,0.013,0.000,688.000,9.000,2.000,0.000,0.000:

0000
0000
0000
0000
,
1000
0100
0010
0001
,
1000
1000
0001
0010
,
0100
0100
1000
0001
,
0100
0010
1000
0001
,
0010
0001
0100
0001
,
1000
0010
0100
0010
,
1000
0100
0010
0001
,
0100
0001
0010
0100
,
1000
0000
1000
0001
0010
0100
1000
0001
,
0100
0010
1000
0001
,
1000
0001
0010
0100
0000
0000
1000
0001
,
0100
0000
0100
0000
0100
0010
0000
0000
,
1000
0000
0001
1000
0001
0010
0100
0010
,
0001
0000
1000
0001
0100
0000
0010
0000
,
1000
0001
0010
0100
0000
0000
0001
1000
,
0010
0000
0100
0000
0001
0010
0000
0000
,
0001
0000
1000
0000
0010
1000
0010
0000
,
1000
0001
0010
0100
0000
0001
1000
0000
,
0010
0000
0100
0000
0001
0010
0100
0000
,
0001
1000
0001
0010
0000
0100
1000
0000
,
0001
0100
0010
1000
,
1000
0100
0010
0001
0000
0000
0001
0100
,
0010
0000
0010
0000
1000
0001
0010
0100
,
1000
0000
0001
0000
0100
0000
0010
1000
,
0001
0000
0001
1000
0100
1000
0100
0010
,
0001
0000
1000
0001
0100
0000
0100
0000
,
0100
0010
1000
0001
0000
0000
0001
1000
,
0100
0000
0100
0000
1000
0001
0100
0010
,
1000
0000
1000
0001
0010
0100
0010
0001
,
1000
0000
1000
0001
0100
0000
0100
0000
,
0100
0010
1000
0001
0010
0000
0010
0001
,
1000
0000
1000
0000
1000
0100
0010
0001
,
1001
0000
0110
0000
1001
0000
0001
1000
,
0100
1000
0001
0100
0001
0000
0001
0000
,
0001
0000
0010
0100
1000
0000
1000
0001
,
0010
0001
1000
0001
0000
0000
0001
1000
,
0010
0000
0010
0000
1000
0001
0010
0100
,
1000
0001
0100
0001
0000
0000
0001
1000
,
0010
0000
0010
0000
0010
1000
0001
0010
,
0100
0100
0200
0300
,
1001
0000
0001
0100
0010
1000
0010
0100
,
0001
0010
0100
0010
0001
0010
0100
1000
,
0001
1000
0001
0100
0001
1000
0010
0100
,
0010
1000
0010
0100
0010
1000
0001
0100
,
0001
0000
1001
0000
0001
0100
0001
0010
,
0100
0010
0001
1000
0100
0000
0001
0000
,
0001
1000
0010
0100
0001
0000
0001
1000
,
0100
1000
0100
0010
0001
0010
0100
1000
,
1001
0001
0100
0010
1000
0010
0100
0001
,
0010
0100
1000
0001
0100
0000
0010
0000
,
1000
0000
1000
0001
0010
0000
0010
0001
,
1000
0100
1000
0001
0000
0000
0001
1000
,
0010
1000
0001
0100
0001
1000
0100
0001
,
1000
0010
0001
1000
0100
0001
0010
0100
,
0001
1000
0010
0001
1000
0100
0001
0010
,
1000
0010
0001
0100
0010
0001
0010
0100
,
0001
0000
0001
1000
0010
0000
0010
1000
,
0001
0000
0001
1000
0100
0000
0100
1000
,
0001
0010
0001
0010
0001
1000
0001
0100
,
0001
1000
0010
0100
0010
1000
0010
0100
,
0001
0000
0001
1000
0010
0000
0010
1000
,
0100
0000
0100
1000
0001
0000
0001
1000
,
0010
0100
0001
0100
0001
0010
0001
0100
,
0010
1000
0001
0100
0010
1000
0001
0100
,
0001
0000
0001
1000
0100
0010
0001
1000
,
0010
0000
0010
1000
0001
0000
0010
0000
,
0100
1000
0001
0100
0010
0000
0010
1000
,
0001
0000
0001
0000
0001
1000
0100
0010
,
0001
0000
0001
1000
0010
0100
0010
1000
,
0100
0010
0001
1000
0100
0000
0100
0000
,
0100
1000
0001
0100
0010
0000
0010
1000
,
0001
0000
0001
0000
0001
1000
0010
0100
,
0010
0001
1000
0100
,
1000
0001
0010
0100
0001
0000
1000
0000
,
0010
0000
0100
0001
0010
0000
0010
0001
,
1000
0100
0010
0001
1000
0000
0100
0010
,
1000
0000
0001
0000
0100
0000
0010
1000
,
0010
0100
0001
0010
0000
0000
0001
1000
,
0100
0000
0100
0000
1000
0100
0001
0100
,
0010
0000
0001
0000
1000
0000
0001
1000
,
0001
0000
0001
1000
0010
0100
0010
1000
,
0100
0000
0001
1000
0100
0000
0001
0000
,
1000
1000
0100
0010
0001
0000
0001
1000
,
0010
0000
0100
0000
0001
0010
0100
1000
,
0001
0000
0001
0000
1000
0010
0100
0001
,
0010
0000
0100
1000
0001
0000
0100
0000
,
0010
0010
1000
0001
0100
0000
0100
0001
,
0010
0000
0010
0000
0010
0001
1000
0100
,
0010
0000
0001
0000
1000
0000
0010
1000
,
0001
0010
0100
1000
0001
0000
0100
0000
,
0010
0000
1000
0000
0001
0000
0010
0001
,
1000
0001
0100
0010
0000
0000
1000
0001
,
0010
0100
1000
0001
,
0100
0010
1000
0010
0100
0001
0010
0100
,
0001
1000
0100
0001
0100
1000
0100
0001
,
0100
0000
0000
0000
,
0010
0000
0010
0000
0010
0000
1000
0001
,
0010
0000
0010
0001
1000
0100
1000
0100
,
1000
0001
0100
0001
0010
0100
1000
0000
,
1000
0001
0100
0001
0010
0100
0001
0010
,
0100
0001
1000
0010
0001
0100
0001
0010
,
0001
0000
0001
1000
0001
0100
0001
0010
,
0100
0001
1000
0010
0001
1000
0100
0000
,
0100
1000
0001
0100
0001
0010
0100
0001
,
1000
0010
0100
0010
1000
0001
0100
0001
,
1001
0000
0101
0000
1010
0000
0001
0100
,
0001
0010
0100
1000
0001
1000
0001
0000
,
0001
0000
0010
1000
0010
0000
1000
0100
,
0001
0100
1000
0100
0001
0000
0001
1000
,
0010
0000
0001
0000
0010
0000
1000
0100
,
0001
0010
0100
0001
0001
0000
1000
0010
,
0100
0000
0100
0000
0100
0001
0010
0100
,
1000
0001
1000
0001
0100
0010
1000
0010
,
0200
0000
0000
0000
,
0000
0000
0000
0000
,
0300
0000
0000
0000
;
