#TITLE:Wildfire;
#SUBTITLE:Reckoning Night (2004);
#ARTIST:Sonata Arctica;
#TITLETRANSLIT:;
#SUBTITLETRANSLIT:;
#ARTISTTRANSLIT:;
#CREDIT:Magna Trick;
#BANNER:Wildfire-BN.png;
#BACKGROUND:Wildfire-BG.png;
#LYRICSPATH:;
#CDTITLE:Magna Trick title!.png;
#MUSIC:Sonata Arctica - Wildfire.mp3;
#OFFSET:-0.182;
#SAMPLESTART:22.095;
#SAMPLELENGTH:12.000;
#SELECTABLE:YES;
#BPMS:0.000=165.040,416.000=110.000,432.000=165.040;
#STOPS:306.000=0.020
,504.000=0.020
;
#BGCHANGES:;
// cache tags:
#FIRSTBEAT:0.000;
#LASTBEAT:633.500;
#SONGFILENAME:Songs/Astronomic Metal Collection 2/(Magna Trick) Wildfire/Wildire.sm;
#HASMUSIC:1;
#HASBANNER:1;
#MUSICLENGTH:233.795;
// end cache tags

//---------------dance-single - ----------------
#NOTES:
     dance-single:
     :
     Hard:
     11:
     1.000,1.000,1.000,0.453,0.778,1509.000,420.000,106.000,0.000,5.000:
0002
0000
0000
0000
0000
2000
3000
0000
,
0000
0000
0000
0000
0000
0000
0000
0000
0000
0000
2000
0000
3000
0000
0000
2000
,
0000
3000
0000
0000
0000
0000
0000
0000
0000
0000
0000
0000
0000
0000
0000
0000
,
2000
0000
0000
0000
3000
0000
2000
3000
2000
0000
0000
0000
0000
0000
0000
0000
,
0000
0000
0000
0000
0000
0000
0000
0000
0000
0000
0000
0000
0000
0000
0000
3003
,
1001
0010
0100
0001
1000
0100
0010
0001
0010
0100
1000
0010
0100
0001
1000
0100
,
1000
0001
0100
0001
0010
0100
0010
0001
1000
0010
0100
0001
1000
0100
1000
0001
,
0100
0010
0100
0000
0010
0000
1000
0001
1000
0100
0010
0000
0001
0010
0001
0000
,
0100
0010
1000
0000
1000
0000
0100
0010
0100
1000
0001
0000
2001
0000
0001
3000
,
1001
0100
0010
1000
0001
0010
0100
1000
0100
0010
0001
0100
0010
1000
0001
0010
,
0001
1000
0010
1000
0100
0010
0100
1000
0001
0100
0010
1000
0001
0010
0001
1000
,
0110
0000
0001
1000
0001
1000
0100
0000
0010
0001
0010
0100
1000
0000
0010
0100
,
0010
1000
0001
0000
1000
0100
0010
0001
0110
0000
0010
0000
1001
0000
0100
0000
,
0110
1000
0001
1000
0110
0000
0100
0000
0011
0000
1001
0000
0200
0000
0010
0000
,
0301
1000
0001
1000
0110
0000
0100
0000
0101
0000
0001
0000
1100
0000
1001
0000
,
0110
1000
0001
1000
0110
0000
0011
0000
1001
0000
1100
0000
0011
0000
0110
0000
,
1001
0010
0100
0010
1001
0000
0110
0000
1100
0000
0010
0000
0001
0000
0010
0000
,
1100
1000
1001
0001
0101
0100
0110
1000
,
0001
0100
0001
0010
1001
0000
0001
0000
0101
0000
1000
0000
0100
0000
0010
0000
,
0001
0010
0001
0100
1010
0000
1000
0000
1100
0000
0110
0000
0011
0000
1001
0000
,
1010
0100
0001
1000
0110
0000
0010
0000
1001
0000
1010
0000
0101
0000
0110
0000
,
1001
0010
0100
0001
1100
0000
1001
0000
0101
1000
0010
1000
0011
0000
0001
0000
,
1001
0000
1000
0000
1010
0000
0010
0000
0110
1000
0001
1000
0110
0000
0001
0000
,
1000
0001
0100
0001
0010
0100
0010
0001
1000
0010
0100
0010
1000
0100
1000
0001
,
0010
0001
0010
0100
1000
0100
1000
0001
0100
0001
1000
0100
1000
0001
0010
0100
,
1000
0001
0100
0001
1000
0100
1000
0001
0010
0100
0010
0001
1000
0010
0100
0001
,
1000
0100
0010
0001
1000
0100
0010
0001
1000
0010
0100
0010
1000
0100
1000
0001
,
0010
0001
1000
0100
1000
0001
0100
0001
0010
0100
0010
0001
1000
0010
0100
0001
,
1000
0100
1000
0010
0100
0010
0001
0100
1000
0010
0100
0001
1000
0010
0100
1000
,
0020
0000
0001
0000
0001
0000
0001
0030
1002
0000
1000
0000
1000
0000
1000
0003
,
2001
0100
0100
0100
0100
0100
0100
3100
,
0110
0001
1000
0010
0101
0000
0001
0000
1001
0000
0110
0000
0001
0000
0010
0000
,
0100
1001
0010
0101
1100
0011
0101
1100
,
0011
0100
1000
0010
1001
0000
1000
0000
0110
0000
1001
0000
1100
0000
0011
0000
,
1001
0010
0100
0010
0101
0000
0011
0000
1001
0100
0010
0001
1000
0000
0110
0000
,
1100
0000
0010
0000
0101
0000
1000
0000
1010
0100
0001
1000
0100
0010
0001
0010
,
0200
0000
1000
0300
1001
0000
0001
0000
0110
0000
1000
0000
0010
0000
1001
0000
,
0100
0010
0001
1000
0110
0000
0001
0000
1100
0000
0011
0000
0011
0000
1100
0000
,
0011
1000
0100
0010
1001
0000
0100
0000
0011
0000
0000
1001
0000
0000
1100
0000
,
0110
0001
1000
0100
0010
0000
0100
0000
0011
0000
1000
0000
1001
0000
0110
0000
,
1001
0001
1100
1000
0101
0010
1000
0100
,
1001
1000
0010
1000
0100
0010
0100
1000
0001
0100
0010
0100
0001
0010
0001
1000
,
0100
1000
0100
0010
0001
0010
0001
1000
0010
1000
0001
0010
0001
1000
0100
0010
,
0001
1000
0010
1000
0001
0010
0001
1000
0100
0010
0100
1000
0001
0100
0010
1000
,
0001
0010
0100
1000
0001
0010
0100
1000
0001
0100
0010
0100
0001
0010
0001
1000
,
0020
0000
0000
0000
0230
0000
0000
0000
0302
0000
0000
0000
2003
0000
0000
3000
,
0101
0001
0011
0010
1010
1000
1100
0001
,
2001
0000
0000
3001
0011
0010
1010
1000
,
1001
0001
0101
0100
0120
1000
1000
1000
,
1000
1000
1000
1000
1000
1000
1030
1000
,
1001
0100
0010
0001
1000
0010
0100
0001
1000
0100
0010
0001
1000
0010
0100
0001
,
1000
0100
1000
0001
0100
0001
0010
0100
0010
0001
0100
0010
1100
0000
1000
0000
,
1001
0000
0101
0100
0110
0000
0110
0010
,
1010
0000
1010
1000
1001
0000
0010
0000
,
1001
0100
0010
0001
1000
0010
0100
0001
1000
0100
1000
0001
0100
0001
1000
0100
,
1000
0100
0010
0100
1000
0001
0100
0010
1000
0001
0010
0100
1001
0000
0010
0000
,
1100
0000
0000
0101
0000
0000
0011
0000
0110
0000
1000
0000
1001
0000
0010
0000
,
0101
0000
0000
1001
0000
0000
1100
0000
0022
0000
0000
0000
0000
0000
0000
0033
,
1001
0010
1100
1001
0101
0110
0110
1100
,
0001
0100
1001
0110
1001
0010
1100
0011
,
1100
0001
1010
0101
1001
1010
0110
0011
,
1000
0100
1100
1001
0101
1000
1010
0100
,
1001
0100
0011
0110
1100
0001
1010
1001
,
0101
0010
1001
1100
0011
0100
1010
0100
,
1001
0010
0110
0001
1100
0001
1010
1000
,
0101
0010
0011
1000
1100
0010
1001
0100
,
1001
0001
0101
1000
1010
0001
1100
0010
,
0011
0100
0010
0100
1001
0001
1002
1000
,
1000
0000
1000
0000
1000
0000
1000
0000
1000
0000
1000
0000
1000
0000
1000
0003
,
0210
0000
0000
0000
0000
0000
0320
0000
0000
0000
0000
0000
0230
0000
0000
0000
0000
0000
0310
0000
0000
0100
0000
0000
0010
0000
0000
0100
0000
0000
0010
0000
0000
0000
0000
0000
0200
0000
0000
0000
0300
0000
0110
0000
0000
0000
0000
0000
,
1001
0001
1000
0000
1001
0000
1000
0001
1000
0001
2000
0000
3200
0000
0320
0000
,
1032
0000
2003
0000
3200
0000
1300
0001
1000
0000
0110
0000
0011
0000
1001
0000
,
1001
0000
0000
0000
0101
0000
0000
0000
1001
0010
0100
0001
1000
0100
0010
0001
,
1000
0100
1000
0000
1001
0000
0001
1000
0001
1000
0001
0000
0110
0000
0110
0000
,
1000
0010
1000
0000
0101
0000
0001
0100
0001
0100
0001
0000
2000
0000
3200
0000
,
0321
0130
0012
1003
0200
2300
3002
0203
,
0320
2030
3200
0320
,
0031
1000
0010
1000
0001
1000
0010
1000
0001
0000
0020
0000
0230
0000
0320
0000
,
0031
1000
0001
0010
0001
1000
0001
0010
0001
0000
0200
0000
0320
0000
2030
0000
,
3102
0013
0201
0310
1000
0002
0023
0230
,
2300
3002
0203
0320
,
1031
0010
0100
0010
0100
0010
0100
0010
0110
0000
0101
0000
1001
0000
1100
0000
,
0110
0010
0100
0000
0110
0000
0010
0100
0010
0100
0010
0000
0200
0000
2300
0000
,
3002
1003
0001
0000
1000
0000
0001
1000
0001
0000
2000
0000
3200
0000
2300
0000
,
3002
0203
0320
2030
,
3101
0010
1000
0010
1000
0010
1000
0010
1000
0001
1000
0001
1000
0001
1000
0100
,
0020
0000
0032
0000
1003
2000
3010
0020
,
0130
0000
0200
0000
0301
0000
0002
0000
2003
0000
0000
0000
3200
0000
0000
0300
,
0011
0000
0001
0000
0001
0000
0001
0000
0001
0010
0001
0000
0001
0000
0011
0000
,
0011
0000
0010
0000
0010
0000
0010
0000
0010
0001
0020
0030
0020
0030
0020
0030
,
0021
0000
0000
0000
0230
0000
0000
0000
0320
0000
0000
0000
0230
0300
0110
0000
,
1100
0000
1000
0000
1000
0000
1000
0000
1000
0100
1000
0000
1000
0000
1100
0000
,
1100
0000
0100
0000
0100
0000
0100
0000
0100
0010
0200
0300
0200
0300
0210
0300
,
0210
0300
0200
0300
0200
0300
0200
0300
0200
0310
0001
1000
0010
0100
0010
1000
,
0002
0000
0000
0000
,
1003
0100
0010
0001
1000
0010
0100
0001
0110
1000
0100
0010
0001
0100
0010
1000
,
0101
0000
0000
0110
0000
0000
1001
0000
1100
0000
0101
0000
0110
0000
1001
0000
,
1100
0000
0000
0110
0000
0000
1001
0000
1001
0000
0010
0000
0100
0000
0001
0000
,
1100
1000
0101
0011
0110
0001
1100
1001
,
0101
0010
1001
1100
0110
0001
0010
0100
,
0011
1000
1100
1001
0101
0010
1000
0011
,
0011
0001
1100
0010
1001
0100
0010
1000
,
0101
0001
1010
0100
1100
0001
0011
1000
,
1001
0010
0110
0001
1001
1000
1100
0100
,
0110
1000
0001
1000
0001
1000
0010
0100
0001
1002
0000
0000
,
2003
0000
0000
3200
0000
0000
0310
0001
0010
0200
0000
0300
,
1001
0000
1010
0000
1001
0000
0011
0000
0110
0000
1100
0000
,
1010
0000
0110
0000
1001
0000
0011
0110
1100
1010
0110
0101
,
1001
1000
0100
1001
0001
0100
0101
0001
,
0010
0110
1000
0100
1010
0010
0101
0001
,
1001
1000
0100
1100
0100
1000
0110
0010
,
0100
0001
1000
0100
0010
0001
0010
0100
1000
0010
0100
0001
1000
0100
0010
0001
,
1100
0001
0100
0001
1001
0100
0011
0110
,
1100
1010
0001
0100
0001
1000
1100
0001
,
0110
0001
1000
0010
0101
0001
1100
0001
,
0011
1000
0100
1000
0001
0100
0001
0010
,
0100
1000
0100
1000
0001
0100
0001
0010
0100
0010
0001
1000
0010
0100
0001
1000
,
0110
0010
0001
0011
0001
0100
0101
0001
,
0100
0110
0010
1000
1010
0001
1001
0001
,
0011
0100
1000
0001
0100
0010
1000
0001
0010
0100
1000
0001
0100
0010
1000
0010
,
0101
1000
0001
1100
0001
0110
1001
0110
,
0001
1001
0100
0010
1001
0010
0101
1000
,
1010
0100
0001
1000
0100
0010
0001
0010
0100
1000
0010
0100
0001
1000
0100
0010
,
1001
1000
0001
0011
0001
0010
0110
0100
,
1000
1010
0001
0100
1010
0001
0110
0001
,
1001
0010
0100
0001
1000
0100
0010
0001
0100
0010
1000
0100
0010
0001
1000
0010
,
0100
0001
1000
0001
1000
0010
0100
0010
0100
0001
1000
0001
1000
0010
0100
0010
,
0100
0001
0010
0001
0010
0100
1000
0100
1000
0010
0100
0010
1001
0000
0011
0000
,
0101
0000
1010
0011
0101
0000
0110
1001
,
1010
0000
1001
0011
2200
0000
0000
3300
,
1001
1000
0100
1000
0001
0010
0100
0010
0001
1000
0010
0100
0001
1000
0100
0010
,
0001
0010
0100
1000
0010
0100
0001
1000
0100
1000
0001
0100
0011
0000
0001
0000
,
0110
0000
0000
1100
0000
0000
1010
0000
0101
0000
0010
0000
1001
0000
1000
0000
,
0110
0000
0000
0000
0000
0000
0000
0000
0011
0000
0000
0000
0000
0000
0000
0000
1001
0000
0000
0000
0000
0000
0000
0000
1010
0000
0000
0001
0000
0000
0100
0000
0000
0001
0000
0000
1000
0000
0000
0010
0000
0000
0100
0000
0000
0010
0000
0000
,
1001
0010
1100
0101
0011
0110
1100
1010
,
0100
0010
1001
0101
1001
1000
0110
0011
,
1100
0001
1010
0101
1100
1001
0110
0110
,
0001
1000
1010
0101
1001
0010
1100
1000
,
0011
0100
1010
0011
1001
1000
0110
0101
,
1100
1000
0011
0110
1010
1000
0101
0010
,
1001
0100
1100
1000
0011
0100
1010
0001
,
1001
1000
0101
0001
0110
0010
1000
0100
,
1001
0100
0010
1000
0001
0010
0100
0010
1100
0001
1000
0010
0101
1000
0100
1000
,
0110
0001
1000
0100
1010
0100
1010
1010
,
0001
1000
0010
0100
1001
0010
0100
0010
,
1001
0100
1000
0010
0101
1000
0110
1001
,
0010
0100
0001
1000
0110
0001
0010
0100
,
1100
0010
1001
0101
1001
0010
0101
1010
,
1001
0100
0110
0110
0011
1000
1100
0001
,
1010
0100
0011
0010
0110
0100
1100
1000
,
1001
0100
0011
1000
0110
0001
1000
0010
,
1100
0001
1000
0100
1000
0010
1001
0010
,
0101
1000
0001
1000
0110
0010
1010
1000
,
2001
0001
0001
0001
0001
0001
0001
3001
,
1001
0001
1000
0000
1001
0000
0001
1000
0001
1000
0001
0000
1000
0000
1001
0000
,
0110
0010
0100
0000
0010
0000
0100
0010
0100
0010
0100
0000
0010
0000
0110
0000
,
1001
0000
0010
0000
0100
0000
0001
1000
0001
0000
1000
0000
0100
0000
1000
0000
,
0002
0000
0000
0000
0203
0000
0000
0000
0320
0000
0000
0000
2030
0000
0000
3000
,
0220
0000
0000
0330
0000
0000
0000
0000
;

//---------------dance-single - ----------------
#NOTES:
     dance-single:
     :
     Challenge:
     13:
     1.000,1.000,1.000,0.449,0.813,1543.000,497.000,105.000,0.000,11.000:
2000
0000
0000
0000
0000
0002
0003
0000
,
0000
0000
0000
0000
0000
0000
0000
0000
0000
0000
0002
0000
0003
0000
0000
0002
,
0000
0003
0000
0000
0000
0000
0000
0000
0000
0000
0000
0000
0000
0000
0000
0000
,
0002
0000
0000
0000
0003
0000
0002
0003
0002
0000
0000
0000
0000
0000
0000
0000
,
0000
0000
0000
0000
0000
0000
0000
0000
0000
0000
0000
0000
0000
0000
0000
3003
,
1001
0100
0010
1000
0101
0010
0100
1000
0101
0010
0001
0100
0011
1000
0001
0010
,
0101
1000
0010
1000
0101
0010
0100
1000
0011
0100
0010
1000
0101
0010
0001
1000
,
0011
0100
0010
0000
0100
0000
0001
0001
0001
0010
0010
0000
0100
0100
0100
0000
,
1000
1000
1000
0000
1001
0000
0010
0010
0010
0001
0001
0000
1002
0000
1000
0003
,
1001
0010
0100
0001
1000
0100
0010
0001
0010
0100
1000
0010
0100
0001
1000
0100
,
1000
0001
0100
0001
0010
0100
0010
0001
1000
0010
0100
0001
1000
0100
1000
0001
,
0110
0000
1000
0001
1000
0001
0010
0000
0100
0100
0010
0001
0001
0000
0100
0100
,
0001
1000
1000
0000
0010
0010
0100
0001
0011
0000
0100
0000
1001
0000
0010
0000
,
0110
0001
1000
0001
0110
0000
0010
0000
1100
0000
1001
0000
0020
0000
0100
0000
,
1030
0001
1000
0001
0110
0000
0010
0000
1010
0000
1000
0000
0011
0000
1001
0000
,
0110
0001
1000
0001
0110
0000
1100
0000
1001
0000
0011
0000
1100
0000
0110
0000
,
1001
0100
0010
0100
1001
0000
0110
0000
0011
0000
0100
0000
1000
0000
0100
0000
,
0011
0001
1001
1000
1010
0010
0110
0001
,
1000
0010
1000
0100
1001
0000
1000
0000
1010
0000
0001
0000
0010
0000
0100
0000
,
1000
0100
1000
0010
0101
0000
0001
0000
0011
0000
0110
0000
1100
0000
1001
0000
,
0101
0010
1000
0001
0110
0000
0100
0000
1001
0000
0101
0000
1010
0000
0110
0000
,
1001
0100
0010
1000
0011
0000
1001
0000
1010
0001
0100
0001
1100
0000
1000
0000
,
1001
0000
0001
0000
0101
0000
0100
0000
0110
0001
1000
0001
0110
0000
1000
0000
,
0101
1000
0010
1000
0100
0010
0101
1000
0001
0100
0010
0100
1001
0010
0001
1000
,
0101
1000
0100
0010
0001
0010
0101
1000
0010
1000
0001
0010
0101
1000
0100
0010
,
0101
1000
0010
1000
0001
0010
0101
1000
0100
0010
0100
1000
0011
0100
0010
1000
,
0101
0010
0100
1000
0101
0010
0100
1000
0011
0100
0010
0100
1001
0010
0001
1000
,
0101
1000
0001
0010
0001
1000
0011
1000
0100
0010
0100
1000
0011
0100
0010
1000
,
0101
0010
0001
0100
0010
0100
1001
0010
0001
0100
0010
1000
0011
0100
0010
0001
,
0210
0000
1000
0000
1000
0000
1000
0300
2001
0000
0001
0000
0001
0000
0001
3000
,
1002
0010
0010
0010
0010
0010
0010
0013
,
0110
1000
0001
0100
1010
0000
1000
0000
1001
0000
0110
0000
1000
0000
0100
0000
,
0010
1001
0100
1010
0011
1100
1010
0011
,
1100
0010
0001
0100
1001
0000
0001
0000
0110
0000
1001
0000
0011
0000
1100
0000
,
1001
0100
0010
0100
1010
0000
1100
0000
1001
0010
0100
1000
0001
0000
0110
0000
,
0011
0000
0100
0000
1010
0000
0001
0000
0101
0010
1000
0001
0010
0100
1000
0100
,
0020
0000
0001
0030
1001
0000
1000
0000
0110
0000
0001
0000
0100
0000
1001
0000
,
0010
0100
1000
0001
0110
0000
1000
0000
0011
0000
1100
0000
1100
0000
0011
0000
,
1100
0001
0010
0100
1001
0000
0010
0000
1100
0000
0000
1001
0000
0000
0011
0000
,
0110
1000
0001
0010
0100
0000
0010
0000
1100
0000
0001
0000
1001
0000
0110
0000
,
1001
1000
0011
0001
1010
0100
0001
0010
,
1001
0001
0100
0001
0010
0100
1010
0001
1000
0010
0100
0010
1001
0100
1000
0001
,
1010
0001
0010
0100
1000
0100
1010
0001
0100
0001
1000
0100
1010
0001
0010
0100
,
1010
0001
0100
0001
1000
0100
1010
0001
0010
0100
0010
0001
1100
0010
0100
0001
,
1010
0100
0010
0001
1000
0100
1010
0001
1000
0010
0100
0010
1001
0100
1000
0001
,
0210
0000
0000
0000
1320
0000
0000
0000
2031
0000
0000
0000
3012
0000
0000
0003
,
1010
1000
1100
0100
0101
0001
0011
1000
,
1002
0000
0000
1003
1100
0100
0101
0001
,
1001
1000
1010
0010
0210
0001
0001
0001
,
0001
0001
0001
0001
0001
0001
0301
0001
,
1001
0010
0100
1000
0011
0100
0010
1000
0101
0010
0100
1000
0011
0100
0010
1000
,
0101
0010
0001
1000
0011
1000
0100
0010
0101
1000
0010
0100
0011
0000
0001
0000
,
1001
0100
1010
0010
0110
0001
0110
0100
,
0101
1000
0101
0001
1001
0010
0220
0330
,
1001
0010
0100
1000
0011
0100
0010
1000
0101
0010
0001
1000
0110
1000
0001
0010
,
1001
0010
0100
0010
0101
1000
0010
0100
0011
1000
0100
0010
1001
0000
0100
0000
,
0011
0000
0000
1010
0000
0000
1100
0000
0110
0000
0001
0000
1001
0000
0100
0000
,
1010
0100
0001
1010
0100
0001
1010
0001
1010
0100
0001
1000
0100
0010
0001
0100
,
1001
0100
0011
1001
1010
0110
0110
0011
,
1000
0010
1001
0110
1001
0100
0011
1100
,
0011
1000
0101
1010
1001
0101
0110
1100
,
0001
0010
0011
1001
1010
0001
0101
0010
,
1001
0010
1100
0110
0011
1000
0101
1001
,
1010
0100
1001
0011
1100
0010
0101
0010
,
1001
0100
0110
1000
0011
1000
0101
0001
,
1010
0100
1100
0001
0011
0100
1001
0010
,
1001
1000
1010
0001
0101
1000
0011
0100
,
1100
0010
0100
0010
1001
1000
2001
0001
,
0001
0000
0001
0000
0001
0000
0001
0000
0001
0000
0001
0000
0001
0000
0001
3000
,
0120
0000
0000
0000
0000
0000
0230
0000
0000
0000
0000
0000
0320
0000
0000
0000
0000
0000
0130
0000
0000
0010
0000
0000
0100
0000
0000
0010
0000
0000
0100
0000
0000
0000
0000
0000
0020
0000
0000
0000
0030
0000
0110
0000
0000
0000
0000
0000
,
1001
0001
0001
0000
1001
0000
0001
1000
0001
1000
0002
0000
0023
0000
0230
0000
,
2301
0000
3002
0000
0023
0000
0031
1000
0001
0000
0110
0000
1100
0000
1001
0000
,
1001
0000
0000
0000
1010
0000
0000
0000
1001
0100
0010
1000
0001
0010
0100
1000
,
0001
0001
0001
0000
1001
0000
1000
0001
1000
0001
1000
0000
0110
0000
0110
0000
,
0010
0010
0010
0000
1010
0000
1000
0010
1000
0010
1000
0000
0002
0000
0023
0000
,
1230
0310
2100
3001
0020
0032
2003
3020
,
0230
0302
0023
0230
,
1300
0100
0001
0010
1000
0100
0001
0010
1000
0000
0200
0000
0320
0000
0230
0000
,
1300
0010
0001
0100
1000
0010
1001
0100
1001
0000
0020
0000
0230
0000
0302
0000
,
2013
3100
1020
0130
0001
2000
3200
0320
,
0032
2003
3020
0230
,
1301
0100
0010
0100
0010
0100
0010
0100
0110
0000
1010
0000
1001
0000
0011
0000
,
0110
0100
0100
0000
0110
0000
0100
0010
0100
0010
0100
0000
0020
0000
0032
0000
,
1003
1000
1000
0000
0100
0000
0001
0001
0001
0000
0002
0000
0023
0000
0032
0000
,
2003
3020
0230
0302
,
1013
0100
0001
0100
0001
0100
0001
0100
0001
1000
0001
1000
0001
1000
0001
0010
,
0200
0000
2300
0000
3001
0002
0103
0200
,
0310
0000
0020
0000
1030
0000
2000
0000
3002
0000
0000
0000
0023
0000
0000
0030
,
1100
0000
1000
0000
1000
0000
1000
0000
1000
1000
1000
0000
1000
0000
1100
0000
,
1100
0000
0100
0000
0100
0000
0100
0000
0100
0100
0200
0300
0200
0300
0200
0300
,
1200
0000
0000
0000
0320
0000
0000
0000
0230
0000
0000
0000
0320
0030
0110
0000
,
0011
0000
0001
0000
0001
0000
0001
0000
0001
0001
0001
0000
0001
0000
0011
0000
,
0011
0000
0010
0000
0010
0000
0010
0000
0010
0010
0020
0030
0020
0030
0120
0030
,
0120
0030
0020
0030
0020
0030
0020
0030
0020
0130
1000
0001
0100
0010
0100
0001
,
2000
0000
0000
0000
,
3001
0010
0100
1000
0001
0100
0010
1000
0110
0001
0010
0100
1000
0010
0100
0001
,
1010
0000
0001
0110
1000
0000
1001
0000
0011
0000
1010
0000
0110
0000
1001
0000
,
0011
0000
1000
0110
0001
0000
1001
0000
1001
0000
0100
0000
0010
0000
1000
0000
,
0011
0001
1010
1100
0110
1000
0011
1001
,
1010
0100
1001
0011
0110
1000
0100
0010
,
1100
0001
0011
1001
1010
0100
0001
1100
,
1100
1000
0011
0100
1001
0010
0100
0001
,
1010
1000
0101
0010
0011
1000
1100
0001
,
1001
0100
0110
1000
1001
0001
0011
0010
,
0110
0001
1000
0011
1000
0001
1100
0010
1000
2001
0100
0010
,
3102
0010
0100
0123
1000
0001
0131
1000
0100
1020
0001
0130
,
1001
0001
0101
0000
1001
0000
1100
0000
0110
0000
0011
0000
,
0101
0000
0110
0000
1001
0000
1100
0110
0011
0101
0110
1010
,
1001
0001
0010
1001
1000
0010
1010
1000
,
0100
0110
0001
0010
0101
0100
1010
1000
,
1001
0001
0010
0011
0010
0001
0110
0100
,
0010
1000
0001
0010
0100
1000
0100
0010
0001
0100
0010
1000
0001
0010
0100
1000
,
0011
1000
0010
1000
1001
0010
1100
0110
,
0011
0101
1000
0010
1000
0001
0011
1000
,
0110
1000
0001
0100
1010
1000
0011
1000
,
1100
0001
0010
0001
1000
0010
1000
0100
,
0010
0001
0010
0001
1000
0010
1000
0100
0010
0100
1000
0001
0100
0010
1000
0001
,
0110
0100
1000
1100
1000
0010
1010
1000
,
0010
0110
0100
0001
0101
1000
1001
1000
,
1100
0010
0001
1000
0010
0100
0001
1000
0100
0010
0001
1000
0010
0100
0001
0100
,
1010
0001
1000
0011
1000
0110
1001
0110
,
1000
1001
0010
0100
1001
0100
1010
0001
,
0101
0010
1000
0001
0010
0100
1000
0100
0010
0001
0100
0010
1000
0001
0010
0100
,
1001
0001
1000
1100
1000
0100
0110
0010
,
0001
0101
1000
0010
0101
1000
0110
1000
,
1001
0100
0010
1000
0101
0010
0100
1000
0011
0100
0001
0010
0101
1000
0001
0100
,
0011
1000
0001
1000
0011
0100
0010
0100
0010
1000
0001
1000
0011
0100
0010
0100
,
0010
1000
0100
1000
0100
0010
0001
0010
0001
0100
0010
0100
1001
0000
1100
0000
,
1010
0100
0101
1100
1010
0001
0110
1001
,
0101
0010
1001
1100
0022
0000
0000
0033
,
1001
0001
0010
0001
1010
0100
0010
0100
1010
0001
0100
0010
1100
0001
0010
0100
,
1001
0100
0010
0001
1100
0010
1000
0001
0110
0001
1000
0010
1100
0000
1000
0000
,
0110
0000
1000
0011
0100
0000
0101
0000
1010
0000
0100
0000
1001
0000
0001
0000
,
0110
0000
0000
0000
0000
0000
0000
0000
1100
0000
0000
0000
0000
0000
0000
0000
1001
0000
0000
0000
0000
0000
0000
0000
0101
0000
0000
1000
0000
0000
0010
0000
0000
1000
0000
0000
0001
0000
0000
0100
0000
0000
0010
0000
0000
0100
0000
0000
,
1001
0100
0011
1010
1100
0110
0011
0101
,
0010
0100
1001
1010
1001
0001
0110
1100
,
0011
1000
0101
1010
0011
1001
0110
0110
,
1000
0001
0101
1010
1001
0100
0011
0001
,
1100
0010
0101
1100
1001
0001
0110
1010
,
0011
0001
1100
0110
0101
0001
1010
0100
,
1001
0010
0011
0001
1100
0010
0101
1000
,
1001
0001
1010
1000
0110
0100
0001
0010
,
1001
0010
0100
0001
1000
0100
0010
0100
0011
1000
0001
0100
1010
0001
0010
0001
,
0110
1000
0001
0010
0101
0010
0101
0101
,
1000
0001
0100
0010
1001
0100
0010
0100
,
1001
0010
0001
0100
1010
0001
0110
1001
,
0100
0010
1000
0001
0110
1000
0100
0010
,
0011
0100
1001
1010
1001
0100
1010
0101
,
1001
0010
0110
0110
1100
0001
0011
1000
,
0101
0010
1100
0100
0110
0010
0011
0001
,
1001
0010
1100
0001
0110
1000
0001
0100
,
0011
1000
0001
0010
0001
0100
1001
0100
,
1010
0001
1000
0001
0110
0100
0101
0001
,
1002
1000
1000
1000
1000
1000
1000
1003
,
1001
1000
1000
0000
1001
0000
1000
0001
1000
0001
1000
0000
0001
0000
1001
0000
,
0110
0100
0100
0000
0100
0000
0010
0100
0010
0100
0010
0000
0100
0000
0110
0000
,
1001
0000
0100
0000
0010
0000
1000
0001
1000
0000
0001
0000
0010
0000
0001
0000
,
2000
0000
0000
0000
3020
0000
0000
0000
0230
0000
0000
0000
0302
0000
0000
0003
,
0220
0000
0000
0330
0000
0000
0000
0000
;
