#TITLE:Kirarin Revolution 3rd ED;
#SUBTITLE:- Mizuiro Melody;
#ARTIST:Kusumi Koharu 2;
#TITLETRANSLIT:;
#SUBTITLETRANSLIT:;
#ARTISTTRANSLIT:;
#CREDIT:;
#BANNER:Mizuiro Melody bn.PNG;
#BACKGROUND:Mizuiro Melody bg.png;
#LYRICSPATH:;
#CDTITLE:cdtitle_Mizuiro Melody.png;
#MUSIC:Kirarin Revolution 3rd ED - Mizuiro Melody.mp3;
#OFFSET:2.520;
#SAMPLESTART:130.000;
#SAMPLELENGTH:12.000;
#SELECTABLE:YES;
#BPMS:0.000=160.000;
#STOPS:;
#BGCHANGES:2.500=Mizuiro Melody.avi=1.000=1=1=0,
560.000=Mizuiro Melody bg.PNG=1.000=1=0=0,
99999=-nosongbg-=1.000=0=0=0 // don't automatically add -songbackground-
;
// cache tags:
#FIRSTBEAT:8.000;
#LASTBEAT:564.000;
#SONGFILENAME:Songs/toune 1 (2010)/Kirarin Revolution 3rd ED - Mizuiro Melody/Kirarin Revolution 3rd ED - Mizuiro Melody.sm;
#HASMUSIC:1;
#HASBANNER:1;
#MUSICLENGTH:214.386;
// end cache tags

//---------------dance-single - Maniac Melody----------------
#NOTES:
     dance-single:
     Maniac Melody:
     Hard:
     11:
     0.935,1.000,1.000,0.051,0.368,1156.000,236.000,11.000,0.000,6.000:
0000
0000
0000
0000
,
0000
0000
0000
0000
,
1000
0001
1100
0001
1000
0001
1100
0001
,
1001
0000
0100
0000
1010
0000
0010
0000
0011
0000
0100
0000
0001
1000
0010
0100
,
1001
0000
0000
0000
0000
0000
0100
0000
0000
0000
0100
0001
0100
0000
0000
1000
0000
0000
0100
0000
0000
0011
0000
0000
,
0000
1000
0100
0001
1100
0010
0100
0010
,
1001
0000
0000
0000
0000
0000
0010
0000
0000
0000
1000
0100
1000
0000
0000
0100
0000
0000
0010
0000
0000
1100
0000
0000
,
0000
0000
0100
0000
0110
0000
1001
0000
0100
0000
0001
0000
1000
0000
0001
1000
,
0110
0000
0000
0000
0000
0000
0001
0000
0000
0000
0010
0100
0010
0000
0000
1000
0000
0000
1010
0000
0000
0101
0000
0000
,
0000
1000
1100
0011
0100
1000
0110
0000
,
1001
0000
0110
0000
1000
0000
0101
0000
0000
0000
1100
0000
0001
0010
1000
0000
,
0010
0001
1000
0100
0010
0001
0100
0010
1000
0100
0010
0100
1001
0000
1001
0000
,
0000
1000
0001
0001
0010
0001
1000
0100
,
0010
0001
0100
1000
0010
0100
0001
0010
,
0011
1000
0001
0010
0001
0100
0001
1000
,
0001
1000
0001
0100
0001
0010
1100
0011
,
0000
1000
0010
0010
0100
0010
1000
0100
,
0001
0010
0100
1000
0001
0010
0001
1000
,
1100
0001
1000
0010
0100
0001
1000
0001
,
0101
0000
0100
0000
1000
0000
1000
0000
0001
0000
0100
0000
1000
0010
0101
0000
,
0000
1000
0100
0100
0010
0001
1000
0100
,
0010
0100
0001
0010
1000
0001
0100
1000
,
0101
0010
0001
1000
0001
0010
1000
0001
,
0100
0010
1001
0100
0010
0100
0001
0010
,
0011
1000
0100
0010
0100
0001
0010
1000
,
0010
0100
0001
1000
0100
0010
0100
1000
,
0101
0010
1000
0100
0001
0010
0100
0010
,
1010
0000
0100
0000
0010
0000
0101
0000
0000
0000
0011
0000
1000
0010
1000
0010
,
1100
0000
0001
0100
1000
0010
0001
0010
,
0100
0000
0001
0000
0010
0000
0001
0000
1000
0000
0100
0000
0010
0000
1000
0010
,
1001
0000
1001
1000
1100
0100
0100
0010
,
1001
0000
0010
0000
0100
0000
0010
0000
1000
0000
0001
0000
0100
0000
1000
0100
,
1010
0000
1000
0001
0100
0010
1000
0010
,
0001
1000
0100
1000
0001
0100
0001
0010
,
0001
1000
0100
0010
1001
0000
0100
1000
0010
0100
0001
1000
0110
0000
0110
0000
,
0000
0000
1001
0000
1001
0000
0000
0000
2000
0000
0100
0000
0010
0000
0001
0100
,
3011
0000
0100
1000
0001
0100
1000
0020
,
0001
0000
1000
0000
0100
0000
0000
0100
1030
0000
0010
0000
0100
0000
0010
0000
,
1001
0100
0010
1000
0011
1000
0100
1000
,
0110
0000
0001
0000
0100
0000
1010
0000
0000
0000
0010
0000
1001
0000
0100
0010
,
1001
0000
1000
0100
0001
0010
1000
0001
,
1000
0100
0010
1100
0000
1000
0100
0010
,
0110
0000
0001
0000
0010
0000
1000
0100
0010
0000
1000
0000
0101
0000
1010
0000
,
0000
0000
0101
0000
0101
0000
1001
0000
0000
0000
0100
1000
0010
1000
0001
0000
,
0110
0000
0000
0000
1000
0000
1000
0000
0010
0000
0100
0000
1000
0100
0001
0000
,
1000
0000
0010
0000
0001
0000
1000
0010
0100
0010
1000
0000
0100
0000
0010
0100
,
1001
0000
0011
0110
0000
0101
0000
1010
,
0100
0000
0010
0000
1001
0000
0100
0010
0100
0000
1000
0000
1100
0000
0001
0100
,
1010
0000
0101
0010
1000
0100
1001
0120
,
0100
0000
0100
0000
0131
0000
0000
0000
0010
1000
0100
1000
0100
1000
0010
0100
,
1001
0000
0000
0010
0000
0000
1010
0000
0000
0000
0010
0001
0010
0000
0000
0100
0000
0000
1000
0000
0000
1010
0000
0000
,
0000
1000
0001
0100
1010
0100
0011
0100
,
1001
0000
0000
0000
0000
0000
0110
0000
0000
0000
0001
1000
0001
0000
0000
0100
0000
0000
0010
0000
0000
1100
0000
0000
,
0000
0000
0100
0000
1010
0000
1001
0000
0100
0000
0001
0000
1001
0000
0010
1000
,
0011
0000
0000
0000
0000
0000
0101
0000
0000
0000
1000
0010
1000
0000
0000
0100
0000
0000
0110
0000
0000
0011
0000
0000
,
0000
1000
1010
1001
0100
0010
0101
0000
,
0101
0000
1100
0000
0010
0000
1001
0000
0000
0000
1100
0000
0010
0100
1001
0000
,
0010
0100
0010
0100
0001
0010
0001
0010
0100
1000
0010
0100
0011
0000
0011
0000
,
0000
0000
1000
0000
0100
0000
0001
0100
0010
0000
0001
0000
1000
0000
0100
0000
,
0010
0000
0100
0000
0001
0000
1000
0001
0010
0000
1000
0000
0100
0000
0010
0000
,
0110
0000
0001
0000
1000
0000
0001
0100
1000
0000
0010
0000
1000
0000
0100
0000
,
0010
0000
1000
0000
0011
0000
1000
0100
0010
0000
0001
0000
1010
0000
0101
0000
,
0000
0000
1000
0000
0010
0000
0010
1000
0100
0000
0010
0000
0001
0000
0100
0000
,
0010
0000
0100
0000
0001
0000
1000
0100
0001
0000
0010
0000
0001
0000
0100
0000
,
0110
0000
0001
0000
1000
0000
0010
1000
0100
0000
0001
0000
1000
0000
0100
0000
,
0110
0000
0101
0000
1001
0000
1000
0000
0001
0000
0100
0000
1000
0100
1001
0000
,
0000
0000
1000
0000
0010
0000
0001
0010
0001
0000
0100
0000
1000
0000
0100
0000
,
1010
0000
0100
0000
0001
0000
0010
0100
1000
0000
0001
0000
0100
0000
1000
0000
,
0110
0000
0001
0000
0100
0000
1000
0001
0100
0000
0010
0000
1000
0010
0100
0000
,
1000
0000
0010
0000
1001
0000
0100
0010
1000
0000
0010
0000
0100
0000
0010
0001
,
0010
0000
1000
0000
0001
0000
0010
1000
0100
0000
0001
0000
0010
0000
1000
0000
,
1001
0000
0100
0000
0010
0000
1000
0001
0100
0000
0001
0000
0100
0000
0010
0000
,
1001
0000
0010
0000
1000
0000
0100
0010
0001
0000
0010
0000
0100
0000
0010
0000
,
1100
0000
0010
0000
0100
0000
0011
0000
0000
0000
0101
0000
0010
0100
0010
0100
,
1010
0000
0001
1000
0100
0010
0001
0100
,
0010
0000
1000
0000
0100
0000
0001
0000
1000
0000
0100
0000
0010
0000
0001
0100
,
0011
0000
0011
0001
1001
1000
1000
0100
,
0011
0000
0100
0000
1000
0000
0100
0000
0010
0000
0001
0000
0100
0000
0001
0100
,
1001
0000
0100
0001
1000
0100
0001
0100
,
0010
1000
0010
0100
1000
0010
1000
0001
,
0010
0001
0010
0100
1010
0000
0001
0010
0100
1000
0010
0100
1001
0000
1001
0000
,
0000
0000
0110
0000
0110
0000
0000
0000
1001
0000
0100
1000
0010
1000
0001
1000
,
0110
0000
1000
0100
0001
0010
0100
0002
,
0010
0000
1000
0000
0010
0000
0000
0010
0103
0000
0010
0000
1000
0000
0100
0000
,
0011
1000
0010
1000
0110
0001
0010
0001
,
1100
0000
0001
0000
0010
0000
1001
0000
0000
0000
0001
0000
0100
0000
0010
0100
,
1001
0000
0001
1000
0010
0100
0001
0010
,
0100
0010
1000
0101
0010
1000
0010
0100
,
1010
0000
0001
0000
0100
0000
1000
0010
0001
0000
1000
0000
0011
0000
1100
0000
,
0000
0000
0011
0000
0011
0000
0110
0000
0000
0000
0001
1000
0010
1000
0100
1000
,
0011
0000
1000
0100
0001
0010
0100
0010
,
1001
0000
0010
0000
0001
0000
0100
0010
0001
0010
0100
0000
1000
0000
0100
0010
,
1001
0000
0101
0110
0000
1010
0000
1100
,
0010
0000
0100
0000
0001
0000
0100
0001
0010
0000
1000
0000
0010
0000
0001
0010
,
1100
0000
0000
0000
0101
0000
0010
0001
1000
0000
0100
0000
1100
0000
0021
0000
,
1000
0000
1000
0000
1031
0000
0000
0000
0010
0100
0001
1000
0001
0010
0100
0010
,
1001
1001
1010
1001
0100
0001
0100
0010
,
1000
0100
0001
1000
0100
0100
0010
0100
,
0001
0001
0010
0001
1000
0010
0001
0100
,
0010
1000
0010
0000
0001
0100
0001
0000
1000
0001
1000
0000
0010
0100
0010
0100
,
1010
1010
1100
1010
0001
0100
0010
1000
,
0100
1000
0001
0010
0001
0100
1000
0100
,
0001
1000
0100
0010
0001
1000
0100
1000
,
0010
0001
0100
0000
1000
0010
0100
0000
0011
0100
1000
0000
0010
0001
0010
0001
,
0110
0110
1100
0110
0001
0100
0010
1000
,
0101
0010
0100
1000
0001
0010
0100
0010
,
1001
1000
1000
1000
0100
1000
0100
1000
,
0120
0000
0100
0000
0100
0000
0131
0000
0000
0000
0110
0001
1000
0100
0010
0001
,
1100
0000
0001
0100
1000
0100
0001
0010
,
0100
0000
0001
0000
1000
0000
0001
0000
0010
0000
0100
0000
0010
0000
1000
0010
,
0101
0000
0101
0010
1100
0001
1000
0010
,
1001
0000
0100
0000
0010
0000
0100
0000
1000
0000
0001
0000
0100
0000
1000
0010
,
1100
0000
1000
0010
0100
0001
1000
0100
,
0001
1000
0010
0100
1000
0100
0001
0010
,
1001
0100
0010
0001
1000
0100
0010
0001
1000
0100
0010
0001
1000
0100
0011
0000
,
0000
0000
0011
0000
0011
0000
0000
0000
2000
0000
0010
0000
0100
0000
0001
0010
,
3101
0000
0010
1000
0010
0100
0010
0002
,
0100
0000
0010
0000
0100
0000
0000
1000
0103
0000
0010
0000
0010
0000
0001
0000
,
0101
1000
0010
0100
1001
0100
0010
0001
,
1100
0000
0001
0000
0100
0000
0011
0000
0000
0000
0100
0000
0101
0000
1000
0010
,
1001
0000
1000
0100
0010
0001
1000
0010
,
1000
0100
0010
1100
0000
1000
0100
0010
,
0101
0000
0010
0000
0001
0000
1000
0100
0001
0000
1000
0000
0011
0000
1010
0000
,
0000
0000
0011
0000
0101
0000
1001
0000
0000
0000
0100
1000
0010
0100
0001
0010
,
1100
0000
0000
0000
1000
0000
1000
0000
0010
0000
1000
0000
0100
0010
0001
0000
,
1000
0000
0010
0000
0001
0000
1000
0001
0010
0001
0100
0000
0001
0000
1000
0001
,
1010
0000
0110
1100
0000
0011
0000
0101
,
1000
0000
0010
0000
1001
0000
0100
0010
0100
0000
1000
0000
1100
0000
0001
0010
,
1001
0000
0000
0000
0101
0000
0010
0001
1000
0000
0100
0000
1001
0000
0210
0000
,
0010
0000
0010
0000
0311
0000
0000
0000
0100
1000
0010
0100
0010
0100
0001
1000
,
0011
0000
0000
0000
0000
0000
1100
0000
0000
0001
1000
0001
0100
0000
0000
1000
0000
0000
1010
0000
0000
0101
0000
0000
,
0000
1000
0110
0011
1100
0010
0101
0010
,
1001
0000
0000
0000
0000
0000
0011
0000
0000
0100
1000
0100
0010
0000
0000
0100
0000
0000
0001
0000
0000
1010
0000
0000
,
0000
0000
1000
0000
0110
0000
0011
0000
0100
0000
0001
0000
1001
0000
0010
1000
,
0101
0000
0000
0000
0000
0000
0110
0000
0000
1000
0001
1000
0010
0000
0000
0100
0000
0000
1010
0000
0000
0101
0000
0000
,
0000
1000
0110
1001
0010
0100
0011
0000
,
0011
0000
1100
0000
0010
0000
0101
0000
0000
0000
1010
0000
0100
0010
1000
0100
,
0010
0001
0100
0010
1000
0100
0010
0001
1000
0100
0010
0100
1001
0010
0100
0010
,
2002
0000
0000
0000
,
0000
0000
0000
0000
,
0003
0000
0000
0000
,
3000
0000
0000
0000
;

//---------------dance-single - Another Melody----------------
#NOTES:
     dance-single:
     Another Melody:
     Medium:
     8:
     0.688,0.691,0.718,0.103,0.012,856.000,154.000,22.000,0.000,0.000:
0000
0000
0000
0000
,
0000
0000
0000
0000
,
1000
0001
0100
0001
1000
0001
0100
0001
,
1000
0000
0200
0020
0330
1000
0001
1000
,
1001
0000
0010
0001
0010
0200
0000
0301
,
0000
1000
0100
0002
0003
0010
0100
0010
,
1001
0000
0100
0010
0100
2000
0000
3010
,
0000
0100
0010
0002
0003
0010
0100
0010
,
0110
0000
0001
0100
0010
2000
0000
3001
,
0000
1000
0100
0002
0000
1000
1003
0000
,
0001
0110
0000
0011
0000
1100
0001
1000
,
0100
0010
0001
1000
0100
0010
1001
1001
,
0000
1000
0001
0001
0010
0001
0000
0100
,
0010
0000
0100
1000
0000
0100
0000
0010
,
0001
0000
0001
0010
0000
0100
0000
1000
,
0000
0100
1000
0100
0001
0010
0100
0001
,
0000
1000
0010
0010
0100
0010
0000
0100
,
0001
0000
0100
1000
0000
0010
0000
1000
,
0100
0000
1000
0010
0000
0001
0000
0001
,
0100
0100
0100
0100
0001
0010
0100
1001
,
0000
1000
0100
0100
0010
0001
0000
0100
,
0010
0000
0001
0010
0000
0001
0000
1000
,
0001
0000
0001
1000
0000
0010
0000
1000
,
0100
0010
1001
0100
0010
0100
0001
0010
,
0000
1000
0100
0010
0100
0001
0000
1000
,
0010
0000
0001
1000
0000
0010
0000
1000
,
0001
0000
1000
0100
0000
0010
0100
0010
,
1010
0000
0010
0101
0000
0011
1000
0010
,
1100
0000
0001
0100
0000
0010
0001
0010
,
0100
0000
0010
0001
1000
0000
0010
1000
,
1010
0000
0001
0000
1100
0010
0100
0010
,
1001
0000
0100
0010
1000
0000
0100
0010
,
0110
0000
1000
0000
0100
0010
0000
0010
,
0001
0000
0100
1000
0000
0100
0000
0010
,
0001
1000
0110
0001
1000
0100
0011
0011
,
0000
1100
1100
0000
1000
0100
0010
0001
,
1010
0000
0100
1000
0000
0100
0000
0020
,
0001
0000
0100
0000
1030
0010
0100
0010
,
1001
0000
0010
1000
1010
0000
0001
1000
,
1001
0000
0100
0110
0000
0020
0030
0100
,
1001
0000
1000
0100
0000
0010
0000
0001
,
1000
0000
0010
1010
0000
0200
0000
0020
,
0330
0001
0010
1000
0100
0000
0001
1010
,
0000
0100
0100
1001
0000
0100
0010
0001
,
0110
0000
0000
0000
1000
0000
1000
0000
0000
0000
0100
0000
0000
0010
0001
0000
,
1000
0000
0010
0100
1000
0100
0010
0001
,
1001
0000
0001
0011
0000
0101
0000
1001
,
0010
0000
0100
0010
0100
1000
1000
0100
,
0011
0000
0001
0010
0000
0100
1000
0010
,
0100
0100
1100
0000
1000
0001
0100
0010
,
1001
0000
0100
0001
0010
0100
1000
1010
,
0000
1000
0002
1000
1003
0010
0100
0000
,
0011
0000
0100
1000
0001
0100
0000
1100
,
0000
0100
0010
1001
0100
0001
0001
1000
,
0110
0000
1001
0010
0100
1000
0100
0011
,
0000
1000
0010
0101
0000
0001
0011
0000
,
0100
1100
0000
1001
0000
1100
0010
0001
,
0010
1000
0001
0100
0010
0100
0011
0011
,
0000
1000
0010
0100
0010
0001
0000
0100
,
0010
0000
0001
1000
0010
1000
0100
0010
,
0110
0000
1000
0001
0000
0010
1000
0100
,
0010
1000
0011
1000
0010
0001
0100
0101
,
0000
1000
0010
0010
1000
0010
0000
0001
,
0010
0000
0001
1000
0001
0010
0001
0100
,
0110
0000
1000
0010
1000
0001
1000
0100
,
0001
0001
1000
1000
0001
0100
0010
1001
,
0000
1000
0001
0001
0010
0100
1000
0100
,
0010
0000
0001
0010
0000
0001
0100
1000
,
0010
0000
0100
0001
0100
0010
1000
0010
,
0001
0000
1001
0100
1000
0010
0100
0010
,
0001
1000
0001
0010
0100
0001
0010
1000
,
0001
0000
0010
1000
0001
1000
0100
0010
,
1000
0000
1000
0100
0000
0001
0100
0010
,
0110
0000
0001
0011
0000
0101
0010
0100
,
1010
0000
0001
1000
0000
0010
0001
0100
,
0010
0000
0100
0001
0000
0100
0010
0100
,
0011
0000
0100
0000
1001
0100
1000
0100
,
0011
0000
1000
0100
0010
0000
0100
0001
,
0101
0000
0100
0000
1000
0100
0001
0100
,
0010
0000
0010
0100
1000
0010
1000
0001
,
0010
0001
1100
0010
0001
0010
0101
0101
,
0000
1010
1010
0000
1000
0100
0010
0001
,
0110
0000
1000
0100
0000
0010
0000
0002
,
1000
0000
0010
0000
0103
1000
0100
0010
,
0101
0000
0010
1000
0110
0000
0010
0001
,
1100
0000
0010
1001
0000
0200
0300
1000
,
0101
0000
0001
1000
0010
0100
0001
0010
,
0100
0000
1000
0101
0000
1000
0000
0100
,
0110
1000
0100
0000
0001
1000
0001
1001
,
0000
0010
0010
0110
0000
1000
0100
0010
,
1100
0000
1000
0100
0000
0010
1000
0001
,
1001
0000
0001
0100
1000
0010
0100
0010
,
1001
0000
0100
0101
0000
0110
0000
1100
,
0010
0000
0001
0100
0001
1000
0001
0010
,
1100
0000
0001
0010
1000
0100
1000
0010
,
1000
1000
1001
0000
0100
0001
0001
0100
,
1010
1010
1100
1010
0000
0001
0000
0010
,
0000
0100
0000
1000
0100
0100
0010
0000
,
0001
0001
0010
0001
0000
0010
0000
0100
,
0010
1000
0001
0100
1000
0001
0010
0100
,
0101
0101
0110
0101
0000
0001
0000
0010
,
0000
0100
0000
0100
0010
1000
0001
1000
,
0100
0001
0100
0010
0000
0100
0010
1000
,
0010
0001
1000
0010
1001
0100
0010
0001
,
0110
0110
1010
0110
0000
0001
0020
2000
,
3030
0001
0100
1000
0001
0000
0100
0000
,
1001
0100
1000
0000
0010
0100
0010
0100
,
0020
1000
1000
0031
0000
0110
0001
0010
,
1100
0000
0001
0100
0000
0100
0001
0010
,
0100
0000
1000
0001
0100
0010
1000
0100
,
1001
0000
0101
0000
1100
0001
1000
0010
,
1001
0000
0010
0100
1000
0001
0100
0010
,
1100
0000
1000
0000
0100
0010
1000
0010
,
0001
0000
0010
0100
0000
1000
0001
0010
,
0011
1000
0100
0010
0001
1000
0100
0011
,
0000
0011
0011
0000
1000
0010
0100
0001
,
1100
0000
0010
1000
0000
0100
0000
0002
,
0100
0000
0010
0000
1003
0100
0010
0001
,
1001
0000
0100
0010
1010
0000
1000
0100
,
1100
0000
1000
1001
0000
0200
0301
0010
,
1001
0000
1000
0100
0000
0010
0000
0001
,
0000
1000
0010
1100
0000
1000
0000
0010
,
0101
0010
0001
1000
0010
1000
0100
1010
,
0000
0001
0001
1001
0000
0100
0010
0001
,
1100
0000
0000
0000
1000
0000
1000
0000
0000
0000
0010
0000
0000
0100
0001
0000
,
1000
0000
0001
1000
0010
0100
0001
0010
,
1001
0000
0001
0110
0000
1010
0000
1100
,
0010
0000
1001
0010
1000
0100
0100
0010
,
1001
0000
0101
0010
1000
0100
0001
0100
,
0010
0010
0011
0000
0100
0010
0100
1000
,
0011
0000
0000
0000
1100
0000
0001
0010
0100
0000
1000
0000
0010
0000
0101
0000
,
0000
1000
0010
0001
1100
0001
0001
0000
,
1100
0000
0000
0000
0011
0000
0100
1000
0010
0000
0100
0000
0000
0000
1010
0000
,
0000
1000
0100
0101
0000
0001
1000
0010
,
1001
0000
0000
0000
0110
0000
1000
0001
0010
0000
0100
0000
1000
0000
0101
0000
,
0000
1000
0100
0011
0000
0100
0110
0000
,
1001
1010
0000
0101
0000
1100
0010
1000
,
0100
0010
0001
0100
0010
1000
0101
0010
,
2002
0000
0000
0000
,
0000
0000
0000
0000
,
0003
0000
0000
0000
,
3000
0000
0000
0000
;

//---------------dance-single - Basic Melody----------------
#NOTES:
     dance-single:
     Basic Melody:
     Easy:
     5:
     0.448,0.555,0.368,0.238,0.000,542.000,79.000,51.000,0.000,0.000:
0000
0000
0000
0000
,
0000
0000
0000
0000
,
1000
0100
1000
0010
,
1000
0002
2000
3003
,
1001
0000
0100
0000
0020
0000
0030
1001
,
0000
0200
0301
0010
,
1001
0000
0100
0000
0002
0000
0003
1010
,
0000
0100
0001
0100
,
0110
0000
0001
0000
2000
0000
3000
0011
,
0000
0100
0001
1000
,
2002
0000
3003
0220
0000
0000
0330
0000
,
1000
0000
0100
0000
0010
0000
0001
0001
,
0000
1000
0010
0001
,
0010
0100
1000
0010
,
0001
0001
0010
0001
,
1000
0100
0001
0101
,
0000
0100
0010
1000
,
0001
0100
0010
1000
,
0100
1000
0010
0001
,
0100
0100
0100
0000
0001
0000
1000
0001
,
0000
0100
1000
0001
,
0010
0001
0100
0010
,
1000
0001
0100
0010
,
0100
1001
0010
0001
,
0000
1000
0010
0001
,
0100
0001
1000
0010
,
0001
1000
0001
1000
,
1001
0000
0000
0110
0000
0002
0000
0000
,
1003
0001
1000
0001
,
0100
0010
0001
0100
,
1010
0000
2200
3300
,
1001
0010
1000
0100
,
0110
1000
0100
1000
,
0001
0100
0010
0100
,
0010
0000
0110
0000
1000
0000
0010
0010
,
0000
0100
0100
0000
2000
0000
0100
0000
,
3010
0100
0010
1000
,
0002
0000
1003
0100
,
0101
0010
1010
0001
,
2002
0000
3003
0220
0000
0330
1000
0000
,
1001
1000
0100
0010
,
1000
0000
0010
0001
0000
0000
0100
0000
,
0010
0000
0001
0000
0100
0000
1000
0001
,
0000
0100
0010
0000
0001
0000
1000
0000
,
0110
0000
1000
0000
0100
0000
0010
0001
,
1000
0010
1000
0100
,
1001
0000
0001
0010
0000
0100
0000
1000
,
0000
0100
0010
1000
,
0011
0000
0100
0000
0010
0000
1000
0010
,
1000
1010
1000
0010
,
1001
0000
0100
0000
0020
0000
0030
1010
,
0000
0002
1003
0100
,
0011
0000
1000
0000
0200
0000
0300
1100
,
0000
0010
0100
0001
,
0110
0000
0001
0000
2000
0000
3000
0011
,
0000
1000
0100
0001
,
0220
0000
0330
2002
0000
0000
3003
0000
,
1000
0000
0100
0000
0010
0000
0001
0001
,
0000
0010
0100
0001
,
0010
0001
0010
0100
,
0001
1000
0001
0100
,
0010
0011
0100
0101
,
0000
0010
1000
0001
,
0100
0001
0010
0001
,
0100
1000
0010
0001
,
0010
0010
0010
0000
0001
0000
0100
1000
,
0000
0010
0001
1000
,
0010
0001
0001
0100
,
0010
0100
0001
0010
,
1000
1001
0100
0010
,
0001
0010
1000
0010
,
0001
0010
0001
0100
,
1000
1000
0100
0001
,
0110
0000
0000
1001
0000
0020
0000
0000
,
0130
0001
1000
0010
,
0001
0100
0001
0100
,
0022
0033
2002
3003
,
1100
0010
0001
1000
,
0101
0100
1000
0100
,
0001
0010
1000
0010
,
0001
0000
0011
0000
0001
0000
0100
0100
,
0000
0010
0010
0000
0200
0000
0010
0000
,
1300
0100
0010
0100
,
0002
0000
0103
1000
,
0101
0100
0110
0100
,
2200
0000
3300
0022
0000
0033
0100
0000
,
0101
0001
0010
0100
,
0010
0000
0001
0100
0000
0000
1000
0000
,
1001
0000
0010
0000
0001
0000
0001
0010
,
0000
0010
0100
0000
1000
0000
0100
0000
,
0011
0100
0010
0001
,
1000
0001
0100
0010
,
1001
0000
0010
0001
0000
0010
0000
0100
,
0000
0001
0100
0001
,
1100
0000
0010
0000
0100
0000
0010
0001
,
0000
1000
0001
0000
0200
0000
0302
0000
,
0013
0010
1000
0010
0000
0000
0001
0000
,
0010
0100
1000
0010
,
0001
0100
0001
0100
,
0010
0100
1000
0010
,
0001
0001
0100
0001
0000
0000
1000
0000
,
0010
0100
1000
0001
,
0100
0100
0010
0010
,
0001
2000
3001
0100
,
0001
0001
1000
0001
0000
0000
0010
0000
,
1001
0100
0001
0100
,
1001
0100
0010
1000
,
0020
0000
0000
0031
0000
0200
0000
0000
,
1300
0001
0100
0001
,
0010
1000
0001
0100
,
1001
0010
1100
0010
,
1001
0010
1000
0001
,
1100
1000
0010
0100
,
0001
0100
0010
1000
,
1010
0000
0100
0000
0010
0000
0001
0010
,
0000
0010
0010
0000
2000
0000
0010
0000
,
3001
0010
1000
0100
,
0002
0000
1003
0001
,
1001
0010
1010
0100
,
1100
0000
0000
1001
0000
0000
0001
0000
,
1001
0100
0010
0001
,
1000
0000
0010
0100
0000
0000
1000
0000
,
1010
0000
0001
0000
0010
0000
0100
0010
,
0000
0002
2000
3003
0000
0000
0010
0000
,
1001
0000
1000
0000
0100
0000
0010
0001
,
1000
0001
0100
0010
,
1001
0000
0100
0001
0000
0010
0000
1000
,
0000
0001
0100
0010
,
1001
0000
0100
0000
0010
0000
1000
0001
,
0010
0011
0200
0320
,
0031
0000
1000
0001
0100
1000
0000
0101
,
0000
1000
0010
0000
1010
0000
0001
0000
,
1100
0000
0001
0100
0010
1000
0000
0110
,
0000
1000
0100
0001
0000
0010
0001
0000
,
0011
0000
0100
0001
0010
0100
0000
1001
,
0000
1000
0100
0010
0000
0100
0100
0000
,
1001
0010
0000
0100
0000
1000
0000
0001
,
1000
0100
0010
0110
,
2002
0000
0000
0000
,
0000
0000
0000
0000
,
3003
0000
0000
0000
;
