#TITLE:SunnyFunnyChiny;
#SUBTITLE:The BOSS Song of science;
#ARTIST:t+pazolite;
#TITLETRANSLIT:;
#SUBTITLETRANSLIT:;
#ARTISTTRANSLIT:;
#CREDIT:;
#BANNER:;
#BACKGROUND:;
#LYRICSPATH:;
#CDTITLE:;
#MUSIC:SunnyFunnyChiny.mp3;
#OFFSET:-0.222;
#SAMPLESTART:40.180;
#SAMPLELENGTH:29.999;
#SELECTABLE:YES;
#DISPLAYBPM:135.040:270.080;
#BPMS:0.000=135.040,80.000=270.080,336.000=135.040,354.000=270.080,358.000=135.040,360.000=270.080,364.000=135.040,368.000=270.080,884.000=244.400,885.000=244.420,886.000=216.379,887.000=216.395,888.000=193.913,889.000=225.000,890.000=140.962,892.000=270.080;
#STOPS:;
#BGCHANGES:;
// cache tags:
#FIRSTBEAT:0.000;
#LASTBEAT:964.000;
#SONGFILENAME:Songs/owenviau1 Simfiles 6/SunnyFunnyChiny - [owenviau1] v1.0.3/SunnyFunnyChiny.sm;
#HASMUSIC:1;
#HASBANNER:0;
#MUSICLENGTH:239.621;
// end cache tags

//---------------dance-single - 17+ (owenviau1)----------------
#NOTES:
     dance-single:
     17+ (owenviau1):
     Hard:
     17:
     1.000,1.000,0.250,0.547,1.000,2540.000,60.000,131.000,52.000,1.000:

2000
0000
0000
0000
0000
0000
3200
0000
0320
0000
0000
0032
0000
0000
2003
0000
,
3020
0000
0230
0000
0302
0000
2003
0000
3002
0000
0000
0023
0230
0000
0000
0000
,
2300
0000
0000
0000
0000
0000
3002
0000
0023
0000
0000
0032
0000
0000
2003
0000
,
3020
0000
0000
0000
0000
0000
0000
2030
,
3002
0000
0000
0000
0000
0000
2003
0000
3200
0000
0000
0302
0000
0000
2003
0000
,
3020
0000
0230
0000
0302
0000
2003
0000
3002
0000
0000
0203
0320
0000
2030
0000
,
3002
0000
0023
0000
0000
0000
0032
2003
3002
0000
0023
0000
0230
0000
2300
0000
,
3002
0000
0000
0203
0302
0000
0000
0000
0000
0000
0000
0000
0000
0000
0000
0000
,
1103
0000
0010
0000
0110
0000
0001
0000
1000
0010
0100
0000
1001
0000
0001
0000
,
1010
0000
0100
0000
1100
0000
0001
0000
1000
0010
1000
0000
0101
0000
0010
0000
,
1001
0000
0001
0000
1010
0000
0100
0000
0001
1000
0010
0000
0110
0000
0001
0000
,
1010
0000
0001
0000
0101
0000
0010
0000
1000
0100
0010
0000
0101
0000
1000
0000
,
0110
0000
0001
0000
1010
0000
0001
0000
1000
0010
0100
0000
1001
0000
0001
0000
,
0110
0000
0100
0000
1100
0000
0001
0000
1000
0010
1000
0000
0101
0000
0010
0000
,
1001
0000
0001
0000
1010
0000
0100
0000
0001
1000
0001
0000
0110
0000
1000
0000
,
1010
0000
0001
0000
0101
0000
0010
0000
1000
0100
0010
0000
0101
0000
1000
0000
,
0110
0000
0001
0000
0101
0000
1000
0000
0010
0100
0001
0000
1001
0000
0010
1000
,
0100
0000
1000
0000
0101
0000
0010
0000
1000
0001
0100
0000
1010
0000
0001
1000
,
0001
0000
0000
0000
0110
0000
0000
0000
1100
0000
0000
0000
0101
0000
0000
0000
1000
0000
0010
0000
0100
0000
0000
0000
0011
0000
0000
0000
1000
0000
0010
000M
,
0100
000M
1000
0000
1001
0000
0010
0000
0100
0001
0010
0000
1100
0000
0001
0000
,
1000
0100
0010
0001
0100
0010
1000
0001
0100
0001
1000
0100
,
0010
0001
0100
0010
1000
0001
0100
0010
1000
0100
1000
0001
,
0100
0010
1000
0001
0010
0001
0100
0010
1000
0001
0100
0010
,
1000
0100
0010
0001
1000
0001
0100
0010
1000
0100
0010
0001
,
0100
0010
1000
0100
1000
0001
0100
0010
1000
0001
0010
0001
,
0100
0010
1000
0100
0010
0001
1000
0100
0010
0001
0100
0010
,
1000
0001
0100
0001
1000
0100
0010
0001
0100
0010
1000
0001
,
0100
0010
1000
0100
1000
0001
0100
0010
1000
0001
0010
0001
,
0100
0010
1000
0001
0100
0010
1000
0100
0010
0001
1000
0001
,
0100
0010
1000
0100
0010
0001
0100
0010
1000
0100
1000
0001
,
0100
0010
1000
0001
0010
0001
0100
0010
1000
0100
0010
0001
,
1000
0100
0010
0001
0100
0010
1000
0001
0100
0001
1000
0100
,
0010
0001
0100
0010
1000
0001
0100
0010
1000
0100
1000
0001
,
0100
0010
1000
0001
0010
0001
0100
0010
1000
0001
0100
0010
,
1000
0100
0010
0001
1000
0001
0100
0010
1000
0100
0010
0001
,
0100
0010
1000
0100
1000
0001
0100
0010
1000
0001
0010
0001
,
0100
0010
1000
0100
0010
0001
1000
0100
0010
0001
0100
0010
,
1000
0001
0100
0001
1000
0100
0010
0001
0100
0010
1000
0001
,
0100
0010
1000
0100
1000
0001
0100
0010
1000
0001
0010
0001
,
0100
0010
1000
0001
0100
0010
1000
0100
0010
0001
1000
0001
,
0100
0010
1000
0100
0010
0001
0100
0010
1000
0100
1000
0001
,
0100
0010
1000
0001
0010
0001
0100
0010
1000
0100
0010
0001
,
1000
0100
0010
0001
0100
0010
1000
0001
0100
0001
1000
0100
,
0010
0001
0100
0010
1000
0001
0100
0010
1000
0100
1000
0001
,
0100
0010
1000
0001
0010
0001
0100
0010
1000
0001
0100
0010
,
1000
0100
0010
0001
1000
0001
0100
0010
1000
0100
0010
0001
,
0100
0010
1000
0100
1000
0001
0100
0010
1000
0001
0010
0001
,
0100
0010
1000
0100
0010
0001
1000
0100
0010
0001
0100
0010
,
1000
0001
0100
0001
1000
0100
0010
0001
0100
0010
1000
0001
,
0100
0010
1000
0100
1000
0001
0100
0010
1000
0001
0010
0001
,
0100
0010
1000
0001
0100
0010
1000
0100
0010
0001
1000
0001
,
0100
0010
1000
0100
0010
0001
0100
0010
1000
0100
1000
0001
,
0100
0010
1000
0100
0010
0001
0100
0010
,
1000
0001
0100
0001
1000
0100
0010
0001
,
0100
0010
1000
0001
0010
0001
0100
0010
,
1000
0100
0010
0001
1000
0001
0100
0010
,
1000
0100
0010
0001
0100
0010
1000
0100
,
0010
0001
1000
0001
0100
0010
1000
0001
,
0010
0001
0100
0010
1000
0100
0010
0001
,
0100
0010
1000
0001
1000
0100
0010
0001
,
1001
0010
1000
0100
0010
0001
0100
0010
,
1000
0001
0100
0001
1000
0100
0010
0001
,
0100
0010
1000
0001
0010
0001
0100
0010
,
1000
0100
0010
0001
1000
0001
0100
0010
,
1000
0100
0010
0001
0100
0010
1000
0100
,
0010
0001
1000
0001
0100
0010
1000
0001
,
0010
0001
0100
0010
1000
0100
0010
0001
,
0100
0010
1000
0001
1000
0100
0010
0001
,
1000
0100
0010
0001
0100
0010
1000
0001
0100
0001
1000
0100
,
0010
0001
0100
0010
1000
0001
0100
0010
1000
0100
1000
0001
,
0100
0010
1000
0001
0010
0001
0100
0010
1000
0001
0100
0010
,
1000
0100
0010
0001
1000
0001
0100
0010
1000
0100
0010
0001
,
0100
0010
1000
0100
1000
0001
0100
0010
1000
0001
0010
0001
,
0100
0010
1000
0100
0010
0001
1000
0100
0010
0001
0100
0010
,
1000
0001
0100
0001
1000
0100
0010
0001
0100
0010
1000
0001
,
0100
0010
1000
0100
1000
0001
0100
0010
1000
0001
0010
0001
,
1000
0100
0010
0001
0100
0010
1000
0001
0100
0001
1000
0100
,
0010
0001
0100
0010
1000
0001
0100
0010
1000
0100
1000
0001
,
0100
0010
1000
0001
0010
0001
0100
0010
1000
0001
0100
0010
,
1000
0100
0010
0001
1000
0001
0100
0010
1000
0100
0010
0001
,
0100
0010
1000
0100
1000
0001
0100
0010
1000
0001
0010
0001
,
0100
0010
1000
0100
0010
0001
1000
0100
0010
0001
0100
0010
,
1000
0001
0100
0001
1000
0100
0010
0001
0100
0010
1000
0001
,
0100
0010
1000
0100
1000
0001
0100
0010
1000
0001
0010
0001
,
2000
3010
0100
0001
0010
0001
1000
0001
0200
0310
1000
0100
0010
0001
0100
0010
,
2000
3100
1000
0001
1000
0010
0100
0001
0020
0031
0100
0010
1000
0100
0010
0001
,
0200
0310
1000
0001
0010
0001
1000
0001
0200
0310
1000
0100
0010
0001
0010
0100
,
2000
3010
0100
0001
1000
0100
1000
0010
0200
0301
1000
0001
0100
0010
1000
0001
,
1002
0000
0000
1003
0000
0000
0010
0000
0000
0100
0000
0000
0001
0000
0000
0010
0000
0000
0100
0000
0000
1000
0000
0000
0001
0000
0000
0000
0100
0000
0000
0000
0010
0000
0000
0000
1000
0000
0000
0000
0100
0000
0000
0000
0010
0000
0000
0000
,
0001
0000
0000
0000
0100
0000
0000
0000
0010
0000
0000
0000
1000
0000
0000
0000
0001
0000
0000
0000
0100
0000
0000
0000
0010
0000
0000
1000
0000
0000
0100
0000
0000
0010
0000
0000
0001
0000
0000
0100
0000
0000
0010
0000
0000
1000
0000
0000
,
0001
0100
0010
1000
0100
1000
0001
0100
0010
1000
0100
0010
,
0001
0100
0010
1000
2MM1
3001
1000
0010
1010
0001
1000
0010
0101
0001
0100
0010
,
0100
0001
1000
0100
1000
0010
0100
0001
1000
0010
0100
0001
,
0010
0000
0000
0000
0001
0000
0000
0000
1000
0000
0000
0000
0010
0000
0000
0000
0100
0000
0000
0000
0001
0000
0000
0000
1000
0000
0000
0000
0100
0000
0000
0000
0010
0000
0000
0000
0M01
0000
0000
10M0
0000
0000
0M01
0000
0000
10M0
0000
0000
,
0M01
10M0
0M01
10M0
0M01
10M0
0M01
10M0
0M01
10M0
0M01
10M0
0M01
10M0
0M01
10M0
,
0M02
0000
2003
3200
0302
0000
0000
0203
,
2300
3020
0230
0302
2003
3002
0203
0320
,
2030
0000
3002
0203
0320
0000
0000
0230
,
2300
3002
0023
0230
2300
3002
0203
0320
,
1030
0100
0010
0001
0100
0010
1000
0001
0100
0001
1000
0100
,
0010
0001
0100
0010
1000
0001
0100
0010
1000
0100
1000
0001
,
0100
0010
1000
0001
0010
0001
0100
0010
1000
0001
0100
0010
,
1000
0100
0010
0001
1000
0001
0100
0010
1000
0100
0010
0001
,
0100
0010
1000
0100
1000
0001
0100
0010
1000
0001
0010
0001
,
0100
0010
1000
0100
0010
0001
1000
0100
0010
0001
0100
0010
,
1000
0001
0100
0001
1000
0100
0010
0001
0100
0010
1000
0001
,
0100
0010
1000
0100
1000
0001
0100
0010
1000
0001
0010
0001
,
0100
0010
1000
0001
0100
0010
1000
0100
0010
0001
0100
0010
,
1000
0001
0100
0001
1000
0100
0010
0001
0100
0010
1000
0001
,
0100
0010
1000
0100
1000
0001
0100
0010
1000
0001
0010
0001
,
0100
0010
1000
0001
0100
0010
1000
0100
0010
0001
1000
0001
,
0100
0010
1000
0100
0010
0001
0100
0010
1000
0100
1000
0001
,
0100
0010
1000
0001
0010
0001
0100
0010
1000
0100
0010
0001
,
1000
0100
0010
0001
0100
0010
1000
0001
0100
0001
1000
0100
,
0010
0001
0100
0010
1000
0001
0100
0010
1000
0100
1000
0001
,
0100
0010
1000
0001
0010
0001
0100
0010
1000
0001
0100
0010
,
1000
0100
0010
0001
0100
0001
1000
0010
0100
0001
1000
0010
,
2000
0000
3020
0230
0302
0000
0023
0230
,
2300
3002
MMM3
0000
MMMM
0000
MMMM
0000
,
MMMM
MMMM
MMMM
MMMM
,
0020
0000
2030
3002
0203
0000
0320
2030
,
3002
0000
2003
3200
0320
0000
0032
2003
,
3020
0000
0000
0000
0000
0000
0230
0000
0000
0302
0000
0000
0203
0000
0000
0000
0000
0000
0310
0000
1000
0000
0100
0000
,
0010
0001
0100
0001
1000
0010
0100
0001
1000
0100
1000
0001
,
0100
0010
1000
0001
0010
0001
0100
0010
0100
0001
1000
0100
,
0010
0001
1000
0010
0100
0010
1000
0001
0100
0010
1000
0010
,
0100
0000
0000
0000
0001
0000
0000
0000
1000
0000
0000
0000
0100
0000
0000
0000
0010
0000
0000
0000
0001
0000
0000
0000
1000
0000
0000
0001
0000
0000
1000
0000
0000
0001
0000
0000
4000
0000
0004
0000
0000
0000
0000
0000
0000
0000
0000
0000
,
3103
0010
1000
0001
0100
0001
1000
0010
0100
0001
1000
0100
,
0010
0001
1000
0010
0100
0001
0010
0001
1000
0010
0100
0001
,
1000
0100
0010
0001
0100
0010
1000
0001
,
0100
0001
1000
0100
0010
0001
0100
0010
,
1000
0001
0010
0001
0100
0010
1000
0100
,
0010
0001
1000
0001
0100
0010
1000
0100
,
0010
0001
0100
0010
1000
0100
0010
0001
,
1000
0001
0100
0010
1000
0001
0010
0001
,
0100
0010
1000
0100
0010
0001
0100
0010
,
1000
0001
1000
0100
0010
0001
0100
0010
,
2001
3001
0100
0001
1000
0100
0010
0001
,
0100
0010
1000
0001
0010
0001
0100
0010
,
1000
0100
0010
0001
1000
0001
0100
0010
,
1000
0100
0010
0001
0100
0010
1000
0100
,
0010
0001
1000
0001
0100
0010
1000
0001
,
0010
0001
0100
0010
1000
0100
0010
0001
,
0100
0010
1000
0001
1000
0100
0010
0001
,
0100
0010
1000
0001
0100
0001
1000
0100
,
2001
3001
0100
0010
1000
0001
0010
0001
,
0100
0010
1000
0100
0010
0001
1000
0001
,
0100
0010
1000
0100
0010
0001
0100
0010
,
1000
0100
0010
0001
1000
0001
0100
0010
,
1000
0001
0010
0001
0100
0010
1000
0100
,
0010
0001
0100
0010
1000
0001
1000
0100
,
0010
0001
0100
0010
1000
0001
0100
0001
,
1000
0100
0010
0001
0100
0010
1000
0001
,
1002
0013
0100
0010
1000
0100
0010
0001
,
1000
0001
0100
0010
1000
0100
0010
0001
,
0201
0310
1000
0100
0010
0001
1000
0001
,
0100
0010
1000
0001
0010
0001
0100
0010
,
1002
0103
0010
0001
0100
0010
1000
0001
,
2010
3100
0010
0001
0100
0010
1000
0001
,
2100
3000
0000
0210
0300
0000
0021
0030
,
2001
3010
1000
0100
0020
0031
1000
0010
,
1000
0100
0010
0001
0100
0010
1000
0001
0100
0001
1000
0100
,
0010
0001
0100
0010
1000
0001
0100
0010
1000
0100
1000
0001
,
0100
0010
1000
0001
0010
0001
0100
0010
1000
0001
0100
0010
,
1000
0100
0010
0001
1000
0001
0100
0010
1000
0100
0010
0001
,
0100
0010
1000
0100
1000
0001
0100
0010
1000
0001
0010
0001
,
0100
0010
1000
0100
0010
0001
1000
0100
0010
0001
0100
0010
,
1000
0001
0100
0001
1000
0100
0010
0001
0100
0010
1000
0001
,
0100
0010
1000
0100
1000
0001
0100
0010
1000
0001
0010
0001
,
0100
0010
1000
0001
0100
0010
1000
0100
0010
0001
1000
0001
,
0100
0010
1000
0100
0010
0001
0100
0010
1000
0100
1000
0001
,
0100
0010
1000
0001
0010
0001
0100
0010
1000
0100
0010
0001
,
1000
0100
0010
0001
0100
0010
1000
0001
0100
0001
1000
0100
,
0010
0001
0100
0010
1000
0001
0100
0010
1000
0100
1000
0001
,
0100
0010
1000
0001
0010
0001
0100
0010
1000
0001
0100
0010
,
1000
0100
0010
0001
1000
0001
0100
0010
1000
0100
0010
0001
,
0100
0010
1000
0100
1000
0001
0100
0010
1000
0001
0010
0001
,
0100
0010
1000
0100
0010
0001
1000
0100
0010
0001
0100
0010
,
1000
0001
0100
0001
1000
0100
0010
0001
0100
0010
1000
0001
,
0100
0010
1000
0100
1000
0001
0100
0010
1000
0001
0010
0001
,
0100
0010
1000
0001
0100
0010
1000
0100
0010
0001
1000
0001
,
0100
0010
1000
0100
0010
0001
0100
0010
1000
0100
1000
0001
,
0100
0010
1000
0001
0010
0001
0100
0010
1000
0100
0010
0001
,
1000
0100
0010
0001
0100
0010
1000
0001
0100
0001
1000
0100
,
0010
0001
0100
0010
1000
0001
0100
0010
1000
0100
1000
0001
,
0100
0010
1000
0001
0010
0001
0100
0010
1000
0001
0100
0010
,
1000
0100
0010
0001
1000
0001
0100
0010
1000
0100
0010
0001
,
0100
0010
1000
0100
1000
0001
0100
0010
1000
0001
0010
0001
,
0100
0010
1000
0100
0010
0001
1000
0100
0010
0001
0100
0010
,
1000
0001
0100
0001
1000
0100
0010
0001
0100
0010
1000
0001
,
0100
0010
1000
0100
1000
0001
0100
0010
1000
0001
0010
0001
,
0200
0310
1000
0001
0100
0020
1030
0100
0010
0002
0103
0010
,
1000
0001
0100
0001
1000
0100
0010
0001
0100
0010
1000
0001
,
0100
0010
1000
0100
1000
0001
0100
0010
1000
0001
0010
0001
,
0100
0010
1000
0001
0100
0010
1000
0100
0010
0001
1000
0001
,
0100
0010
1000
0100
0010
0001
0100
0010
1000
0100
1000
0001
,
0100
0010
1000
0001
0010
0001
0100
0010
1000
0100
0010
0001
,
1000
0100
0010
0001
0100
0010
1000
0001
0100
0001
1000
0100
,
0010
0001
0100
0010
1000
0001
0100
0010
1000
0100
1000
0001
,
0100
0010
1000
0001
0010
0001
0100
0010
1000
0001
0100
0010
,
1000
0100
0010
0001
1000
0001
0100
0010
1000
0100
0010
0001
,
0100
0010
1000
0100
1000
0001
0100
0010
1000
0001
0010
0001
,
0100
0010
1000
0100
0010
0001
1000
0100
0010
0001
0100
0010
,
1000
0001
0100
0001
1000
0100
0010
0001
0100
0010
1000
0001
,
0100
0010
1000
0100
1000
0001
0100
0010
1000
0001
0010
0001
,
0100
0010
1000
0001
0100
0010
1000
0100
0010
0001
1000
0001
,
0100
0010
1000
0100
0010
0001
0100
0010
1000
0100
1000
0001
,
0200
0310
1000
0001
0010
0002
0103
0010
1000
0200
0310
0001
,
1000
0100
0010
0001
0100
0010
1000
0001
0100
0001
1000
0100
,
0010
0001
0100
0010
1000
0001
0100
0010
1000
0100
1000
0001
,
0100
0010
1000
0001
0010
0001
0100
0010
1000
0001
0100
0010
,
1000
0100
0010
0001
1000
0001
0100
0010
1000
0100
0010
0001
,
0100
0010
1000
0100
1000
0001
0100
0010
1000
0001
0010
0001
,
0100
0010
1000
0100
0010
0001
1000
0100
0010
0001
0100
0010
,
1000
0001
0100
0001
1000
0100
0010
0001
0100
0010
1000
0001
,
0100
0010
1000
0100
1000
0001
0100
0010
1000
0001
0010
0001
,
0100
0010
1000
0001
0100
0010
1000
0100
0010
0001
1000
0001
,
0100
0010
1000
0100
0010
0001
0100
0010
1000
0100
1000
0001
,
0100
0010
1000
0001
0010
0001
0100
0010
1000
0100
0010
0001
,
1000
0100
0010
0001
0100
0010
1000
0001
0100
0001
1000
0100
,
0010
0001
0100
0010
1000
0001
0100
0010
1000
0100
1000
0001
,
0100
0010
1000
0001
0010
0001
0100
0010
1000
0001
0100
0010
,
1000
0100
0010
0001
0100
0010
1000
0001
0100
0001
1000
0010
,
2100
3000
0000
0210
0300
0000
0021
0030
,
2001
3010
1000
0100
0020
0031
1000
0010
,
1000
0100
0010
0001
1000
0001
0100
0010
1000
0100
0010
0001
,
0100
0010
1000
0100
1000
0001
0100
0010
1000
0001
0010
0001
,
0100
0010
1000
0100
0010
0001
1000
0100
0010
0001
0100
0010
,
1000
0001
0100
0001
1000
0100
0010
0001
0100
0010
1000
0001
,
0100
0010
1000
0100
1000
0001
0100
0010
1000
0001
0010
0001
,
0100
0010
1000
0001
0100
0010
1000
0100
0010
0001
1000
0001
,
0100
0010
1000
0100
0010
0001
0100
0010
1000
0100
1000
0001
,
0100
0010
1000
0001
0010
0001
0100
0010
1000
0100
0010
0001
,
1000
0100
0010
0001
0100
0010
1000
0001
0100
0001
1000
0100
,
0010
0001
0100
0010
1000
0001
0100
0010
1000
0100
1000
0001
,
0100
0010
1000
0001
0010
0001
0100
0010
1000
0001
0100
0010
,
1000
0100
0010
0001
1000
0001
0100
0010
1000
0100
0010
0001
,
0100
0010
1000
0100
1000
0001
0100
0010
1000
0001
0010
0001
,
0100
0010
1000
0100
0010
0001
1000
0100
0010
0001
0100
0010
,
2100
3000
0000
0210
0300
0000
0021
0030
,
2001
3010
1000
0100
2002
0000
0000
0000
,
3003
0000
0000
0000
;

//---------------dance-single - 25+ (owenviau1)----------------
#NOTES:
     dance-single:
     25+ (owenviau1):
     Challenge:
     25:
     1.000,1.000,1.000,0.601,1.000,3030.000,313.000,144.000,93.000,1.000:
2000
0000
0000
0000
0000
0000
3200
0000
0320
0000
0000
0032
0000
0000
2003
0000
,
3020
0000
0230
0000
0302
0000
2003
0000
3002
0000
0000
0023
0230
0000
0000
0000
,
2300
0000
0000
0000
0000
0000
3002
0000
0023
0000
0000
0032
0000
0000
2003
0000
,
3020
0000
0000
0000
0000
0000
0000
2030
,
3002
0000
0000
0000
0000
0000
2003
0000
3200
0000
0000
0302
0000
0000
2003
0000
,
3020
0000
0230
0000
0302
0000
2003
0000
3002
0000
0000
0203
0320
0000
2030
0000
,
3002
0000
0023
0000
0000
0000
0032
2003
3002
0000
0023
0000
0230
0000
2300
0000
,
3002
0000
0000
0203
0302
0000
0000
0000
0000
0000
0000
0000
0000
0000
0000
0000
,
1103
0000
0010
0000
0110
0000
0001
0000
1000
0010
0100
0000
1001
0000
0001
0000
,
1010
0000
0100
0000
1100
0000
0001
0000
1000
0010
1000
0000
0101
0000
0010
0000
,
1001
0000
0001
0000
1010
0000
0100
0000
0001
1000
0010
0000
0110
0000
0001
0000
,
1010
0000
0001
0000
0101
0000
0010
0000
1000
0100
0010
0000
0101
0000
1000
0000
,
0110
0000
0001
0000
1010
0000
0001
0000
1000
0010
0100
0000
1001
0000
0001
0000
,
0110
0000
0100
0000
1100
0000
0001
0000
1000
0010
1000
0000
0101
0000
0010
0000
,
1001
0000
0001
0000
1010
0000
0100
0000
0001
1000
0001
0000
0110
0000
1000
0000
,
1010
0000
0001
0000
0101
0000
0010
0000
1000
0100
0010
0000
0101
0000
1000
0000
,
0110
0000
0001
0000
0101
0000
1000
0000
0010
0100
0001
0000
1001
0000
0010
1000
,
0100
0000
1000
0000
0101
0000
0010
0000
1000
0001
0100
0000
1010
0000
0001
1000
,
0001
0000
0000
0000
0110
0000
0000
0000
1100
0000
0000
0000
0101
0000
0000
0000
1000
0000
0010
0000
0100
0000
0000
0000
0011
0000
0000
0000
1000
0000
0010
000M
,
0100
000M
1000
0000
1001
0000
0010
0000
0100
0001
0010
0000
1100
0000
0001
0000
,
1000
0100
0010
0001
1000
0010
0100
0001
0010
0001
1000
0001
0100
0010
1000
0001
,
0010
0001
1000
0100
0010
0001
0100
0010
1000
0001
0010
0001
1000
0001
0100
0010
,
1000
0100
0010
0001
0100
0010
1000
0100
1000
0010
0100
0001
0010
0001
1000
0001
,
0100
0010
1000
0010
0100
0001
0100
0010
1000
0100
0010
0001
0010
0100
1000
0010
,
1000
0100
0010
0001
0100
0001
1000
0100
1000
0001
0010
0001
1000
0010
1000
0001
,
0100
0001
1000
0010
0100
0001
1000
0100
0010
0001
0100
0010
1000
0001
0010
0001
,
1000
0001
0100
0010
1000
0100
0010
0001
0010
0100
1000
0010
0100
0001
1000
0100
,
1000
0001
1000
0001
0010
0001
0100
0010
1000
0001
1000
0010
1000
0001
0010
0001
,
0100
0001
1000
0010
1000
0100
0010
0001
0100
0010
1000
0001
0010
0100
1000
0010
,
0100
0001
1000
0001
0100
0010
1000
0100
0010
0001
0010
0100
1000
0001
0010
0001
,
0100
0001
1000
0010
1000
0100
1000
0001
1000
0010
0100
0001
1000
0100
0010
0001
,
1000
0001
0010
0100
1000
0010
1000
0001
0100
0010
1000
0100
0010
0001
0100
0001
,
1000
0010
1000
0100
1000
0001
1000
0010
0100
0001
0010
0100
1000
0100
0010
0001
,
1000
0010
1000
0001
1000
0100
1000
0010
0100
0001
0010
0001
1000
0001
0100
0001
,
1000
0010
0100
0001
1000
0100
0010
0001
0010
0100
1000
0010
0100
0001
1000
0100
,
0010
0001
0100
0001
1000
0010
0100
0001
0010
0100
1000
0001
0010
0001
0100
0010
,
200M
3100
0010
0001
1000
0010
0100
0001
0010
0001
1000
0001
0100
0010
1000
0001
,
0010
0001
1000
0100
0010
0001
0100
0010
1000
0001
0010
0001
1000
0001
0100
0010
,
1000
0100
0010
0001
0100
0010
1000
0100
1000
0010
0100
0001
0010
0001
1000
0001
,
0100
0010
1000
0010
0100
0001
0100
0010
1000
0100
0010
0001
0010
0100
1000
0010
,
1000
0100
0010
0001
0100
0001
1000
0100
1000
0001
0010
0001
1000
0010
1000
0001
,
0100
0001
1000
0010
0100
0001
1000
0100
0010
0001
0100
0010
1000
0001
0010
0001
,
1000
0001
0100
0010
1000
0100
0010
0001
0010
0100
1000
0010
0100
0001
1000
0100
,
1000
0001
1000
0001
0010
0001
0100
0010
1000
0001
1000
0010
1000
0001
0010
0001
,
02M0
0301
1000
0010
1000
0100
0010
0001
0100
0010
1000
0001
0010
0100
1000
0010
,
0100
0001
1000
0001
0100
0010
1000
0100
0010
0001
0010
0100
1000
0001
0010
0001
,
1000
0001
0100
0010
1000
0100
1000
0001
1000
0010
0100
0001
1000
0100
0010
0001
,
1000
0001
0010
0100
1000
0010
1000
0001
0100
0010
1000
0100
0010
0001
1000
0001
,
0100
0010
1000
0100
0010
0001
1000
0010
0100
0001
0010
0100
1000
0100
0010
0001
,
1000
0010
0100
0001
1000
0100
1000
0010
0100
0001
0010
0001
1000
0010
0100
0001
,
1000
0010
0100
0001
1000
0100
0010
0001
0010
0100
1000
0010
0100
0001
1000
0100
,
0010
0001
0100
0001
1000
0010
0100
0001
0010
0100
1000
0001
0010
0001
0100
0010
,
1000
0100
1001
0010
0110
0001
1100
0010
,
0101
0010
1001
0100
0110
0001
1100
1000
,
0011
0010
1100
0001
0110
0010
1001
0100
,
0011
1000
1100
0001
1010
0100
1001
0010
,
0110
0001
1100
0010
0101
0010
1001
1000
,
0110
0010
1001
0010
0101
0100
1010
0001
,
1100
1000
0011
0100
1100
0001
0110
1000
,
0101
0010
1001
0100
1010
0001
0110
1000
,
2MM1
3001
1100
0001
0110
1000
1001
0010
,
0101
0010
1001
0100
0110
0001
1100
1000
,
0011
0010
1100
0001
0110
0010
1001
0100
,
0011
1000
1100
0001
1010
0100
1001
0010
,
0110
0001
1100
0010
0101
0010
1001
1000
,
0110
0010
1001
0010
0101
0100
1010
0001
,
1100
1000
0011
0100
1100
0001
0110
1000
,
0101
0010
1001
0100
1010
0001
0110
1000
,
M201
0310
1100
0001
0110
1000
1001
0010
,
0101
0010
1001
0100
0110
0001
1100
1000
,
0011
0010
1100
0001
0110
0010
1001
0100
,
0011
1000
1100
0001
1010
0100
1001
0010
,
0110
0001
1100
0010
0101
0010
1001
1000
,
0110
0010
1001
0010
0101
0100
1010
0001
,
1100
1000
0011
0100
1100
0001
0110
1000
,
0101
0010
1001
0100
1010
0001
0110
0001
,
210M
3010
1010
0001
0110
1000
1001
0010
,
0101
0010
1001
0100
0110
0001
1100
1000
,
0011
0010
1100
0001
0110
0010
1001
0100
,
0011
1000
1100
0001
1010
0100
1001
0010
,
0110
0001
1100
0010
0101
0010
1001
1000
,
0110
0010
1001
0010
0101
0100
1010
0001
,
1100
1000
0011
0100
1100
0001
0110
1000
,
0101
0010
1001
0100
1010
0001
0110
1000
,
1002
0013
0100
0001
0010
0001
1000
0001
0200
0310
1000
0100
0010
0001
0100
0010
,
2000
3100
1000
0001
1000
0010
0100
0001
0020
0031
0100
0010
1000
0100
0010
0001
,
0200
0310
1000
0001
0010
0001
1000
0001
0200
0310
1000
0100
0010
0001
0010
0100
,
2000
3010
0100
0001
1000
0100
1000
0010
0200
0301
1000
0001
0100
0010
1000
0001
,
1002
1003
0010
0100
0001
0010
0100
1000
0001
1000
0001
0010
0100
1000
0001
1000
,
0010
1000
0100
0010
0001
0100
0001
1000
0002
0013
0100
1000
0001
1000
0010
0100
,
0001
0010
0001
1000
0001
1000
0100
1000
0001
0010
0100
1000
0100
0010
0001
1000
,
0001
0100
0010
1000
2MM1
3001
1000
0010
1010
0001
1000
0010
0101
0001
0100
0010
,
1000
0001
0010
0100
1000
0100
0010
0001
1000
0010
1000
0001
0100
0001
1000
0100
,
0010
0000
0000
0001
0000
0000
1000
0000
0000
0010
0000
0000
1000
0000
0000
0100
0000
0000
0010
0000
0000
0001
0000
0000
0100
0000
0000
0001
0000
0000
0010
0000
0000
0100
0000
0000
10M0
0000
0M01
0000
10M0
0000
0M01
0000
10M0
0000
0M01
0000
,
10M0
0M01
10M0
0M01
10M0
0M01
10M0
0M01
10M0
0M01
10M0
0M01
10M0
0M01
10M0
0M01
10M0
0M01
10M0
0M01
10M0
0M01
10M0
0M01
,
20M0
0000
3020
0230
0302
0000
0000
0203
,
2300
3020
0230
0302
2003
3002
0203
0320
,
2030
0000
3002
0203
0320
0000
0000
0230
,
2300
0000
3002
0000
0023
0130
1000
0100
0020
0031
1000
0010
0200
0301
0010
0100
,
2000
3100
0010
0001
1000
0010
0100
0001
1000
0100
1000
0010
0100
0001
0010
0001
,
1000
0010
0100
0001
1000
0010
0100
0001
1000
0100
0010
0001
0010
0100
1000
0010
,
0100
0001
1000
0100
0010
0001
0100
0001
1000
0010
0100
0001
0010
0100
1000
0001
,
0010
0001
0100
0010
1000
0001
1000
0100
0010
0001
1000
0010
0100
0001
0010
0100
,
1000
0100
0010
0001
1000
0010
0100
0001
1000
0100
1000
0010
0100
0001
0010
0001
,
1000
0010
0100
0001
1000
0010
0100
0001
1000
0100
0010
0001
0010
0100
1000
0010
,
0100
0001
1000
0100
0010
0001
0100
0001
1000
0010
0100
0001
0010
0100
1000
0001
,
0010
0001
0100
0001
1000
0010
1000
0100
0010
0001
1000
0010
0100
0001
0010
0100
,
1000
0100
0010
0001
1000
0010
0100
0001
1000
0100
1000
0010
0100
0001
0010
0001
,
1000
0010
0100
0001
1000
0010
0100
0001
1000
0100
0010
0001
0010
0100
1000
0010
,
0100
0001
1000
0100
0010
0001
0100
0001
1000
0010
0100
0001
0010
0100
1000
0001
,
0010
0001
0100
0010
1000
0001
1000
0100
0010
0001
1000
0010
0100
0001
0010
0100
,
1000
0100
0010
0001
1000
0010
0100
0001
1000
0100
1000
0010
0100
0001
0010
0001
,
1000
0010
0100
0001
1000
0010
0100
0001
1000
0100
0010
0001
0010
0100
1000
0010
,
0100
0001
1000
0100
0010
0001
0100
0001
1000
0010
0100
0001
0010
0100
1000
0001
,
0010
0001
0100
0010
1000
0001
0100
0001
0010
0100
1000
0010
0100
0001
1000
0100
,
1000
0010
1000
0100
0010
0001
0100
0001
0010
0001
1000
0001
0100
0010
1000
0100
,
0010
0001
0010
0100
1000
0010
0100
0001
1000
0010
0100
0001
0010
0100
1000
0001
,
2000
0000
3020
0230
0302
0000
0023
0230
,
2300
3002
MMM3
0000
MMMM
0000
MMMM
0000
,
MMMM
MMMM
MMMM
MMMM
,
0020
0000
2030
3002
0203
0000
0320
2030
,
3002
0000
2003
3200
0320
0000
0032
2003
,
3020
0000
0000
0000
0230
0000
0302
0000
0203
0000
0000
0000
0310
1000
0001
0100
,
0001
1000
0010
1000
0100
0010
0001
0100
0010
1000
0001
0010
0001
1000
0001
0100
,
0010
1000
0100
0010
0001
0010
0100
1000
0010
0100
0001
1000
0100
1000
0010
0100
,
0001
0010
0001
1000
0001
0100
0010
1000
0100
0010
0001
1000
0100
1000
0010
0100
,
0001
0000
0000
1000
0000
0000
0001
0000
0000
1000
0000
0000
0001
0000
0000
1000
0000
0000
0001
0000
0000
1000
0000
0000
0001
0000
0100
0000
0001
0000
0100
0000
0001
0000
0100
0000
0004
0000
0400
0000
0000
0000
0000
0000
0000
0000
0000
0000
,
0313
1000
0010
0100
0001
1000
0100
0010
0001
0010
0100
1000
0010
0100
0001
0010
,
0001
1000
0010
0100
0001
1000
0100
1000
0010
0100
0001
1000
0100
0010
0001
0100
,
0020
1030
1001
0010
0110
0001
1100
0010
,
0101
0010
1001
0100
0110
0001
1100
1000
,
0011
0010
1100
0001
0110
0010
1001
0100
,
0011
1000
1100
0001
1010
0100
1001
0010
,
0110
0001
1100
0010
0101
0010
1001
1000
,
0110
0010
1001
0010
0101
0100
1010
0001
,
1100
1000
0011
0100
1100
0001
0110
1000
,
0101
0010
1001
0100
1010
0001
0110
0100
,
2001
3010
1100
0001
0110
1000
1001
0010
,
0101
0010
1001
0100
0110
0001
1100
1000
,
0011
0010
1100
0001
0110
0010
1001
0100
,
0011
1000
1100
0001
1010
0100
1001
0010
,
0110
0001
1100
0010
0101
0010
1001
1000
,
0110
0010
1001
0010
0101
0100
1010
0001
,
1100
1000
0011
0100
1100
0001
0110
1000
,
0101
0010
1001
0100
1010
0001
0110
1000
,
M201
0310
1100
0001
0110
1000
1001
0010
,
0101
0010
1001
0100
0110
0001
1100
1000
,
0011
0010
1100
0001
0110
0010
1001
0100
,
0011
1000
1100
0001
1010
0100
1001
0010
,
0110
0001
1100
0010
0101
0010
1001
1000
,
0110
0010
1001
0010
0101
0100
1010
0001
,
1100
1000
0011
0100
1100
0001
0110
1000
,
0101
0010
1001
0100
1010
0001
0110
0001
,
210M
3010
1010
0001
0110
1000
1001
0010
,
0101
0010
1001
0100
0110
0001
1100
1000
,
0M12
0013
1100
0001
0110
0010
1001
0100
,
0011
1000
1100
0001
1010
0100
1001
0010
,
M210
0301
1100
0010
0101
0010
1001
1000
,
021M
0310
1001
0010
0101
0100
1010
0001
,
21M0
3000
0000
021M
0300
0000
M021
0030
,
2M01
3010
1100
0001
012M
1030
1001
0010
,
200M
3100
0010
0001
1000
0010
0100
0001
0010
0001
1000
0001
0100
0010
1000
0001
,
0010
0001
1000
0100
0010
0001
0100
0010
1000
0001
0010
0001
1000
0001
0100
0010
,
1000
0100
0010
0001
0100
0010
1000
0100
1000
0010
0100
0001
0010
0001
1000
0001
,
0100
0010
1000
0010
0100
0001
0100
0010
1000
0100
0010
0001
0010
0100
1000
0010
,
1000
0100
0010
0001
0100
0001
1000
0100
1000
0001
0010
0001
1000
0010
1000
0001
,
0100
0001
1000
0010
0100
0001
1000
0100
0010
0001
0100
0010
1000
0001
0010
0001
,
1000
0001
0100
0010
1000
0100
0010
0001
0010
0100
1000
0010
0100
0001
1000
0100
,
1000
0001
1000
0001
0010
0001
0100
0010
1000
0001
1000
0010
1000
0001
0010
0001
,
0200
0301
1000
0010
1000
0100
0010
0001
0100
0010
1000
0001
0010
0100
1000
0010
,
0100
0001
1000
0001
0100
0010
1000
0100
0010
0001
0010
0100
1000
0001
0010
0001
,
0100
0001
1000
0010
1000
0100
1000
0001
1000
0010
0100
0001
1000
0100
0010
0001
,
1000
0001
0010
0100
1000
0010
1000
0001
0100
0010
1000
0100
0010
0001
0100
0001
,
1000
0010
1000
0100
1000
0001
1000
0010
0100
0001
0010
0100
1000
0100
0010
0001
,
1000
0010
1000
0001
1000
0100
1000
0010
0100
0001
0010
0001
1000
0001
0100
0001
,
1000
0010
0100
0001
1000
0100
0010
0001
0010
0100
1000
0010
0100
0001
1000
0100
,
0010
0001
0100
0001
1000
0010
0100
0001
0010
0100
1000
0001
0010
0001
0100
0010
,
200M
3100
0010
0001
1000
0010
0100
0001
0010
0001
1000
0001
0100
0010
1000
0001
,
0010
0001
1000
0100
0010
0001
0100
0010
1000
0001
0010
0001
1000
0001
0100
0010
,
1000
0100
0010
0001
0100
0010
1000
0100
1000
0010
0100
0001
0010
0001
1000
0001
,
0100
0010
1000
0010
0100
0001
0100
0010
1000
0100
0010
0001
0010
0100
1000
0010
,
1000
0100
0010
0001
0100
0001
1000
0100
1000
0001
0010
0001
1000
0010
1000
0001
,
0100
0001
1000
0010
0100
0001
1000
0100
0010
0001
0100
0010
1000
0001
0010
0001
,
1000
0001
0100
0010
1000
0100
0010
0001
0010
0100
1000
0010
0100
0001
1000
0100
,
1000
0001
1000
0001
0010
0001
0100
0010
1000
0001
1000
0010
1000
0001
0010
0001
,
0200
0301
1000
0010
1000
0100
0010
0001
0100
0010
1000
0001
0010
0100
1000
0010
,
0100
0001
1000
0001
0100
0010
1000
0100
0010
0001
0010
0100
1000
0001
0010
0001
,
1000
0001
0100
0010
1000
0100
1000
0001
1000
0010
0100
0001
1000
0100
0010
0001
,
1000
0001
0010
0100
1000
0010
1000
0001
0100
0010
1000
0100
0010
0001
1000
0001
,
0100
0010
1000
0100
0010
0001
1000
0010
0100
0001
0010
0100
1000
0100
0010
0001
,
1000
0010
0100
0001
1000
0100
1000
0010
0100
0001
0010
0001
1000
0010
0100
0001
,
4000
0010
3100
0001
1000
0100
0010
0004
0010
0103
1000
0010
0400
0001
1300
0100
,
0010
0001
0100
0001
1000
0010
0100
0001
0020
0130
1000
0001
0020
0031
0100
0010
,
200M
3100
0010
0001
1000
0010
0100
0001
0010
0001
1000
0001
0100
0010
1000
0001
,
0010
0001
1000
0100
0010
0001
0100
0010
1000
0001
0010
0001
1000
0001
0100
0010
,
1000
0100
0010
0001
0100
0010
1000
0100
1000
0010
0100
0001
0010
0001
1000
0001
,
0100
0010
1000
0010
0100
0001
0100
0010
1000
0100
0010
0001
0010
0100
1000
0010
,
1000
0100
0010
0001
0100
0001
1000
0100
1000
0001
0010
0001
1000
0010
1000
0001
,
0100
0001
1000
0010
0100
0001
1000
0100
0010
0001
0100
0010
1000
0001
0010
0001
,
1000
0001
0100
0010
1000
0100
0010
0001
0010
0100
1000
0010
0100
0001
1000
0100
,
1000
0001
0100
0001
1000
0001
0100
0010
1000
0001
0100
0010
1000
0001
0010
0001
,
0200
0301
1000
0010
1000
0100
0010
0001
0100
0010
1000
0001
0010
0100
1000
0010
,
0100
0001
1000
0001
0100
0010
1000
0100
0010
0001
0010
0100
1000
0001
0010
0001
,
0100
0001
1000
0010
1000
0100
0010
0001
1000
0010
0100
0001
1000
0100
0010
0001
,
1000
0001
0010
0100
1000
0010
1000
0001
0100
0010
1000
0100
0010
0001
0100
0001
,
0010
0100
1000
0010
0100
0001
1000
0010
0100
0001
0010
0100
1000
0100
0010
0001
,
0100
0010
1000
0001
1000
0100
1000
0010
0100
0001
0010
0001
1000
0010
0100
0001
,
4000
0010
3100
0001
1000
0100
0010
0004
1000
0103
1000
0010
0400
0001
1300
0100
,
0010
0001
0100
0001
1000
0010
0100
0001
2000
3010
1000
0001
0200
0301
0010
0100
,
200M
3100
0010
0001
1000
0010
0100
0001
0010
0001
1000
0001
0100
0010
1000
0001
,
0010
0001
1000
0100
0010
0001
0100
0010
1000
0001
0010
0001
1000
0001
0100
0010
,
1000
0100
0010
0001
0100
0010
1000
0100
1000
0010
0100
0001
0010
0001
1000
0001
,
0100
0010
1000
0010
0100
0001
0100
0010
1000
0100
0010
0001
0010
0100
1000
0010
,
1000
0100
0010
0001
0100
0001
1000
0100
1000
0001
0010
0001
1000
0010
1000
0001
,
0100
0001
1000
0010
0100
0001
1000
0100
0010
0001
0100
0010
1000
0001
0100
0010
,
1000
0001
0100
0010
1000
0100
0010
0001
0010
0100
1000
0010
0100
0001
0010
0100
,
1000
0001
1000
0001
0010
0001
0100
0010
1000
0001
0100
0010
1000
0001
0010
0001
,
0200
0301
1000
0010
1000
0100
0010
0001
0100
0010
1000
0001
0010
0100
1000
0010
,
0100
0001
1000
0001
0100
0010
1000
0100
0010
0001
0010
0100
1000
0001
0010
0001
,
1000
0001
0100
0010
1000
0100
1000
0001
1000
0010
0100
0001
1000
0100
0010
0001
,
1000
0001
0010
0100
1000
0010
1000
0001
0100
0010
1000
0100
0010
0001
1000
0001
,
0100
0010
1000
0100
1000
0001
0100
0010
1000
0100
0010
0001
0100
0010
1000
0001
,
0010
0001
1000
0001
0100
0010
1000
0100
0010
0001
0100
0010
1000
0100
1000
0001
,
21M0
3000
0000
021M
0300
0000
M021
0030
,
2M01
3010
1100
0001
012M
1030
1001
0010
,
200M
3100
0010
0001
1000
0010
0100
0001
0010
0001
1000
0001
0100
0010
1000
0001
,
0010
0001
1000
0100
0010
0001
0100
0010
1000
0001
0010
0001
1000
0001
0100
0010
,
1000
0100
0010
0001
0100
0010
1000
0100
1000
0010
0100
0001
0010
0001
1000
0001
,
0100
0010
1000
0010
0100
0001
0100
0010
1000
0100
0010
0001
0010
0100
1000
0010
,
1000
0100
0010
0001
0100
0001
1000
0100
1000
0001
0010
0001
1000
0010
1000
0001
,
0100
0001
1000
0010
0100
0001
1000
0100
0010
0001
0100
0010
1000
0001
0010
0001
,
1000
0001
0100
0010
1000
0100
0010
0001
0010
0100
1000
0010
0100
0001
1000
0100
,
1000
0001
1000
0001
0010
0001
0100
0010
1000
0001
1000
0010
1000
0001
0010
0001
,
0200
0301
1000
0010
1000
0100
0010
0001
0100
0010
1000
0001
0010
0100
1000
0010
,
0100
0001
1000
0001
0100
0010
1000
0100
0010
0001
0010
0100
1000
0001
0010
0001
,
0100
0001
1000
0010
1000
0100
1000
0001
1000
0010
0100
0001
1000
0100
0010
0001
,
1000
0001
0010
0100
1000
0010
1000
0001
0100
0010
1000
0100
0010
0001
0100
0001
,
1000
0010
1000
0100
1000
0001
1000
0010
0100
0001
0010
0100
1000
0100
0010
0001
,
1000
0010
1000
0001
1000
0100
1000
0010
0100
0001
0010
0001
1000
0001
0100
0001
,
20M1
3000
0000
120M
0300
0000
M021
0030
,
2M01
3010
1100
0001
M220
0000
0000
0000
,
0330
0000
0000
0000
,
0000
0000
0000
0000
;
