#TITLE:Azul;
#SUBTITLE:(remix);
#ARTIST:mezCIA;
#TITLETRANSLIT:;
#SUBTITLETRANSLIT:;
#ARTISTTRANSLIT:;
#CREDIT:;
#BANNER:;
#BACKGROUND:;
#LYRICSPATH:;
#CDTITLE:;
#MUSIC:azul.ogg;
#OFFSET:0.900;
#SAMPLESTART:27.840;
#SAMPLELENGTH:15.000;
#SELECTABLE:YES;
#BPMS:0.000=195.020;
#STOPS:;
#BGCHANGES:;
// cache tags:
#FIRSTBEAT:19.750;
#LASTBEAT:417.000;
#SONGFILENAME:Songs/SSSC Pack 2/Azul - [Mad Matt]/azul.sm;
#HASMUSIC:1;
#HASBANNER:0;
#MUSICLENGTH:129.828;
// end cache tags

//---------------dance-single - Mad Matt----------------
#NOTES:
     dance-single:
     Mad Matt:
     Challenge:
     14:
     1.000,1.000,0.216,0.462,1.000,1029.000,28.000,60.000,0.000,0.000:

0000
0000
0000
0000
,
0000
0000
0000
0000
,
0000
0000
0000
0000
,
0000
0000
0000
0000
,
0000
0000
0000
0000
0000
0000
0000
0000
0000
0000
0000
0000
0000
0000
0000
0000
0000
0000
0000
0000
0000
0000
0000
0000
0000
0000
0000
0000
0000
0000
1000
0100
,
1000
0001
0010
0001
0100
0001
1000
0100
,
1000
0001
0100
0000
0001
0000
1000
0000
0001
1000
0100
0000
1000
0000
0010
0000
,
0100
0000
0000
0001
0001
0000
0000
0000
,
0110
0000
0000
0000
1001
0000
0000
0000
1000
0100
0010
0001
0010
0100
0010
0001
,
1000
0010
1000
0001
0100
0000
0000
0000
0000
0000
0000
0000
0000
0000
0001
0000
,
1000
0100
0010
0000
0001
0000
1000
0000
0001
0010
0100
0000
1000
0000
0100
0000
,
0100
0000
0000
0000
0000
0000
0000
0000
0000
1000
0100
0010
0001
0000
0000
0000
0000
0000
0000
0000
0000
1000
0000
0000
,
1000
0000
0000
0000
0010
0000
0000
0000
1000
0000
0000
0000
0100
0000
0000
0000
0010
0000
0000
0000
0000
0000
0000
0000
0000
0000
0000
0000
0000
0000
0001
0100
,
0001
1000
0001
0010
0001
1000
0100
1000
,
0001
1000
0010
0000
0100
0000
0001
0000
1000
0001
0010
0000
0100
0000
1000
0000
,
0010
0000
0000
0100
0100
0000
0000
0000
,
1010
0000
0000
0000
0101
0000
0000
0000
0001
1000
0100
0010
0100
1000
0100
0010
,
0001
0000
0000
0000
0000
0000
0000
0000
0000
0000
0000
0000
0000
0000
0000
0000
1000
0010
0000
0000
0000
0000
0000
0000
0000
0000
0000
0000
0000
0000
0000
0000
,
0000
0000
0000
0000
0000
0000
0000
1010
,
1001
1000
0010
1000
0100
0010
0001
0010
,
0100
1000
0001
1000
0010
1000
0100
1000
,
0010
1000
0001
1000
0010
0100
0001
1000
,
0100
0010
0001
0010
0100
1000
0001
0100
,
0101
0001
1000
0010
0100
0010
1000
0001
,
1000
0010
0100
0010
0100
0001
1000
0100
,
1100
1000
0001
0100
0001
1000
0010
0100
,
0101
0000
0001
0000
0100
0000
0101
0000
0001
0000
1000
0000
0010
0000
1000
0100
,
0010
0001
1000
0100
0010
0100
1000
0001
1000
0010
0100
0010
0100
0001
1000
0100
,
0010
0001
1000
0100
0010
0001
1000
0010
0100
0001
1000
0100
1000
0001
0010
0100
,
1000
0000
1001
1000
0001
0100
0010
1000
,
1010
0010
0100
0001
1000
0100
1000
0001
,
1000
0100
0010
0001
1000
0000
0000
0000
1000
0100
0010
0001
1000
0000
0000
0000
,
1000
0100
0010
0001
1000
0001
0010
0100
1000
0001
0100
0010
0100
0010
1000
0001
,
0010
0000
0000
0011
1001
0000
0001
0000
,
1100
0000
1000
0000
0001
0000
0100
0000
0010
0000
0100
0000
0001
0000
0010
0100
,
2000
3020
0230
0302
2003
3200
0320
0032
,
0023
0230
2300
3002
0203
0320
0230
0302
,
2003
3200
0320
0032
0023
0230
2300
3002
,
0203
0000
0000
0000
0000
0000
0000
0000
0302
0000
0000
0000
0000
0000
0000
0000
0023
0000
0000
0000
0000
0000
0000
0000
0032
0000
0000
0000
0000
0000
0000
0000
2003
0000
0000
0000
0000
0000
0000
0000
3002
0000
0000
0000
0000
0000
0000
0000
0023
0000
0000
0000
0000
0000
0000
0000
0230
0000
0000
0000
0000
0000
0000
0300
,
1100
0000
1000
0000
0001
0000
0100
0010
0100
0000
0001
0000
1000
0000
0100
0010
,
0100
0000
1000
0000
0001
0000
0100
0010
1000
0000
0010
0000
0100
0000
0001
0010
,
0100
0000
1000
0000
0100
0000
0010
0001
0100
0000
0010
0000
1000
0000
0010
1000
,
0200
0300
0000
0000
0020
0030
0000
0000
0200
0300
0000
0000
2000
3000
0000
0000
0020
0030
0000
0000
0100
0000
0001
0000
0100
0000
0001
0000
0010
0000
0000
0000
,
0100
1000
0001
0000
0100
0000
0001
0000
1000
0001
0010
0000
0100
0000
1000
0000
,
0001
0100
0010
0000
0100
0000
0001
0000
1000
0100
0010
0000
0100
0000
1000
0000
,
0001
0100
0001
0000
0010
0000
0100
0000
1000
0010
1000
0000
0001
0000
0100
0000
,
0010
0100
0001
0000
1000
0000
0100
0000
0010
0001
1000
0100
1000
0001
0100
0010
,
0100
0001
1000
0001
0010
0001
0100
0001
1000
0010
1000
0001
1000
0100
1000
0001
,
0010
0100
1000
0001
0010
0100
1000
0001
0100
0010
1000
0001
0100
0001
0010
0100
,
2000
3000
1010
0010
0100
0001
1000
0100
,
0110
0010
0001
1000
0010
0100
0001
1000
,
0001
0100
0010
1000
0001
0000
0000
0000
0001
0100
0010
1000
0001
0000
0000
0000
,
0001
0100
0010
1000
0001
1000
0010
0100
0001
1000
0100
0010
0001
0010
0100
1000
,
0010
0000
0000
0110
0101
0000
1000
0100
,
0110
0000
0010
0000
0001
0000
1000
0000
0010
0000
1000
0000
0001
0000
0010
0100
,
1000
0001
0100
0010
0100
0001
0100
0010
0100
0001
0100
0010
1000
0010
0100
0001
,
1000
0100
0010
0001
0010
0100
0010
0001
0010
0100
0010
0001
0010
0100
1000
0100
,
0010
0001
1000
0010
0100
0010
1000
0100
0010
0100
1000
0001
1000
0010
0100
0001
,
1000
0000
0100
1000
0001
0000
0100
0001
1000
0000
0100
1000
0001
0100
0010
1000
,
0001
0000
1000
0001
0010
0000
0001
1000
0010
0000
1000
0001
0010
0000
0100
1000
,
0001
0000
0100
0010
1000
0000
0010
0100
0001
0000
1000
0100
0010
0000
0001
0010
,
0100
1000
1000
0000
0010
0010
0000
0100
0100
0000
0001
0001
,
0000
0010
0010
0000
0100
0100
0000
1000
1000
0000
0010
0010
,
0100
0000
0001
0000
1000
0000
0010
0100
0010
0000
1000
0000
0100
0000
0010
0001
,
0010
0100
1000
0100
0010
0001
1000
0010
1000
0001
0100
0010
1000
0000
0001
0010
,
0100
1000
0100
0010
0100
1000
0001
0100
0010
0000
1000
0100
0010
0000
0100
1000
,
0001
0010
0100
1000
0100
0010
0001
1000
0010
1000
0010
0100
0010
1000
0001
0010
,
0100
0010
0001
1000
0010
1000
0001
0010
0001
1000
0010
0100
0010
1000
0001
0100
,
0001
0100
0001
0010
0001
1000
0001
0010
0100
0010
0001
1000
0010
0000
0100
0001
,
2000
3200
0000
0320
0000
0230
0000
2300
,
3100
0010
0001
0010
0100
1000
0001
0100
0001
1000
0001
0010
0100
1000
0001
0100
,
0010
0000
1000
0000
0100
0000
0010
0001
0010
0000
0100
0000
1000
0000
0001
0100
,
0001
0000
1000
0000
0100
0000
0010
0001
1000
0000
0010
0000
0100
0000
0001
1000
,
0100
0000
0010
0000
0100
0000
1000
0001
0100
0000
0010
0000
1000
0000
0001
0010
,
0200
0300
0000
0000
0020
0030
0000
0000
0002
0003
0000
0000
2000
3000
0000
0000
0200
0300
0000
0000
0010
0000
0001
0000
0010
0000
0001
0000
0100
0000
0000
0000
,
0010
1000
0001
0000
0010
0000
0100
0000
1000
0100
1000
0000
0001
0000
0100
0000
,
0010
1000
0010
0000
0100
0000
0001
0000
1000
0100
0010
0000
0100
0000
1000
0000
,
0001
0100
0010
0000
1000
0000
0100
0000
0010
0001
0010
0000
0100
0000
1000
0000
,
0001
0100
0010
0000
1000
0000
0001
0000
0010
0100
1000
0100
0010
0001
1000
0001
,
0100
0000
0001
0000
1000
0000
0100
0010
0001
0000
1000
0000
0010
0000
0100
0010
,
1000
0000
0001
0000
0010
0000
0100
1000
0100
0000
0010
0000
0001
0000
1000
0010
,
0100
0000
0010
0000
1000
0000
0001
0010
0001
0000
1000
0000
0010
0000
0100
0001
,
2000
3000
0000
0000
0200
0300
0000
0000
0020
0030
0000
0000
0002
0003
0000
0000
0020
0030
0000
0000
0100
0000
1000
0000
0100
0000
1000
0000
0010
0000
0000
0000
,
0100
0001
0100
0000
0010
0000
0000
0000
1000
0100
1000
0000
0001
0000
0000
0000
,
0010
0100
0010
0000
0001
0000
0000
0000
1000
0010
1000
0000
0001
0000
0000
0000
,
1100
1001
0011
0101
,
0110
0000
0000
0010
0000
0000
1010
0000
0000
1000
0000
0000
0001
1000
0001
1000
0001
1000
0001
1000
0001
1000
0001
1000
,
0001
0010
0100
1000
0001
0010
0001
0100
0001
1000
0001
0010
0001
0100
0010
1000
,
0100
0010
0001
1000
0010
1000
0001
1000
0100
1000
0010
1000
0100
0010
0001
1000
,
0010
0100
0010
1000
0010
0100
0001
0100
0010
1000
0001
0010
0100
0010
0001
1000
,
0100
0000
0010
0100
1000
0000
0001
0100
0010
0000
0100
0001
1000
0100
0010
0001
,
1000
0000
0010
1000
0001
0000
0100
0001
1000
0000
0100
1000
0001
0000
0010
0100
,
1000
0000
0001
1000
0010
0000
0100
0010
1000
0000
0001
1000
0100
0000
0010
0100
,
1000
0001
0001
0000
1000
1000
0000
0010
0010
0000
0100
0100
,
0000
0001
0001
0000
1000
1000
0000
0100
0100
0000
0010
0010
,
0001
0000
1000
0000
0001
0000
1000
0100
0010
0000
0001
0000
1000
0000
0010
0100
,
0010
1000
0001
1000
0100
1000
0001
0010
0100
1000
0100
0010
0001
0000
1000
0100
,
1000
0001
0100
0010
1000
0010
1000
0001
0100
0000
0010
1000
0100
0000
0010
0100
,
1000
0001
0100
0010
1000
0010
0100
0010
0100
0001
1000
0100
0010
0100
1000
0100
,
0010
0001
1000
0001
0100
0001
1000
0100
0010
0100
1000
0001
0010
0001
1000
0010
,
1000
0010
0100
0001
1000
0001
0100
0001
1000
0100
0010
0001
0010
0000
0100
1000
,
0002
0203
0000
0320
0000
0230
0000
0302
,
1003
0100
1000
0001
0010
0100
1000
0001
0100
0001
1000
0001
0010
0100
0010
0001
,
1000
2002
0000
0000
,
0000
3003
0000
0000
;
