#TITLE:Up N Down!(02 Rhythm Mix);
#SUBTITLE:;
#ARTIST:Dr. Flowershirts;
#TITLETRANSLIT:;
#SUBTITLETRANSLIT:;
#ARTISTTRANSLIT:;
#CREDIT:;
#BANNER:UpDown-bn.png;
#BACKGROUND:Updown-bg.png;
#LYRICSPATH:;
#CDTITLE:!tank101title.png;
#MUSIC:Up N Down!(O2 Rhythm Mix).mp3;
#OFFSET:-0.027;
#SAMPLESTART:42.108;
#SAMPLELENGTH:12.000;
#SELECTABLE:YES;
#BPMS:0.000=145.000;
#STOPS:;
#BGCHANGES:;
// cache tags:
#FIRSTBEAT:0.000;
#LASTBEAT:209.000;
#SONGFILENAME:Songs/Fresh Flock of Fantastic Files F4/(Tank 101) Up N Down/UND.sm;
#HASMUSIC:1;
#HASBANNER:1;
#MUSICLENGTH:88.790;
// end cache tags

//---------------dance-single - ----------------
#NOTES:
     dance-single:
     :
     Hard:
     10:
     1.000,0.971,1.000,0.237,1.000,568.000,98.000,21.000,0.000,0.000:  // measure 1
1001
0010
0100
1000
0001
0000
0000
0000
1001
0100
0010
0001
1000
0000
0000
0000
,  // measure 2
1001
0000
0001
0010
0100
0000
0010
0100
1000
0000
0000
0000
1001
0000
0000
0000
,  // measure 3
1001
0010
0100
0001
1000
0000
0000
0000
1001
0100
0010
1000
0001
0000
0000
0000
,  // measure 4
1001
0000
0010
0100
1000
0100
0010
0100
1001
0000
0000
0000
0010
0010
0010
0010
,  // measure 5
1002
0000
1003
0101
1001
1010
1001
0110
,  // measure 6
2001
0000
0000
0000
3001
0000
0010
0100
1000
0010
1000
0000
0001
0000
1000
0000
,  // measure 7
0002
0000
1003
0011
0101
0110
0120
1030
,  // measure 8
0011
0100
1000
0100
1000
0100
1000
0100
1000
0100
1000
0100
1000
0100
1000
0100
,  // measure 9
1002
0000
0000
1003
0000
0000
0110
0000
1001
0000
0110
0000
1001
0000
0110
0000
,  // measure 10
2001
0000
0000
3001
0000
0000
0001
0000
0100
0001
0010
0000
1000
0000
0001
0000
,  // measure 11
1020
0000
0000
1030
0000
0000
1010
0000
0011
0000
0101
0000
1100
0000
0110
0000
,  // measure 12
1002
0000
0000
1003
0000
0000
0110
0000
1001
0000
0101
0000
0101
0000
1010
0000
,  // measure 13
2100
0000
0000
3001
0000
0000
1100
0000
1010
0000
0011
0000
0101
0000
1100
0000
,  // measure 14
0021
0000
0000
1030
0000
0000
0101
0000
1001
0000
1001
0000
0110
0000
1100
0000
,  // measure 15
1020
0000
0000
1030
0000
0000
1001
0000
0110
0000
1001
0000
0110
0000
1001
0000
,  // measure 16
1100
0010
0001
0010
0001
0010
0001
0010
0001
0010
0001
0010
0001
0010
0001
0010
,  // measure 17
0100
1000
0100
1000
0000
0100
1000
0000
0001
0010
0001
0000
0010
0100
0010
0000
,  // measure 18
1000
0010
1000
0010
1000
0010
1000
0000
0010
0100
1000
0000
0100
0000
0100
0000
,  // measure 19
1001
0010
0001
0010
0100
1000
0100
0000
0001
1000
0001
0000
1000
0001
1000
0000
,  // measure 20
0010
1000
0010
0100
0010
1000
0010
0000
1001
0000
0010
0000
1001
0000
0100
0000
,  // measure 21
1001
0010
1000
0010
0000
1000
0010
0000
0001
0100
0001
0000
0010
1000
0010
0000
,  // measure 22
0100
1000
0100
1000
0000
0100
0010
0000
0001
0000
0001
0000
0010
1000
0010
0000
,  // measure 23
0100
0001
0100
0001
0000
0001
0100
0000
1000
0001
1000
0000
0001
1000
0001
0000
,  // measure 24
0001
1000
0001
1000
0001
1000
0001
1000
0001
1000
0001
1000
0001
1000
0001
1000
,  // measure 25
0001
0010
0001
0100
0001
0010
0100
1000
0010
1000
0001
0100
0010
1000
0010
1000
,  // measure 26
0100
0010
0001
1000
0100
0010
0001
1000
0100
0010
0001
1000
0100
0010
0001
1000
,  // measure 27
0001
1000
0010
0100
0001
1000
0100
0010
0001
0010
0100
1000
0010
1000
0010
0100
,  // measure 28
0001
1000
0010
0100
0001
1000
0010
0100
0001
1000
0010
0100
0001
1000
0010
0100
,  // measure 29
0001
1000
0010
1000
0100
0000
0001
0000
0010
1000
0010
0100
0001
0000
1000
0000
,  // measure 30
0001
0010
0100
1000
0001
0000
1000
0000
0100
0010
0001
0010
0100
0000
0010
0000
,  // measure 31
1000
0010
0100
0001
0010
0000
0010
0000
0001
1000
0001
0100
0010
0000
1000
0000
,  // measure 32
0011
0100
1000
0100
1000
0100
1000
0100
1000
0100
1000
0100
1000
0100
1000
0100
,  // measure 33
1002
0000
0000
1003
0000
0000
1010
0000
1001
0000
0011
0000
0101
0000
0110
0000
,  // measure 34
2001
0000
0000
3001
0000
0000
0101
0000
1010
0000
0101
0000
0011
0000
1001
0000
,  // measure 35
1002
0010
0103
1000
2001
0010
3001
0010
,  // measure 36
1001
0000
0000
0000
0010
0000
0000
0000
1001
0000
0000
0000
0010
0000
0000
0000
1001
0000
0000
0101
0000
0000
1010
0000
0000
2002
0000
0000
3003
0000
0000
0000
,  // measure 37
1010
0010
0100
1000
1001
0100
0010
0001
,  // measure 38
1001
0000
0100
0000
1001
0000
0000
0000
0010
0000
0100
0000
0001
0010
0001
0000
,  // measure 39
0010
1000
0010
0000
0100
1000
0100
0000
0010
0000
0100
0000
1000
0010
0100
0000
,  // measure 40
0010
0100
0001
0000
0001
0010
0100
0000
0010
0100
1000
0000
0020
0000
0000
0000
,  // measure 41
2030
0000
0000
3001
0010
0000
0100
0000
1000
0010
1000
0000
0001
0100
0001
0000
,  // measure 42
1001
0000
0000
0000
0010
1000
0010
0000
0001
0000
0100
0000
1000
0010
0100
0000
,  // measure 43
1000
0010
1000
0000
0001
0010
0001
0000
0100
1000
0100
0000
0100
1000
0100
0000
,  // measure 44
1010
0101
1010
0101
1010
0101
1010
0101
,  // measure 45
1001
0010
0100
1000
0000
0100
1000
0000
0001
1000
0001
0000
0001
0100
0001
0000
,  // measure 46
0010
1000
0010
1000
0010
1000
0010
0000
0001
0010
0001
0000
0010
0000
0100
0000
,  // measure 47
1000
0100
1000
0100
0000
0100
0010
0000
1000
0010
1000
0000
0010
0100
0001
0000
,  // measure 48
0001
1000
0001
1000
0000
1000
0001
0000
0010
0000
0100
0000
1000
0100
1000
0000
,  // measure 49
0001
1000
0010
0100
0000
0100
0001
0000
0100
1000
0100
0000
0010
1000
0010
0000
,  // measure 50
1000
0100
0010
0100
1000
0100
0010
0000
0001
0000
0001
0000
0010
1000
0010
0000
,  // measure 51
0100
0001
0100
0001
0000
1000
0010
0000
0100
0010
0001
0000
0001
0010
0100
0000
,  // measure 52
1000
0001
1000
0001
1000
0001
1000
0001
1000
0001
1000
0001
1000
0001
1000
0001
,  // measure 53
0220
0000
0330
1000
0001
0000
0000
0000
0000
0000
0000
0000
0000
0000
0000
0000
;
