#TITLE:Through the Fire and Flames;
#SUBTITLE:;
#ARTIST:Dragonforce;
#TITLETRANSLIT:;
#SUBTITLETRANSLIT:;
#ARTISTTRANSLIT:;
#CREDIT:;
#BANNER:;
#BACKGROUND:;
#LYRICSPATH:;
#CDTITLE:!joytoy-cdtitle.png;
#MUSIC:Through the Fire and Flames.mp3;
#OFFSET:-1.143;
#SAMPLESTART:31.143;
#SAMPLELENGTH:12.000;
#SELECTABLE:YES;
#BPMS:0.000=200.000;
#STOPS:;
#BGCHANGES:;
// cache tags:
#FIRSTBEAT:0.000;
#LASTBEAT:729.000;
#SONGFILENAME:Songs/toune 2/Through the Fire and Flames 2/steps.sm;
#HASMUSIC:1;
#HASBANNER:0;
#MUSICLENGTH:221.604;
// end cache tags

//---------------dance-single - ----------------
#NOTES:
     dance-single:
     :
     Hard:
     12:
     1.000,1.000,1.000,0.275,1.000,2031.000,413.000,61.000,0.000,15.000:

1001
0100
0010
0100
0001
0010
0100
1000
,
0001
0000
0000
0000
1000
0000
0000
0000
0100
0000
0000
0000
0010
0000
0000
0000
1000
0000
0000
0000
0100
0000
0000
0000
0001
0010
0100
1000
0001
0010
0100
1000
,
0011
0100
0010
0001
1000
0010
0100
0001
,
1000
0100
0010
0001
0010
0100
0010
0001
,
2000
0010
0001
0010
0001
0100
0010
0001
,
0100
0010
0001
0010
0001
0010
0100
0010
,
3101
0010
0100
1000
0010
0100
1000
0001
,
0200
1000
0001
0010
1000
0010
0001
1000
,
0311
1000
0100
0010
0100
0010
0001
0010
,
0100
0000
0000
0000
0010
0000
0000
0000
0100
0000
0000
0000
1000
0000
0000
0000
0001
0000
0000
0000
1000
0000
0000
0000
0001
0010
0100
1000
0001
0010
0100
1000
,
0011
0100
1000
0010
0001
0100
0010
1000
,
0001
0100
0010
0001
1000
0100
0010
0001
,
0002
1000
0100
0010
0100
1000
0100
0010
,
1000
0100
0010
0100
1000
0100
1000
0010
,
1103
0010
0001
1000
0100
0010
0001
1000
,
1100
0010
0001
1000
0110
1000
0100
0010
0101
0010
0001
0010
0100
1000
0010
0001
,
1000
0010
1000
0010
1000
0000
0100
0001
1000
0100
0010
0000
0001
0010
0100
0000
,
1000
0010
0100
1000
0100
0000
1000
0100
0010
0100
1000
0000
0001
0100
0001
0000
,
0010
1000
0010
0100
0010
0000
0001
0100
0001
1000
0001
0000
0010
0100
0010
0000
,
1000
0010
1000
0010
1000
0000
0001
0010
0001
0010
0100
0000
0001
0010
0100
0000
,
0010
0100
1000
0100
0010
0000
1000
0100
0010
0100
0010
0000
0001
0100
0001
0000
,
1000
0010
1000
0010
1000
0000
0001
0100
0001
0100
0001
0000
0010
0100
0010
0000
,
1000
0001
1000
0001
0010
0100
1000
0100
0010
0100
0010
0001
0010
0100
0010
0001
,
1000
0100
0010
0001
0100
0010
1000
0100
0010
0001
0010
0100
1000
0001
0010
0100
,
1000
1001
0010
1100
1100
0010
1100
0010
,
0011
0011
0100
0110
0011
0100
1010
0100
,
0101
0101
1000
1010
1010
0100
0110
0010
,
1100
1100
0010
1010
1010
0001
0110
0001
,
0110
1010
0100
0101
0110
0010
0101
1000
,
0110
1001
0100
1001
0100
1001
0110
1000
,
0001
0010
0100
1000
0001
0100
0010
1000
0001
0010
0100
1000
0001
0100
0010
1000
,
0002
2003
3002
2003
3002
2003
3002
2003
3002
2003
3002
2003
3002
2003
3000
1001
0000
0000
1001
0000
0000
1001
0000
0000
,
1001
0100
0010
0100
0010
0001
1000
0100
,
0010
0001
0010
0100
0010
1000
0010
0100
,
1001
0010
0100
1000
0010
1000
0100
0001
,
0100
1000
0100
0010
0001
0010
1000
0010
,
1100
0010
0001
0010
0100
1000
0100
0001
,
0010
0100
0100
0100
1000
0100
0001
0100
,
1010
0000
0100
0010
1100
0000
0010
0001
1100
0000
0011
0000
1100
0000
1010
0000
,
1000
0100
0010
0001
0001
0010
0100
1000
1000
0100
0010
0001
0100
0001
0010
0100
,
1000
0000
0010
0100
0011
0000
1000
0100
0010
0100
0010
0001
1100
0000
0010
0100
,
0011
0000
1000
0100
0011
0000
1000
0100
0010
0001
0010
0100
1010
0000
0100
0001
,
1010
0000
0100
1000
0011
0000
1000
0100
0010
0100
0010
1000
0011
0000
1000
0100
,
1010
0000
0001
0100
0011
0000
1000
0100
0010
0100
0010
0001
1010
0000
0100
0010
,
1100
0000
0010
0001
1100
0000
0010
0100
1000
0100
0010
0001
0110
0000
1000
0001
,
0110
0000
1000
0001
0110
0000
1000
0001
0010
0100
1000
0100
0011
0000
0100
1000
,
0011
0000
0100
0001
0110
0000
1000
0001
0010
0100
1000
0001
0110
0000
1000
0100
,
0011
1100
0011
0110
0011
0011
1100
0110
,
0011
0000
1000
0100
0011
0000
1000
0100
0010
0001
0010
1000
0110
0000
1000
0001
,
0110
0000
0001
0010
1100
0000
0100
0010
1000
0010
0100
0001
0110
0000
1000
0001
,
1010
0000
0100
0001
0110
0000
1000
0001
0100
0010
1000
0001
1010
0000
0100
0001
,
0110
0000
0001
1000
0101
0000
0010
1000
0100
0010
0001
0010
1100
0000
0100
0001
,
0110
0000
1000
0001
1010
0000
1000
0100
0001
0010
0100
1000
0011
0000
1000
0100
,
1010
0000
0100
0010
0101
0000
0010
1000
0100
0010
0001
0010
1100
0000
0010
0100
,
1000
0001
1000
0001
1000
0100
0010
0001
1000
0100
0010
0001
0010
0100
1000
0001
,
0010
1010
0000
0110
0000
0011
0000
1010
,
0101
1000
0001
1000
0110
1000
0100
0010
0101
0010
0100
0001
1010
0100
0010
0001
,
1100
0010
0100
1000
0011
0100
1000
0001
0110
1000
0100
0010
1100
0010
0100
1000
,
0011
1000
0100
0010
1100
0010
0100
0001
0110
1000
0100
1000
0011
1000
0100
0010
,
1001
0100
0010
0100
0010
0001
0010
0100
1000
0010
0100
0001
0010
0100
1000
0100
,
0011
0011
0100
1100
1100
0100
0011
1000
,
0110
0110
0001
0110
1100
0100
0011
1100
,
0022
0100
1000
0100
1000
0100
1000
0100
,
1033
0110
0011
0110
,
1100
0000
0011
0000
1000
0100
0011
0000
1100
0000
0011
0000
0100
1000
0110
0000
,
0101
0000
1100
0000
0010
0100
0011
0000
1100
0000
0110
0000
0001
0010
1100
0000
,
0110
0000
0011
0000
1000
0100
0110
0000
0011
0000
1010
0000
0100
0001
0110
0000
,
1100
0000
0011
0000
1100
0000
0011
0000
1100
0000
0011
0000
0010
1000
0101
0000
,
0110
0000
1001
0000
0100
0001
1100
0000
0011
0000
0110
0000
1000
0010
1100
0000
,
0110
0000
1100
0000
0001
0010
1100
0000
0011
0000
0110
0000
0001
1000
0110
0000
,
1100
0000
0011
0000
1000
0100
0011
0000
0110
0000
1001
0000
0100
0001
1100
0000
,
1000
0010
1000
0010
1000
0010
1000
0010
1000
0100
0010
0001
1000
0100
0010
0001
,
1100
0000
0110
0000
0001
0010
1100
0000
0101
0000
1010
0000
0100
0010
1001
0000
,
0110
0000
1100
0000
0001
0010
1100
0000
1100
0000
0011
0000
1000
0100
1010
0000
,
0110
0000
1001
0000
0001
0010
1100
0000
0110
0000
1100
0000
0001
1000
0011
0000
,
0110
0000
1010
0000
0100
0001
1010
0000
0110
0000
0101
0000
0010
1000
0101
0000
,
0110
1100
0011
0110
1010
0101
0110
1010
,
1100
0011
0110
1100
0011
0110
1100
0011
,
1000
0100
0010
0001
1000
0010
0100
0001
1000
0100
0010
0001
1000
0010
0100
0001
,
1000
0010
0100
0010
,
1100
0010
0001
1000
0100
0010
0100
0010
0001
0100
0001
0010
0100
1000
0001
0010
,
0101
1000
0100
0010
0001
0010
0100
0010
0001
0100
0010
0001
1000
0100
0010
0001
,
1010
0100
1000
0100
0010
0100
0010
1000
0001
0100
0010
1000
0001
0010
0001
1000
,
0101
0010
0100
0010
1000
0010
0001
0100
1000
0010
0001
0010
0100
1000
0100
0010
,
0101
0010
0100
1000
0100
0010
0001
1000
0100
0010
0001
0010
1000
0100
0001
0010
,
1001
0100
0010
0001
1000
0010
1000
0001
1000
0001
0010
0001
0010
0100
1000
0001
,
1100
0010
1000
0001
0100
0010
0001
1000
0001
0100
0001
1000
0010
0100
0001
1000
,
0100
0010
0001
1000
0100
0001
0010
1000
0100
0010
0001
0010
0100
1000
0100
0010
,
1001
0100
0010
0001
0100
0010
0100
0001
1000
0100
0010
0001
1000
0010
0100
0001
,
1010
0100
0010
0001
0010
0100
1000
0001
0010
0100
0010
0001
1000
0100
0010
0100
,
1010
0001
0010
0100
1000
0100
1000
0010
0001
0100
0010
0001
0010
0100
1000
0010
,
0101
1000
0001
0010
0100
1000
0100
0010
0001
0100
0010
1000
0001
0010
0001
0100
,
0010
1000
0010
0100
0010
1000
0010
0100
0010
1000
0100
0010
0001
0010
0100
1000
,
0100
0010
0001
0010
0100
1000
0100
0010
0001
0010
0100
1000
0100
0010
0001
0010
,
1001
1000
0000
1000
0100
0010
0100
1000
,
0010
0010
0000
0001
0010
0100
2000
0000
,
3100
0000
0100
0000
0010
0000
1000
0000
0001
0001
0010
0010
0100
0100
1000
1000
,
0100
0010
0001
2000
0000
0000
0000
0000
,
3020
0000
0100
0000
0030
0000
2000
0000
0000
0000
0100
0000
3001
0010
0100
0000
,
0010
0000
1000
0000
0010
0000
0002
0000
0003
0000
0100
0000
1000
0100
0010
0000
,
0002
0003
0002
0003
2000
3000
0002
0003
0002
0003
2000
3000
0001
0000
1000
0000
,
0010
0100
0000
0000
0010
0100
0000
0000
0001
0010
0100
0000
0001
0010
0100
0000
1000
0100
0010
0000
0001
0010
0100
0000
1000
0100
0010
0000
1000
0100
0010
0001
,
0100
0000
0100
0000
0000
0000
1000
0000
0001
0001
0010
0010
0100
0100
0001
0001
,
1000
1000
0000
1000
0100
0001
2000
0000
,
3001
0010
0100
0000
0001
0010
0100
0000
1000
0100
0010
0000
1000
0100
0010
0000
0001
0010
0100
0000
0001
0010
0100
0000
1000
0100
0010
0001
0010
0100
1000
0001
,
0010
1000
0010
2000
0000
0000
0000
0000
,
3002
0003
0100
0000
0000
0000
1000
0100
1000
0000
0010
0000
0001
0000
0010
0000
,
1000
0000
1000
0000
0000
0000
1000
0100
0010
0000
0001
0000
2000
0000
0000
0000
,
3001
0010
0100
0000
0001
0010
0100
0000
0001
0010
0100
0000
0001
0010
0100
0000
0001
0010
0100
0000
0001
0010
0100
0000
0001
0010
0100
0000
0001
0010
0100
0000
,
0001
0000
0000
0000
1000
0000
0000
0000
0010
0000
0000
0001
0000
0000
1000
0000
,
0002
0000
0003
0000
,
0000
0000
0000
0000
,
1100
0010
0100
0010
0101
1100
0010
0100
,
0011
0100
0010
0001
1100
0110
1000
0010
,
1001
0100
0010
0001
1100
0011
1000
0100
,
0011
1000
0100
0010
0101
0101
1000
0100
,
0011
0100
0010
0100
1001
0110
1000
0100
,
0011
0100
0001
0010
1100
1100
0010
0100
,
1000
0100
0010
0001
0010
0001
1000
0100
0010
0001
0010
0001
1000
0100
0010
0001
,
2100
0000
0000
0000
,
3101
0000
0011
0000
1000
0100
0011
0000
1100
0000
0110
0000
1000
0010
1100
0000
,
0011
0000
0110
0000
1000
0100
0011
0000
1100
0000
0110
0000
0001
0010
1100
0000
,
0011
0000
1100
0000
0001
0010
1100
0000
0110
0000
0011
0000
1000
0100
1001
0000
,
0110
0000
1100
0000
0001
0010
0101
0000
1100
0000
1010
0000
0100
0010
0101
0000
,
0011
0000
0110
0000
0001
0010
1100
0000
0110
0000
0011
0000
1000
0100
0011
0000
,
0110
0000
1001
0000
0100
0010
1100
0000
0011
0000
1100
0000
0010
0100
1010
0000
,
0011
0000
0110
0000
0001
0010
1100
0000
0011
0000
1100
0000
1000
0100
0011
0000
,
1000
0100
0010
0001
1000
0100
0010
0001
1000
0100
0010
0001
1000
0100
0010
0001
,
0110
0001
0010
0001
1100
0010
0100
1000
0011
1000
0100
1000
0110
0001
0010
0100
,
1010
0100
0010
1000
0101
0010
0001
1000
0110
0001
0010
0100
1010
0001
0010
0001
,
0110
1000
0100
1000
0110
0001
0010
0001
1100
0010
0100
1000
0011
0100
1000
0001
,
0110
0000
0000
0000
0000
0000
0000
0000
0000
0000
0000
0000
0000
0000
0000
0000
0000
0000
0000
0000
0000
0000
0000
0000
0011
0000
0000
0000
0000
0000
0000
0000
0000
0000
0000
0000
0000
0000
0000
0000
0000
0000
0000
0000
0000
0000
0000
0000
0000
0000
0000
0000
0000
0000
0000
0000
0110
0000
0000
0000
0000
0000
0000
0000
0000
0000
0000
0000
0000
0000
0000
0000
0000
0000
0000
0000
0000
0000
0000
0000
0000
0000
0000
0000
0000
0000
0000
0000
0000
0000
1100
0000
0000
0000
0000
0000
0000
0000
0000
0000
0000
0000
0000
0000
0000
0000
0000
0000
0000
0000
0000
0000
0000
0000
0000
0000
0000
0000
0000
0000
0000
0000
0000
0000
0000
0000
0000
0000
0011
0000
0000
0000
0000
0000
0000
0000
0000
0000
0000
0000
0000
0000
0000
0000
0000
0000
0000
0000
0000
0000
0000
0000
0000
0000
0000
0000
0000
0000
0000
0000
1100
0000
0000
0000
0000
0000
0000
0000
0000
0000
0000
0000
0000
0000
0000
0000
0000
0000
0000
0000
0000
0000
0000
0000
0000
0000
0000
0000
0000
0000
0000
0000
,
0011
0100
1000
0010
1100
0001
0010
1000
0110
1000
0100
0010
1100
0010
0100
1000
,
0011
0100
1000
0001
0110
0001
0010
0001
1100
0010
0100
1000
0011
0010
0100
0010
,
1001
0000
0110
1100
0011
0110
1100
0110
,
0011
0110
1100
0011
,
0110
0000
1100
0000
0001
0010
1100
0000
0110
0000
1100
0000
0010
0001
1100
0000
,
0011
0000
0110
0000
1000
0100
0011
0000
1100
0000
1010
0000
0100
0010
1001
0000
,
0110
0000
1100
0000
0001
0010
1100
0000
0110
0000
1100
0000
0100
0010
0101
0000
,
0110
0000
1100
0000
0001
0010
1100
0000
1100
0000
0011
0000
1000
0100
0011
0000
,
1010
0000
0101
0000
1000
0100
0011
0000
0110
0000
1001
0000
0100
0010
1001
0000
,
0110
0000
1100
0000
0100
0010
1100
0000
0110
0000
0011
0000
0010
0100
0011
0000
,
1100
0000
0110
0000
1000
0100
0011
0000
0110
0000
1100
0000
0001
0010
1100
0000
,
1000
0100
1000
0100
0010
0001
0010
0001
0100
0010
0100
1000
0100
0010
0001
1000
,
0110
0000
0011
0000
1000
0100
0011
0000
0110
0000
1010
0000
0001
0010
0101
0000
,
0110
0000
1100
0000
0001
0010
1001
0000
0110
0000
1100
0000
0001
1000
0110
0000
,
0011
0000
1100
0000
0010
0100
1001
0000
0110
0000
1100
0000
0001
0010
1100
0000
,
0011
0000
1100
0000
0100
0010
0101
0000
0110
0000
1100
0000
0010
0001
1100
0000
,
0110
0001
1000
0100
0010
0001
0010
0100
1000
0100
0010
0100
0010
0001
0010
0100
,
1000
0100
0010
0001
1000
0100
0010
0100
1000
0001
0010
0100
0010
0001
0010
0100
,
1000
0100
0010
0001
1000
0100
0010
0001
1000
0100
0010
0001
1000
0100
0010
0001
,
1000
0010
0100
0001
,
0101
0010
0100
1000
0001
0010
0100
1000
0100
0010
0001
0100
0010
1000
0100
0010
,
1100
0001
0010
0100
1000
0100
0010
0001
0010
0100
0010
0001
1000
0100
0010
0001
,
0110
0001
1000
0100
0010
0100
1000
0001
0010
0100
1000
0100
0010
0001
1000
0010
,
0101
1000
0100
0010
0001
0100
0010
0001
0010
0100
1000
0001
0010
0001
0010
0100
,
1010
0001
0010
0100
0010
0001
1000
0100
0010
0100
1000
0001
0010
0100
1000
0001
,
0110
1000
0100
0010
0001
0100
0010
1000
0100
0010
0001
0010
0100
1000
0001
1000
,
0011
0100
0010
1000
0001
0100
0010
1000
0001
0010
0100
1000
0100
0010
0001
0010
,
1000
0100
0010
0100
1000
0100
0010
0001
0010
0100
0010
0001
0010
0100
1000
0001
,
0110
0001
0010
0100
0010
0001
1000
0100
0010
0100
1000
0001
0010
0100
1000
0100
,
0011
1000
0001
0100
0010
1000
0100
0010
0001
1000
0010
0100
0001
0010
0100
0010
,
1100
0010
0100
1000
0100
0001
0010
0100
1000
0010
0100
0001
0010
0100
1000
0001
,
0110
0001
0010
0001
0100
0001
0010
0100
1000
0100
0010
0001
0100
0010
0100
0010
,
1001
0010
0100
1000
0100
0010
0001
0010
0100
1000
0100
0010
0001
0010
0100
1000
,
0110
0000
0000
0000
,
1000
1000
0000
0010
0100
0010
0001
0010
,
0100
0100
0000
0010
0100
1000
0020
0000
,
2030
3020
0030
1000
0100
0010
0001
0100
,
0001
0010
0100
0020
0000
0000
0000
0030
,
2000
0000
3001
0000
0000
0000
2000
0000
0000
0000
3001
0000
0010
0100
0001
0000
,
1000
0000
0100
0000
1000
0000
0200
0000
0300
0000
0002
0000
0013
0100
1000
0000
,
0100
0100
0001
0100
0100
0001
0100
0001
,
1000
0100
0010
0001
0010
0100
0010
0001
0010
0100
1000
0100
0010
0100
1000
0100
,
0001
0001
0000
0001
0010
0100
1000
0010
,
0010
0100
0000
1000
0010
1000
0200
0000
,
0301
0010
0100
0000
0001
0010
0100
0000
0001
0010
0100
0000
1000
0100
0010
0000
1000
0100
0010
0000
1000
0100
0010
0000
0001
0000
0010
0000
0001
0000
0000
0000
,
1000
0010
0100
0020
0000
0000
0030
0000
,
1000
0000
1000
0000
0000
0000
0001
0010
0001
0010
0001
0000
1000
0000
0010
0000
,
0001
0000
1000
0000
0000
0000
0010
0100
0010
0000
0001
0000
2000
0000
3000
0000
,
0110
0001
0010
0100
1010
0100
0010
0100
0011
1000
0100
0010
1100
0010
0001
0100
,
2020
3030
2020
0000
3232
0303
0202
0000
2323
3030
2020
0000
3131
0000
0000
0000
,
2002
3003
0000
0000
;
