#TITLE:Geek;
#SUBTITLE:;
#ARTIST:mc chris;
#TITLETRANSLIT:;
#SUBTITLETRANSLIT:;
#ARTISTTRANSLIT:;
#CREDIT:Arch0wl;
#BANNER:geek-bn.png;
#BACKGROUND:geek-bg.png;
#LYRICSPATH:;
#CDTITLE:!Arch0wlTitle.png;
#MUSIC:geek.ogg;
#OFFSET:-0.179;
#SAMPLESTART:76.708;
#SAMPLELENGTH:19.201;
#SELECTABLE:YES;
#BPMS:0.000=200.000;
#STOPS:;
#BGCHANGES:0.000=geek-bg.png=1.000=0=0=1,
99999=-nosongbg-=1.000=0=0=0 // don't automatically add -songbackground-
;
// cache tags:
#FIRSTBEAT:0.000;
#LASTBEAT:384.000;
#SONGFILENAME:Songs/Archmage and Dark0wl Hammer of Thor UltraHyperMegaPack/Geek/geek.sm;
#HASMUSIC:1;
#HASBANNER:1;
#MUSICLENGTH:105.000;
// end cache tags

//---------------dance-single - Arch0wl----------------
#NOTES:
     dance-single:
     Arch0wl:
     Hard:
     9:
     0.796,0.869,1.000,0.000,0.005,433.000,152.000,0.000,0.000,0.000:
1000
0010
0010
0010
,
1001
0000
0000
0110
0000
0000
1001
0000
,
0011
0100
0100
0100
,
1010
0000
0000
0101
0000
0000
1010
0000
,
0011
1000
1000
1000
,
0110
0000
1000
0001
0000
0000
0110
0000
,
1010
0001
0001
0001
,
0011
0000
0000
1100
0000
0000
0100
0000
,
0110
0000
0010
0001
0000
0000
0101
0000
,
1001
0000
0000
0110
0000
0000
1001
0000
,
0110
0000
1000
0100
0000
0000
0110
0000
,
0011
0000
0000
0110
0000
0000
0011
0000
,
0101
0000
0000
1100
0000
0000
0101
0000
,
0011
0000
0000
1010
0000
0000
0011
0000
,
1001
0000
0000
1100
0000
0000
1001
0000
,
0101
0000
0000
1001
0000
0000
0101
0000
,
1010
0000
0100
0001
0000
0000
1010
0000
,
1100
0000
0000
0110
0000
0000
1100
0000
,
1001
0000
0100
0010
0000
0000
1001
0000
,
0101
0000
0000
1100
0000
0000
0110
0000
,
0011
0000
0000
0010
0000
0010
1000
0000
,
1010
0000
0000
0101
0000
0000
1010
0000
,
1001
0000
0000
0010
,
1001
0000
0000
1001
0000
0000
1001
0000
,
1000
0100
1000
0100
0010
0100
0010
0100
,
0001
0100
0001
0100
1000
0100
0000
0000
,
1000
0000
0010
0100
0010
1000
0001
0010
,
0001
0100
0010
1000
0010
0001
0000
0010
,
1000
1000
0100
0100
0010
0010
0001
0001
,
0010
0010
0100
0100
1000
1000
0000
1000
,
0001
0001
0100
0100
0010
0010
1000
1000
,
0010
0010
0100
0100
0001
0001
0010
0100
,
1100
0000
0000
0000
0000
0000
1000
0100
,
0010
0010
0010
0010
0000
0001
0010
0100
,
1000
0000
1000
0100
0010
0001
0100
0010
,
1000
1000
1000
1000
0000
0001
1000
0000
,
1000
0010
1000
0100
1000
0000
0010
0000
,
1001
0000
0010
1001
0000
1000
0010
1000
,
0100
0010
0001
0010
0100
1000
0010
0100
,
1000
0100
0000
0100
0000
0100
0010
0000
,
1001
0000
0000
0000
,
1000
0100
0010
0100
0000
0100
0000
0000
,
1000
0000
1000
0010
1000
0001
0100
0000
,
0100
0001
1000
0100
0000
0100
1000
0010
,
0100
0000
0000
0100
0010
0100
0000
0110
,
0000
0100
0001
0010
0001
0100
0000
0000
,
0100
0001
0000
0001
0000
0001
0010
0100
,
1000
1000
0000
1000
0000
1000
0100
0010
,
0110
1100
0000
0000
,
1000
1000
0010
0100
0000
0000
0000
0100
,
0010
1000
0100
0000
0100
0010
0001
0010
,
0010
0001
0010
0100
0000
0000
1000
0100
,
1000
1000
0001
0100
0001
0001
0010
0010
,
0100
1000
0001
0100
0000
0100
0001
1000
,
0010
0001
0010
0000
0000
1000
0100
0010
,
0001
1000
0100
0011
0000
0100
1000
0000
,
1010
0000
0011
0000
0000
1000
0010
1000
,
0001
0010
0001
0100
0001
0010
0100
1000
,
0100
0000
0010
0000
0100
0000
1000
0000
0100
0000
0010
0000
0001
0100
0001
0000
,
0010
1000
0010
0001
0010
1000
0010
0001
,
1001
0000
0000
1000
,
0101
0000
1000
0101
0000
1000
0100
1000
,
0001
0001
1000
1000
0010
0010
0010
0100
,
0100
0001
1000
1000
1000
0000
0100
0000
,
0110
0000
1000
0001
0000
0000
0110
0000
,
1100
0000
0000
0101
0000
0000
1100
0000
,
1010
0000
0100
0001
0000
0000
1010
0000
,
0011
0000
0000
1100
0000
0000
0011
0000
,
0110
0000
0000
0101
0000
0000
0110
0000
,
1010
0000
0000
1100
0000
0000
1010
0000
,
1001
0000
0000
0110
0000
0000
1001
0000
,
0011
0000
0000
1100
0000
0000
0011
0000
,
0101
0000
1000
0010
0000
0000
0101
0000
,
1001
0000
0000
1100
0000
0000
1001
0000
,
0110
0000
1000
0001
0000
0000
0110
0000
,
0011
0000
0000
1010
0000
0000
0011
0000
,
1100
0000
0000
0100
0000
0100
0001
0000
,
0011
0000
0000
1100
0000
0000
0110
0000
,
1001
0000
0000
0110
,
1001
0000
0000
1001
0000
0000
1001
0000
,
0101
0000
0010
0101
0000
0000
0010
0000
,
1001
0000
0000
1001
0000
0000
1001
0000
,
1100
0000
0001
1100
0000
0000
0001
0000
,
0110
0000
0000
0110
0000
0000
0110
0000
,
0011
0000
0000
0011
0000
0000
0011
0000
,
1001
0000
0000
1001
0000
0000
1001
0000
,
1100
0000
0000
1100
0000
0000
1100
0000
,
1010
0000
0000
1010
0000
0000
1010
0000
,
1001
0000
0100
1001
0000
0000
0110
0000
,
0101
0000
0000
0101
0000
0000
0101
0000
,
0011
0000
0100
0011
0000
0000
0011
0000
,
1100
0000
0000
1100
0000
0000
1010
0000
,
1010
0000
0000
0100
0000
0100
1010
0000
,
1001
0000
0000
1001
0000
0000
1001
0000
,
0110
0000
0000
1001
,
0110
0000
0000
0110
0000
0000
0110
0000
,
0110
0000
0000
0000
;

//---------------dance-single - Arch0wl----------------
#NOTES:
     dance-single:
     Arch0wl:
     Challenge:
     14:
     1.000,1.000,1.000,0.000,0.805,778.000,170.000,0.000,0.000,4.000:
1000
0000
0010
0000
0010
0000
0010
0010
,
1001
0010
0010
0110
0000
0000
1001
0000
,
0011
0000
0100
0000
0100
0000
0100
0100
,
1010
0100
0100
0101
0000
0000
1010
0000
,
0011
0000
1000
0000
1000
0000
1000
1000
,
0110
1000
1000
1001
0000
0000
0110
0000
,
1010
0000
0001
0000
0001
0000
0001
0001
,
0110
0001
0001
1001
0000
0000
0100
0000
,
0110
0000
0010
0001
0000
0000
0101
0000
,
1001
0000
0100
1001
0000
0100
1001
0000
,
0110
0000
1000
0100
0000
0000
0110
0000
,
0011
0000
0100
0011
0000
0100
0011
0000
,
0101
0000
0000
1100
0000
0000
0101
0000
,
1010
0000
0001
1010
0000
0001
1010
0000
,
1001
0000
0000
1100
0000
0000
1001
0000
,
0101
0000
0010
0101
0000
0010
0101
0000
,
1010
0000
0100
0001
0000
0000
1010
0000
,
1100
0000
0010
1100
0000
0010
1100
0000
,
1001
0000
0100
0010
0000
0000
1001
0000
,
0101
0000
0010
0101
0000
0010
0101
0000
,
0011
0000
0000
0010
0000
0010
1000
0000
,
1010
0000
0100
1010
0000
0100
1010
0000
,
0111
0000
0000
0011
,
0111
0000
0000
0111
0000
0000
0111
0000
,
1001
0100
1000
0100
0010
0100
0010
0100
,
1001
0100
0001
0110
1000
0100
1001
0000
,
1001
0000
0010
0100
0010
1000
0001
0010
,
1001
0100
0010
1100
0010
0001
1100
0010
,
1100
1000
0100
0100
0010
0010
0001
0001
,
0011
0010
0100
0101
1000
1000
0110
1000
,
0110
0001
0100
0100
0010
0010
1000
1000
,
0011
0010
0100
1100
0001
0001
1010
0100
,
1010
0000
0000
0000
0000
0000
1000
0100
,
0011
0010
0010
0110
0000
0001
1010
0100
,
1010
0000
1000
0100
0010
0001
0100
0010
,
1001
1000
1000
1010
0000
0001
1100
0000
,
1100
0010
1000
0100
1000
0000
0010
0000
,
1001
0000
0010
1001
0000
1000
0101
1000
,
0101
0010
0001
0010
0100
1000
0010
0100
,
1001
0100
0000
0101
0000
0100
1001
0000
,
1001
0000
0000
0000
,
1010
0100
0010
0101
0000
0100
1001
0000
,
1001
0000
1000
0010
1000
0001
0100
0000
,
0110
0001
1000
0101
0000
0100
1001
0010
,
1001
0000
0000
0100
0010
0100
0000
0110
,
1001
0100
0001
0110
0001
0100
1010
0000
,
1010
0001
0000
0001
0000
0001
0010
0100
,
1010
1000
0000
1100
0000
1000
0110
0010
,
0110
1100
0000
0000
,
1001
1000
0010
0101
0000
0000
0011
0100
,
0011
1000
0100
0000
0100
0010
0001
0010
,
0110
0001
0010
0101
0000
0000
1010
0100
,
1010
1000
0001
0100
0001
0001
0010
0010
,
0101
1000
0001
0110
0000
0100
0011
1000
,
0011
0001
0010
0000
0000
1000
0100
0010
,
0101
1000
0100
0011
0000
0100
1010
0000
,
1010
0000
0011
0000
0000
1000
0010
1000
,
0101
0010
0001
0110
0001
0010
0101
1000
,
0101
0000
0010
0000
0100
0000
1000
0000
0100
0000
0010
0000
0001
0100
0001
0000
,
0110
1000
0010
0101
0010
1000
0110
0001
,
0110
0000
0000
1000
,
0101
0000
1000
0101
0000
1000
0011
1000
,
0011
0001
1000
1000
0010
0010
0010
0100
,
0110
0001
1000
1010
1000
0000
0110
0000
,
0110
0000
1000
0100
1000
0000
0001
0100
0001
0000
1000
0001
0110
0000
0001
0000
,
1100
0000
0001
0000
0100
0000
0001
0010
0001
0010
0001
0000
1100
0000
0001
0000
,
1010
0000
0001
0010
0001
0000
1000
0010
1000
0000
0100
1000
0110
0000
1000
0000
,
0011
0000
0100
0000
0001
0000
1000
0100
1000
0100
1000
0000
0011
0000
1000
0000
,
0110
0000
0001
0000
1000
0000
0101
0000
0010
0000
0000
1000
0110
0000
0001
0000
,
1010
0000
0100
0000
0001
0000
0100
0010
0100
0010
0100
0000
1010
0000
0100
0000
,
1001
0000
0010
0100
0010
0000
0100
1000
0100
0000
0000
0010
1001
0000
0100
0000
,
0011
0000
1000
0000
0001
0000
0100
1000
0100
1000
0100
0000
0011
0000
1000
0000
,
0101
0000
1000
0010
1000
0000
0001
0010
0001
0000
0000
1000
0101
0000
0010
0000
,
1001
0000
0100
0000
0010
0000
0100
0001
0100
0001
0100
0000
1001
0000
0010
0000
,
0110
0000
1000
0100
1000
0000
0001
0100
0001
0000
0000
0001
0110
0000
1000
0000
,
0101
0000
0010
0000
1000
0100
1000
0100
1000
0100
1000
0000
0011
0000
0000
0000
,
1100
0000
0010
0100
0010
0000
1000
0001
1000
0000
0001
0010
0001
0000
1000
0000
,
1010
0000
0001
0000
0010
0000
0100
1000
0100
1000
0100
0000
0110
0000
0010
0000
,
1001
0000
0100
0010
0100
0000
0000
0000
0100
0000
0000
0001
0110
0000
0100
0000
,
1001
0000
0010
0000
0100
0000
0001
0010
0001
0010
0001
0000
1000
0010
1000
0010
,
0100
0001
0100
0001
0010
0001
0100
0001
0100
0001
0100
0001
0010
0100
0010
0100
,
0010
0100
0010
0100
0010
0100
0010
0100
0010
0100
0010
0100
1000
0010
1000
0010
,
0100
0001
0100
0001
1000
0001
0100
0001
0100
0001
0100
0001
0010
0100
0010
0100
,
0010
0100
0010
0100
0010
0100
0010
0100
0010
0100
0010
0100
1000
0010
1000
0010
,
0100
0001
0100
0001
0100
0001
1000
0010
1000
0010
1000
0010
0100
0001
0100
0001
,
0100
0001
0100
0001
0100
0001
0100
0001
0100
0001
0100
0001
1000
0100
1000
0100
,
0010
0001
0010
0001
0010
0001
1000
0100
1000
0100
1000
0100
0010
0001
0010
0001
,
0010
0001
0010
0001
0010
0001
0010
0001
0010
0001
0010
0001
0100
0010
0100
0010
,
1000
0001
1000
0001
0100
0001
1000
0001
1000
0001
1000
0001
0100
0010
0100
0010
,
0100
0010
0100
0010
0100
0010
0100
0010
0100
0010
0100
0010
1000
0100
1000
0100
,
0010
0001
0010
0001
0100
0001
0010
0001
0010
0001
0010
0001
0100
0010
0100
0010
,
0100
0010
0100
0010
0100
0010
0100
0010
0100
0010
0100
0010
1000
0001
1000
0001
,
0100
0010
0100
0010
0100
0010
1000
0100
1000
0100
0010
0100
1000
0100
1000
0100
,
1000
0100
1000
0100
1000
0100
1000
0100
1000
0100
1000
0100
0010
0001
0010
0001
,
0100
0010
0100
0010
0100
0010
0100
0010
0100
0010
0100
0010
1000
0001
1000
0001
,
0100
0010
0100
0010
0100
0010
1000
0001
1000
0001
1000
0001
0100
0010
0100
0010
,
1001
0000
0000
0000
;
