#TITLE:My Hero;
#SUBTITLE:Gson;
#ARTIST:Nightcore;
#TITLETRANSLIT:;
#SUBTITLETRANSLIT:;
#ARTISTTRANSLIT:;
#CREDIT:;
#BANNER:thisandthat-bn.png;
#BACKGROUND:thisnthat-bg.png;
#LYRICSPATH:;
#CDTITLE:;
#MUSIC:Nightcore  - My Hero.ogg;
#OFFSET:0.159;
#SAMPLESTART:35.610;
#SAMPLELENGTH:12.000;
#SELECTABLE:YES;
#DISPLAYBPM:164.000;
#BPMS:0.000=164.390,32.000=328.780,36.000=164.390,374.000=82.195,376.000=164.390;
#STOPS:;
#BGCHANGES:;
// cache tags:
#FIRSTBEAT:32.000;
#LASTBEAT:454.000;
#SONGFILENAME:Songs/Seph, Gson & Shpadoinkle's Pack of This 'n That/My Hero/My Hero.sm;
#HASMUSIC:1;
#HASBANNER:1;
#MUSICLENGTH:105.000;
// end cache tags

//---------------dance-single - Blank----------------
#NOTES:
     dance-single:
     Blank:
     Challenge:
     12:
     1.000,1.000,0.324,1.000,1.000,972.000,34.000,304.000,44.000,5.000:

0000
0000
0000
0000
,
0000
0000
0000
0000
,
0000
0000
0000
0000
,
0000
0000
0000
0000
,
0000
0000
0000
0000
,
0000
0000
0000
0000
,
0000
0000
0000
0000
,
0000
0000
0000
0000
,
20M2
0M00
00M0
0M00
00M0
0M00
00M0
0M00
,
00M0
0000
0M00
0000
00M0
0000
0M00
3003
0002
0000
0000
0203
0000
0000
0310
0000
,
1000
0000
0100
0000
0010
0000
0001
0000
2000
0000
0000
3002
0000
0000
1003
0000
,
0001
0000
0100
0000
0010
0000
1000
0000
0002
0000
0000
2003
0000
0000
3100
0000
,
0010
0000
0001
0000
0010
0000
0001
0000
0200
0000
0000
0320
0000
0000
2030
0000
,
0000
0000
3002
0000
0000
0000
1000
0000
2003
0000
0000
0020
3000
0000
0230
0000
,
0302
0000
0023
0000
0230
0000
2300
0000
3002
0000
0000
2003
0000
0000
3002
0000
,
2003
0000
3020
0000
0230
0000
0302
0000
2003
0000
0000
3002
0000
0000
0023
0000
,
0230
0000
2300
0000
3200
0000
2300
0000
3020
0000
0000
0230
0000
0000
0302
0000
,
0000
2003
0000
0010
3010
2000
3002
2003
,
3020
0000
0000
0230
0320
2030
3200
0000
,
2300
3200
0320
0000
0000
0032
0203
0320
,
2030
0000
0000
3020
0230
0302
0023
0230
,
2300
0000
0000
0000
0000
0000
0000
0000
3002
0000
0000
0000
0000
0000
0000
0003
1001
0000
0000
0000
2000
0000
0000
0000
3200
0000
0000
0000
0320
0000
0000
0000
,
0032
0203
0320
0230
0302
0023
0032
2003
,
3200
2300
3010
0100
0001
0200
0320
0230
,
0320
0000
0000
0000
1030
0000
0000
0000
0200
0000
0000
0000
0320
0000
0000
0000
0034
0000
0000
0000
0000
0000
0000
0000
0000
0000
0000
0000
0000
0000
0000
0003
,
0011
0000
0000
0110
0000
0000
0110
0000
0012
0000
0000
0023
0000
0000
0230
0000
,
0320
0000
0032
0000
0203
0000
0320
0000
2030
0000
0000
3002
0000
0000
2003
0000
,
3200
0000
0000
0320
0000
0000
0032
0000
0203
0000
0301
0100
0001
0000
1000
0010
,
1000
0000
0010
0100
0010
0100
0010
0100
0010
0000
1000
0010
1000
0000
0001
1000
,
0001
0000
1000
0100
0010
0001
0010
0100
1000
0000
0100
1000
0100
0000
0010
0001
,
0010
0000
0002
0000
0203
0000
0320
0000
2030
0000
0000
0020
3000
0000
0230
0000
,
0302
0000
0000
0023
0000
0000
0031
0010
0004
0040
0000
0000
0000
0000
0003
0000
,
0032
0000
0000
0000
0023
0000
0000
0000
0230
0000
0000
0000
2300
0000
3100
1000
0100
0000
0000
0000
0000
0000
2100
0000
0000
0000
0000
0000
3210
0000
0000
0000
,
0321
0000
0031
0020
0000
0000
0230
0000
1300
0100
1000
0100
0010
0001
0010
0100
,
2000
3002
0023
0230
1000
2300
3020
0230
,
0302
0000
0000
0023
0000
0000
0230
0000
1300
0010
0100
0001
0010
0100
1000
0001
,
2000
3002
0203
0302
0100
0203
0320
2030
,
3200
0000
0320
0230
0000
0000
0320
0000
0031
0010
0001
0010
0100
0010
0001
0010
,
0002
0203
0320
2030
0010
3020
0230
0302
,
2003
0000
0000
3200
0000
0000
0320
0000
0032
0000
0000
2003
0000
0000
3020
0000
,
2030
0000
0000
3002
0000
0000
0023
0000
0031
0010
0100
1000
0001
0010
0100
1000
,
0100
0010
0100
1000
0100
0010
0001
1000
0001
0000
0100
0020
0000
0000
0130
0000
,
0001
0000
0010
0000
1000
0000
0010
0000
0001
0000
0010
0200
0000
0000
0310
0000
,
0100
0000
1000
0000
0010
0000
0100
0000
0001
0000
0010
0200
0000
0000
1300
0000
,
0100
1000
0001
1000
0002
0203
2300
3002
,
0023
0000
2030
0000
3200
0000
0320
0000
0031
0000
0010
0002
0000
0000
0103
0000
,
0010
0000
1000
0000
0100
0000
0010
0000
0100
0000
1000
0200
0000
0000
0310
0000
,
0001
0000
0100
0000
0010
0000
1000
0000
0100
0000
0010
0200
0000
0000
0310
0000
,
0001
0000
0000
1000
0000
0000
0001
0000
0000
0100
0000
0000
0001
0100
0001
0100
0001
0100
0001
0100
0010
0100
0010
0100
,
0010
0000
1000
0000
0010
0000
1000
0000
0010
0000
1000
0000
0010
0000
0000
0000
0000
0000
1000
0000
0000
0000
0000
0000
0040
0000
0000
0000
0000
0000
1030
0000
0000
0010
0000
0000
1000
0000
0000
0000
0000
0000
0100
0000
0000
0000
0000
0000
,
0010
0000
0001
0010
0002
0000
0023
0000
0230
0000
0320
0000
0230
0000
2300
0000
,
3002
0000
2003
0000
3010
0000
1000
0010
0100
0001
1000
0001
0100
0000
0001
0000
,
0100
0010
2000
3002
20M3
320M
032M
023M
,
230M
0000
0000
0000
000M
0000
0000
0000
30M2
0000
0000
0000
0000
0000
0000
0003
1001
0000
0000
0000
1000
0000
0000
0000
0100
0000
0000
0000
0010
0000
0000
0000
,
0001
0000
0010
0001
0010
0000
0100
0000
1000
0000
0100
1000
0200
0000
0320
0000
,
0032
0023
0032
0000
1003
0200
0302
0203
,
2300
0000
0000
0000
3100
0000
0000
0000
0020
0000
0000
0000
0032
0000
0000
0000
M000
0000
0000
0000
02M3
0000
0000
0000
032M
0000
0000
0000
203M
0000
0000
3000
,
101M
0000
000M
1010
000M
0000
1001
0000
1002
0000
0000
2003
0000
0000
3002
0000
,
2003
0000
3002
0000
0203
0000
2300
0000
3200
0000
0000
0320
0000
0000
0230
0000
,
0302
0000
0000
2003
0000
0000
3020
0000
2030
0000
3010
0100
0010
0000
1000
0010
,
1000
0000
0001
1000
0001
0100
0001
0100
0001
0000
1000
0001
1000
0000
0100
1000
,
0100
0000
1000
0001
0010
0100
1000
0001
1000
0000
0100
1000
0100
0000
0010
0001
,
0010
0000
0200
0000
2300
0000
3002
0000
0023
0000
0000
0002
0030
0000
2003
0000
,
3200
0000
0000
2300
0000
0000
3002
0000
0043
0400
0000
0000
0000
0000
0000
0000
,
0000
0000
0000
0000
0000
0000
0000
0000
0000
0000
0000
0000
0000
0000
0000
0000
0000
0000
0000
0000
0000
0000
0000
0000
0030
0000
0000
0000
0310
0000
0100
0000
0020
0000
0000
0000
0000
0000
0000
0000
0030
0000
0000
0000
0012
0000
0000
0000
0000
0000
0000
0000
0003
0000
0000
0000
2001
0000
0000
0000
0000
0000
0000
3000
,
1002
0000
1003
0200
0000
0000
0320
0000
0031
0010
0001
0010
0100
1000
0100
0010
,
0002
2003
3200
0320
0001
0032
0203
0320
,
2030
0000
0000
3200
0000
0000
0320
0000
0031
0100
0010
1000
0100
0010
0001
1000
,
0002
2003
3020
2030
0010
3020
0230
0302
,
0023
0000
0230
0320
0000
0000
0230
0000
1300
0100
1000
0100
0010
0100
1000
0100
,
2000
3020
0230
0302
0100
0203
0320
2030
,
3002
0000
0000
0023
0000
0000
0230
0000
2300
0000
0000
3002
0000
0000
0203
0000
,
0302
0000
0000
2003
0000
0000
3200
0000
1300
0010
0100
0001
1000
0010
0100
0001
,
0010
0100
1000
0001
0010
0100
1000
0100
2000
0000
3100
0020
0000
0000
0031
0000
,
0010
0000
0100
0010
0100
0000
0010
0000
0001
0000
1000
0002
0000
0000
1003
0000
,
0100
0000
1000
0100
0010
0000
0001
0000
0010
0000
0100
0020
0000
0000
0031
0000
,
0100
0000
0010
1000
0010
0000
0100
0000
0002
0000
0203
0000
2300
0000
3002
0000
,
0023
0000
2030
0000
3002
0000
2003
0000
3001
0000
0010
0200
0000
0000
0310
0000
,
0001
0000
1000
0001
1000
0000
0100
0000
0010
0000
0001
0020
0000
0000
0031
0000
,
0100
0000
0001
0100
0010
0000
1000
0000
0100
0000
1000
0200
0000
0000
0310
0000
,
0100
0000
0010
0001
0010
0000
0001
0000
0200
0000
0000
0320
0000
0000
2030
0000
,
0000
0000
3400
0000
0000
0000
0000
0000
0310
0000
0100
0010
0100
0000
0010
0001
,
0010
0000
0001
0010
0100
1000
0100
0010
0001
0000
1000
0001
1000
0000
0001
1000
,
0001
0000
1000
0001
0100
0010
1000
0100
0010
0000
0001
0010
0001
0000
0010
0001
,
0010
0000
0001
0100
0010
1000
0100
0010
0001
0000
0010
0100
1000
0000
0100
0010
,
0001
0000
0100
0010
1000
0100
0010
0100
0010
0000
0001
0010
0100
0000
0010
0100
,
1000
0000
0100
0010
0001
0010
0100
0010
0001
0000
0010
0100
0010
0000
0100
1000
,
0100
0000
0010
0001
0010
0100
1000
0001
1000
0000
0001
1000
0010
0000
1000
0010
,
1000
0000
0010
0100
0001
0100
0010
1000
0001
0000
1000
0001
0100
0000
0001
0100
,
0001
0000
0000
0000
0100
0000
0010
0000
1000
0000
0100
0000
0010
0000
0001
0000
2000
0000
0000
0000
3200
0000
0000
0000
2300
0000
0000
0000
3002
0000
0000
0003
,
2002
0000
0000
0000
3003
0000
0000
0000
2002
0000
0000
0000
3003
0000
0000
0000
2000
0000
0000
0000
3200
0000
0000
0000
0302
0000
0000
0000
0203
0000
0000
0300
,
2200
0000
0000
0000
3300
0000
0000
0000
2200
0000
0000
0000
3300
0000
0000
0000
0200
0000
0000
0000
2300
0000
0000
0000
3002
0000
0000
0000
2003
0000
0000
3000
,
2020
3030
2020
3030
1011
0000
1011
0000
,
0111
0000
0000
0000
0100
0001
0100
0001
M200
0000
M000
0000
M000
0000
M000
0000
,
M000
M000
M000
M000
M300
M000
M000
M000
,
M001
0010
0001
0010
0100
1000
0100
1000
0100
0010
0001
0100
0010
1000
0010
0100
,
0010
0100
0001
0100
0001
0100
0010
1000
0010
1000
0001
1000
0001
1000
0100
1000
,
0100
1000
0100
0010
0001
0010
0001
0010
0001
0010
0001
0010
0100
1000
0100
0010
,
0001
0100
0010
1000
0100
0010
0001
0100
0001
0100
0010
1000
0010
1000
0100
0010
,
0001
0010
0100
1000
0100
1000
0100
0010
0100
1000
0100
0010
0100
1000
0100
0010
,
0001
0010
0100
0010
0001
0010
0100
1000
0001
0010
0100
1000
0100
0010
0001
0100
,
0010
1000
0001
0100
0010
1000
0001
1000
0001
1000
0001
0100
0010
1000
0100
0010
,
0001
0100
0010
1000
0010
0100
0001
0100
0010
1000
0100
0010
0001
0010
0100
1000
,
0001
0010
0001
1000
0100
1000
0100
0010
0100
0010
0001
0010
0001
0010
0100
1000
,
0100
0010
0001
0100
0010
1000
0010
0100
0010
1000
0100
0010
0001
0010
0100
0010
,
0001
0010
0100
0010
0001
0100
0010
1000
0001
1000
0001
0100
0010
1000
0100
0010
,
0001
0100
0010
0100
0010
1000
0010
1000
0001
1000
0001
1000
0100
1000
0100
1000
,
0100
0010
0001
0010
0100
1000
0100
1000
0001
1000
0001
1000
0001
0010
0100
1000
,
0100
0010
0001
0010
0001
1000
0100
1000
0100
0010
0001
1000
0001
1000
0001
1000
,
0001
0100
0010
1000
0100
0010
0001
1000
0001
1000
0040
4030
3040
4030
3040
4030
,
3020
0000
0000
0000
0000
0000
2030
0000
0000
0000
0000
0000
3200
0000
0000
0300
1100
0000
0000
0000
0000
0000
0000
0000
1001
0000
0000
0000
0000
0000
0000
0000
,
02M2
0000
00M0
0000
,
00M0
0000
00M0
0000
,
00M0
0000
0303
0000
;
