#TITLE:Bittersweet Symphony;
#SUBTITLE:--CNB Remix--;
#ARTIST:Cornandbeans;
#TITLETRANSLIT:;
#SUBTITLETRANSLIT:;
#ARTISTTRANSLIT:;
#CREDIT:;
#BANNER:Bittersweet Symphony CnB-ban.PNG;
#BACKGROUND:Bittersweet Symphony CnB-bg.PNG;
#LYRICSPATH:;
#CDTITLE:KOMBO.png;
#MUSIC:Bittersweet symphony.mp3;
#OFFSET:-0.040;
#SAMPLESTART:90.320;
#SAMPLELENGTH:12.000;
#SELECTABLE:YES;
#BPMS:0.000=85.340,32.000=170.680,96.000=85.340,160.000=170.680,288.000=85.340;
#STOPS:143.333=0.020
,143.667=0.020
;
#BGCHANGES:;
// cache tags:
#FIRSTBEAT:0.000;
#LASTBEAT:296.500;
#SONGFILENAME:Songs/Definitive Keyboard Megapack/BitterSweet symphony[KOMBO]/157400_bittersweetremix.sm;
#HASMUSIC:1;
#HASBANNER:1;
#MUSICLENGTH:149.760;
// end cache tags

//---------------dance-single - KOMBO----------------
#NOTES:
     dance-single:
     KOMBO:
     Hard:
     12:
     1.000,1.000,1.000,1.000,0.404,486.000,312.000,230.000,0.000,161.000:

0022
0000
0000
0033
0000
0000
0000
0000
0011
0000
0000
0000
0000
0000
0000
0000
0011
0000
0000
0000
0000
0000
0000
0000
2200
0000
0000
3300
0000
0000
0000
0000
1100
0000
0000
0000
0000
0000
0000
0000
1100
0000
0000
0000
0000
0000
0000
0000
,
0220
0000
0000
0330
0000
0000
0000
0000
0110
0000
0000
0000
0000
0000
0000
0000
0110
0000
0000
0000
0000
0000
0000
0000
2020
0000
0000
3030
0000
0000
0000
0000
1010
0000
0000
0000
0000
0000
0000
0000
1010
0000
0000
0000
0000
0000
0000
0000
,
0202
0000
0000
0303
0000
0000
0000
0000
0101
0000
0000
0000
0000
0000
0000
0000
0101
0000
0000
0000
0000
0000
0000
0000
0220
0000
0000
0330
0000
0000
0000
0000
0110
0000
0000
0000
0000
0000
0000
0000
0110
0000
0000
0000
0000
0000
0000
0000
,
2020
0000
0000
3030
0000
0000
0000
0000
1010
0000
0000
0000
0000
0000
0000
0000
1010
0000
0000
0000
0000
0000
0000
0000
0202
0000
0000
0303
0000
0000
0000
0000
0101
0000
0000
0000
0000
0000
0000
0000
0101
0000
0000
0000
0000
0000
0000
0000
,
2001
0000
0000
0000
0000
0000
0000
0000
0000
0000
0000
0000
0000
0000
0000
0000
0000
0000
0000
0000
0000
0000
0000
0000
0000
0000
0000
0000
0000
0000
0000
0000
0001
0000
0000
0000
0000
0000
0000
0000
0000
0000
0000
0000
0000
0000
0000
0000
0000
0000
0000
0000
0000
0000
0000
0000
0000
0000
0000
0000
0000
0000
0000
0000
0001
0000
0000
0000
0000
0000
0000
0000
0000
0000
0000
0000
0000
0000
0000
0000
0000
0000
0000
0000
0000
0000
0000
0000
0000
0000
0000
0000
0000
0000
0000
0000
3210
0000
0000
0000
0000
0000
0000
0000
0000
0000
0000
0000
0000
0000
0000
0000
0000
0000
0000
0000
0000
0000
0000
0000
0000
0000
0000
0000
0000
0000
0000
0000
0010
0000
0000
0000
0000
0000
0000
0000
0000
0000
0000
0000
0000
0000
0000
0000
0000
0000
0000
0000
0000
0000
0000
0000
0000
0000
0000
0000
0000
0000
0000
0000
0010
0000
0000
0000
0000
0000
0000
0000
0000
0000
0000
0000
0000
0000
0000
0000
0000
0000
0000
0000
0000
0000
0000
0000
0000
0000
0000
0000
0000
0000
0000
0300
,
0201
0000
0001
0000
0001
0000
1320
0000
1000
0000
1000
0000
,
2031
0000
0000
0000
0000
0000
0000
0000
0000
0000
0000
0000
0000
0000
0000
0000
0000
0000
0000
0000
0000
0000
0000
0000
0000
0000
0000
0000
0000
0000
0000
0000
0001
0000
0000
0000
0000
0000
0000
0000
0000
0000
0000
0000
0000
0000
0000
0000
0000
0000
0000
0000
0000
0000
0000
0000
0000
0000
0000
0000
0000
0000
0000
0000
0001
0000
0000
0000
0000
0000
0000
0000
0000
0000
0000
0000
0000
0000
0000
0000
0000
0000
0000
0000
0000
0000
0000
0000
0000
0000
0000
0000
0000
0000
0000
0000
3210
0000
0000
0000
0000
0000
0000
0000
0000
0000
0000
0000
0000
0000
0000
0000
0000
0000
0000
0000
0000
0000
0000
0000
0000
0000
0000
0000
0000
0000
0000
0000
0010
0000
0000
0000
0000
0000
0000
0000
0000
0000
0000
0000
0000
0000
0000
0000
0000
0000
0000
0000
0000
0000
0000
0000
0000
0000
0000
0000
0000
0000
0000
0000
0010
0000
0000
0000
0000
0000
0000
0000
0000
0000
0000
0000
0000
0000
0000
0000
0000
0000
0000
0000
0000
0000
0000
0000
0000
0000
0000
0000
0000
0000
0000
0300
,
0201
0000
0001
0000
0001
0000
1320
0000
1000
0000
1000
0000
,
1031
0000
0000
0000
1100
0000
0000
0000
0011
0000
0000
0000
1010
0000
0100
0000
0011
0000
0100
0000
1010
0000
0000
0000
0222
0333
0000
0000
1001
0000
0100
0000
,
1010
0000
0000
0000
0010
0000
0000
0000
2220
3330
0000
0000
0011
0000
0100
0000
1001
0000
0010
0000
1001
0000
0000
0000
0222
0333
0000
0000
1100
0000
0001
0000
,
0110
0000
0000
0000
1010
0000
0000
0000
2202
3303
0000
0000
0110
0000
1000
0000
0011
0000
0100
0000
1001
0000
0000
0000
2220
3330
0000
0000
1001
0000
0100
0000
,
0011
0000
0000
0000
0011
0000
0000
0000
2000
3000
0000
0000
0011
0000
0000
0000
0001
0000
0000
0000
1100
0000
0001
0000
0110
0000
1000
0000
0011
0000
0100
0000
,
1010
0000
0000
0000
0001
0000
0000
0000
1100
0000
0000
0000
0011
0000
0100
0000
1010
0000
0100
0000
0011
0000
0000
0000
2202
3303
0000
0000
1100
0000
0001
0000
,
1010
0000
0000
0000
0100
0000
0000
0000
2022
3033
0000
0000
0110
0000
1000
0000
0011
0000
1000
0000
0110
0000
0000
0000
2202
3303
0000
0000
0011
0000
0100
0000
,
1010
0000
0000
0000
0011
0000
0000
0000
2220
3330
0000
0000
0011
0000
1000
0000
0110
0000
0001
0000
1100
0000
0000
0000
0101
0000
0000
0000
0011
0000
1000
0000
,
0101
0000
1010
0000
1001
0000
1001
0000
0110
1000
0101
0010
1100
0010
0101
1000
,
0011
0000
0000
0000
1001
0000
0000
0000
1100
0000
0000
0000
1100
0000
0010
0000
0101
0000
0010
0000
1100
0000
0000
0000
2220
3330
0000
0000
0101
0000
0010
0000
,
1100
0000
0000
0000
0011
0000
0000
0000
0222
0333
0000
0000
1001
0000
0010
0000
1001
0000
0100
0000
0011
0000
0000
0000
2202
3303
0000
0000
1010
0000
0001
0000
,
0110
0000
0000
0000
1001
0000
0000
0000
2022
3033
0000
0000
1010
0000
0001
0000
0110
0000
1000
0000
0011
0000
0000
0000
2202
3303
0000
0000
0110
0000
0001
0000
,
1100
0000
0000
0000
1100
0000
0000
0000
0020
0030
0000
0000
1001
0000
0100
0000
1010
0000
0100
0000
0011
0000
1000
0000
0101
0000
0010
0000
1001
0000
0100
0000
,
1010
0000
0000
0000
1001
0000
0000
0000
0011
0000
0000
0000
0011
0000
0100
0000
1010
0000
0100
0000
0011
0000
0000
0000
0222
0333
0000
0000
1010
0000
0100
0000
,
0011
0000
0000
0000
1100
0000
0000
0000
2220
3330
0000
0000
1001
0000
0100
0000
1001
0000
0010
0000
1100
0000
0000
0000
2022
3033
0000
0000
0101
0000
1000
0000
,
0110
0000
0000
0000
1001
0000
0000
0000
2202
3303
0000
0000
0011
0000
1000
0000
0110
0000
0001
0000
1100
0000
0000
0000
2022
3033
0000
0000
0110
0000
1000
0000
,
0011
0000
0000
0000
0011
0000
0000
0000
0200
0300
0000
0000
1001
0000
0010
0000
0101
0000
0010
0000
1100
0000
0001
0000
1010
0000
0100
0000
1001
0000
0010
0000
,
2000
0000
0000
0000
0000
0000
0000
0000
0000
0000
0000
0000
0000
0000
0000
0000
0000
0000
0000
0000
0000
0000
0000
0000
0000
0000
0000
0000
0000
0000
0000
0000
0000
0000
0000
0000
0000
0000
0000
0000
0000
0000
0000
0000
0000
0000
0000
0000
0000
0000
0000
0000
0000
0000
0000
0000
0000
0000
0000
0000
0000
0000
0000
0000
0000
0000
0000
0000
0000
0000
0000
0000
0000
0000
0000
0000
0000
0000
0000
0000
0000
0000
0000
0000
0000
0000
0000
0000
0000
0000
0000
0000
0000
0000
0000
0000
3020
0000
0000
0000
0000
0000
0000
0000
0000
0000
0000
0000
0000
0000
0000
0000
0000
0000
0000
0000
0000
0000
0000
0000
0000
0000
0000
0000
0000
0000
0000
0000
0000
0000
0000
0000
0000
0000
0000
0000
0000
0000
0000
0000
0000
0000
0000
0000
0000
0000
0000
0000
0000
0000
0000
0000
0000
0000
0000
0000
0000
0000
0000
0000
0000
0000
0000
0000
0000
0000
0000
0000
0000
0000
0000
0000
0000
0000
0000
0000
0000
0000
0000
0000
0000
0000
0000
0000
0000
0000
0000
0000
0000
0000
0000
0030
,
0020
0000
2030
0000
,
3002
0000
0000
0000
0000
0000
0000
0000
0000
0000
0000
0000
0000
0000
0000
0000
0000
0000
0000
0000
0000
0000
0000
0000
0000
0000
0000
0000
0000
0000
0000
0000
0000
0000
0000
0000
0000
0000
0000
0000
0000
0000
0000
0000
0000
0000
0000
0000
0000
0000
0000
0000
0000
0000
0000
0000
0000
0000
0000
0000
0000
0000
0000
0000
0000
0000
0000
0000
0000
0000
0000
0000
0000
0000
0000
0000
0000
0000
0000
0000
0000
0000
0000
0000
0000
0000
0000
0000
0000
0000
0000
0000
0000
0000
0000
0000
2003
0000
0000
0000
0000
0000
0000
0000
0000
0000
0000
0000
0000
0000
0000
0000
0000
0000
0000
0000
0000
0000
0000
0000
0000
0000
0000
0000
0000
0000
0000
0000
0000
0000
0000
0000
0000
0000
0000
0000
0000
0000
0000
0000
0000
0000
0000
0000
0000
0000
0000
0000
0000
0000
0000
0000
0000
0000
0000
0000
0000
0000
0000
0000
0000
0000
0000
0000
0000
0000
0000
0000
0000
0000
0000
0000
0000
0000
0000
0000
0000
0000
0000
0000
0000
0000
0000
0000
0000
0000
0000
0000
0000
0000
0000
3000
,
2000
0000
3020
0000
,
2030
0000
0000
0000
0000
0000
0000
0000
0000
0000
0000
0000
0000
0000
0000
0000
0000
0000
0000
0000
0000
0000
0000
0000
0000
0000
0000
0000
0000
0000
0000
0000
0000
0000
0000
0000
0000
0000
0000
0000
0000
0000
0000
0000
0000
0000
0000
0000
0000
0000
0000
0000
0000
0000
0000
0000
0000
0000
0000
0000
0000
0000
0000
0000
0000
0000
0000
0000
0000
0000
0000
0000
0000
0000
0000
0000
0000
0000
0000
0000
0000
0000
0000
0000
0000
0000
0000
0000
0000
0000
0000
0000
0000
0000
0000
0000
3020
0000
0000
0000
0000
0000
0000
0000
0000
0000
0000
0000
0000
0000
0000
0000
0000
0000
0000
0000
0000
0000
0000
0000
0000
0000
0000
0000
0000
0000
0000
0000
0000
0000
0000
0000
0000
0000
0000
0000
0000
0000
0000
0000
0000
0000
0000
0000
0000
0000
0000
0000
0000
0000
0000
0000
0000
0000
0000
0000
0000
0000
0000
0000
0000
0000
0000
0000
0000
0000
0000
0000
0000
0000
0000
0000
0000
0000
0000
0000
0000
0000
0000
0000
0000
0000
0000
0000
0000
0000
0000
0000
0000
0000
0000
0030
,
0020
0000
2030
0000
,
3002
0000
0000
0000
0000
0000
0000
0000
0000
0000
0000
0000
0000
0000
0000
0000
0000
0000
0000
0000
0000
0000
0000
0000
0000
0000
0000
0000
0000
0000
0000
0000
0000
0000
0000
0000
0000
0000
0000
0000
0000
0000
0000
0000
0000
0000
0000
0000
0000
0000
0000
0000
0000
0000
0000
0000
0000
0000
0000
0000
0000
0000
0000
0000
0000
0000
0000
0000
0000
0000
0000
0000
0000
0000
0000
0000
0000
0000
0000
0000
0000
0000
0000
0000
0000
0000
0000
0000
0000
0000
0000
0000
0000
0000
0000
0000
2003
0000
0000
0000
0000
0000
0000
0000
0000
0000
0000
0000
0000
0000
0000
0000
0000
0000
0000
0000
0000
0000
0000
0000
0000
0000
0000
0000
0000
0000
0000
0000
0000
0000
0000
0000
0000
0000
0000
0000
0000
0000
0000
0000
0000
0000
0000
0000
0000
0000
0000
0000
0000
0000
0000
0000
0000
0000
0000
0000
0000
0000
0000
0000
0000
0000
0000
0000
0000
0000
0000
0000
0000
0000
0000
0000
0000
0000
0000
0000
0000
0000
0000
0000
0000
0000
0000
0000
0000
0000
0000
0000
0000
0000
0000
3000
,
2000
0000
3020
0000
,
0030
0000
2000
0000
3020
0000
0230
0000
0302
0000
2003
0000
3020
0000
0000
0030
,
2000
0000
3020
0000
0032
0000
0000
0003
0002
0000
0023
0000
2030
0000
0000
0000
,
3000
0000
2000
0000
3020
0000
0230
0000
0302
0000
2003
0000
3020
0000
0000
0030
,
2000
0000
3020
0000
0032
0000
0000
0003
0002
0000
0023
0000
2030
0000
0000
0000
,
3011
0000
2001
0000
3021
0000
0231
0000
1302
0000
2003
0000
3020
0000
1000
0030
,
2100
3120
0132
0103
0012
0023
2030
3010
,
0001
0001
2001
0001
3121
0100
0230
0010
0312
0010
2013
0100
3120
0001
0001
0031
,
2001
0010
0100
0001
3020
1000
0001
1000
0032
0100
0010
1000
0010
1000
0103
0010
0002
0100
1000
0100
0023
0100
0001
0100
2030
0000
0011
0000
3011
0000
0011
0000
,
2200
3300
0000
0000
2011
0000
0000
0000
3020
0000
1001
0000
1231
0000
0000
0000
,
1302
0000
1123
0000
0230
1001
0011
0300
,
2001
0000
3211
0000
0302
1100
0110
0003
,
0012
0000
1213
0000
2300
0011
0110
0000
,
3202
0303
0000
0000
1201
0000
0000
0000
2300
0000
0101
0000
3121
0000
0000
0000
,
0132
0000
2113
0000
3020
0101
1001
0030
,
0201
0000
1321
0000
0032
0110
1010
0003
,
1002
0000
1123
0000
0230
1001
1010
0000
,
2302
3003
0000
0000
1102
0000
0000
0000
0203
0000
1001
0000
1321
0000
0000
0000
,
2031
0000
3211
0000
0320
1001
1100
0030
,
1102
0000
1123
0000
2030
0011
0110
3000
,
2101
0000
3021
0000
0032
1100
0110
0000
,
2203
3300
0000
0000
2011
0000
0000
0000
3020
0000
1001
0000
1231
0000
0000
0000
,
1302
0000
1123
0000
0230
1001
0011
0300
,
2011
0000
3211
0000
0302
1100
0110
0003
,
1012
0000
1203
0000
2300
0011
0110
0000
,
3021
0000
1001
0000
0000
0101
1100
0000
,
2130
0000
0000
0000
0000
0000
0000
0000
0000
0000
0000
0000
0000
0000
0000
0000
0000
0000
0000
0000
0000
0000
0000
0000
0000
0000
0000
0000
0000
0000
0000
0000
0000
0000
0000
0000
0000
0000
0000
0000
0000
0000
0000
0000
0000
0000
0000
0000
0110
0000
0000
0000
0000
0000
0000
0000
0000
0000
0000
0000
0000
0000
0000
0000
0000
0000
0000
0000
0000
0000
0000
0000
0000
0000
0000
0000
0000
0000
0000
0000
0000
0000
0000
0000
0000
0000
0000
0000
0000
0000
0000
0000
0000
0000
0000
0000
0000
0000
0000
0000
0000
0000
0000
0000
0000
0000
0000
0000
0000
0000
0000
0000
0000
0000
0000
0000
0000
0000
0000
0000
0011
0000
0000
0000
0000
0000
0000
0000
0000
0000
0000
0000
0000
0000
0000
0000
0000
0000
0000
0000
0000
0000
0000
0000
0101
0000
0000
0000
0000
0000
0000
0000
0000
0000
0000
0000
0000
0000
0000
0000
0000
0000
0000
0000
0000
0000
0000
0000
0000
0000
0000
0000
0000
0000
0000
0000
0000
0000
0000
0000
0000
0000
0000
0000
0000
0000
0000
0000
0000
0000
0000
3000
,
2011
0000
0110
0000
0000
0011
0110
0000
,
3012
0000
1010
0000
0000
1100
1010
0000
,
0213
0000
1001
0000
0000
1010
0011
0000
,
0312
0000
0000
0000
0000
0000
0000
0000
0000
0000
0000
0000
0000
0000
0000
0000
0000
0000
0000
0000
0000
0000
0000
0000
0000
0000
0000
0000
0000
0000
0000
0000
0000
0000
0000
0000
0000
0000
0000
0000
0000
0000
0000
0000
0000
0000
0000
0000
0110
0000
0000
0000
0000
0000
0000
0000
0000
0000
0000
0000
0000
0000
0000
0000
0000
0000
0000
0000
0000
0000
0000
0000
0000
0000
0000
0000
0000
0000
0000
0000
0000
0000
0000
0000
0000
0000
0000
0000
0000
0000
0000
0000
0000
0000
0000
0000
0000
0000
0000
0000
0000
0000
0000
0000
0000
0000
0000
0000
0000
0000
0000
0000
0000
0000
0000
0000
0000
0000
0000
0000
1100
0000
0000
0000
0000
0000
0000
0000
0000
0000
0000
0000
0000
0000
0000
0000
0000
0000
0000
0000
0000
0000
0000
0000
1010
0000
0000
0000
0000
0000
0000
0000
0000
0000
0000
0000
0000
0000
0000
0000
0000
0000
0000
0000
0000
0000
0000
0000
0000
0000
0000
0000
0000
0000
0000
0000
0000
0000
0000
0000
0000
0000
0000
0000
0000
0000
0000
0000
0000
0000
0000
0003
,
1102
0000
0110
0000
0000
1100
0110
0000
,
1203
0000
0011
0000
0000
0011
1001
0000
,
2301
0000
0110
0000
0000
0011
0101
0000
,
3201
0000
0000
0000
0000
0000
0000
0000
0000
0000
0000
0000
0000
0000
0000
0000
0000
0000
0000
0000
0000
0000
0000
0000
0000
0000
0000
0000
0000
0000
0000
0000
0000
0000
0000
0000
0000
0000
0000
0000
0000
0000
0000
0000
0000
0000
0000
0000
1001
0000
0000
0000
0000
0000
0000
0000
0000
0000
0000
0000
0000
0000
0000
0000
0000
0000
0000
0000
0000
0000
0000
0000
0000
0000
0000
0000
0000
0000
0000
0000
0000
0000
0000
0000
0000
0000
0000
0000
0000
0000
0000
0000
0000
0000
0000
0000
0000
0000
0000
0000
0000
0000
0000
0000
0000
0000
0000
0000
0000
0000
0000
0000
0000
0000
0000
0000
0000
0000
0000
0000
1010
0000
0000
0000
0000
0000
0000
0000
0000
0000
0000
0000
0000
0000
0000
0000
0000
0000
0000
0000
0000
0000
0000
0000
0011
0000
0000
0000
0000
0000
0000
0000
0000
0000
0000
0000
0000
0000
0000
0000
0000
0000
0000
0000
0000
0000
0000
0000
0000
0000
0000
0000
0000
0000
0000
0000
0000
0000
0000
0000
0000
0000
0000
0000
0000
0000
0000
0000
0000
0000
0000
0300
,
1210
0000
1001
0000
0000
1010
1001
0000
,
1320
0000
1100
0000
0000
0101
1100
0000
,
1230
0000
0011
0000
0000
0011
1010
0000
,
2301
0000
0000
0000
0000
0000
0000
0000
0000
0000
0000
0000
0000
0000
0000
0000
0000
0000
0000
0000
0000
0000
0000
0000
0000
0000
0000
0000
0000
0000
0000
0000
0000
0000
0000
0000
0000
0000
0000
0000
0000
0000
0000
0000
0000
0000
0000
0000
0110
0000
0000
0000
0000
0000
0000
0000
0000
0000
0000
0000
0000
0000
0000
0000
0000
0000
0000
0000
0000
0000
0000
0000
0000
0000
0000
0000
0000
0000
0000
0000
0000
0000
0000
0000
0000
0000
0000
0000
0000
0000
0000
0000
0000
0000
0000
0000
0000
0000
0000
0000
0000
0000
0000
0000
0000
0000
0000
0000
0000
0000
0000
0000
0000
0000
0000
0000
0000
0000
0000
0000
0011
0000
0000
0000
0000
0000
0000
0000
0000
0000
0000
0000
0000
0000
0000
0000
0000
0000
0000
0000
0000
0000
0000
0000
0101
0000
0000
0000
0000
0000
0000
0000
0000
0000
0000
0000
0000
0000
0000
0000
0000
0000
0000
0000
0000
0000
0000
0000
0000
0000
0000
0000
0000
0000
0000
0000
0000
0000
0000
0000
0000
0000
0000
0000
0000
0000
0000
0000
0000
0000
0000
3000
,
2011
0000
0110
0000
0000
0011
0110
0000
,
3012
0000
1010
0000
0000
1100
1010
0000
,
2203
0000
0000
3300
0000
0000
0000
0000
1100
0000
0000
0000
0000
0000
0000
0000
1100
0000
0000
0000
0000
0000
0000
0000
2020
0000
0000
3030
0000
0000
0000
0000
1010
0000
0000
0000
0000
0000
0000
0000
1010
0000
0000
0000
0000
0000
0000
0000
,
0220
0000
0000
0330
0000
0000
0000
0000
0110
0000
0000
0000
0000
0000
0000
0000
0110
0000
0000
0000
0000
0000
0000
0000
0202
0000
0000
0303
0000
0000
0000
0000
0101
0000
0000
0000
0000
0000
0000
0000
0101
0000
0000
0000
0000
0000
0000
0000
,
2002
3003
0000
0000
0000
0000
0000
0000
;
