#TITLE:Ub3R R4vE;
#SUBTITLE:;
#ARTIST:Rage;
#TITLETRANSLIT:;
#SUBTITLETRANSLIT:;
#ARTISTTRANSLIT:;
#CREDIT:;
#BANNER:uberrave-banner.PNG;
#BACKGROUND:uberrave-bg.png;
#LYRICSPATH:;
#CDTITLE:!joe.png;
#MUSIC:rage_Ub3R-R4vE!.mp3;
#OFFSET:-0.040;
#SAMPLESTART:90.500;
#SAMPLELENGTH:12.000;
#SELECTABLE:YES;
#BPMS:0.000=175.000,160.000=87.500,168.000=349.999,200.000=175.000;
#STOPS:215.938=5.640
;
#BGCHANGES:;
// cache tags:
#FIRSTBEAT:0.000;
#LASTBEAT:376.000;
#SONGFILENAME:Songs/mongol/uber rave/uberrave.sm;
#HASMUSIC:1;
#HASBANNER:1;
#MUSICLENGTH:133.075;
// end cache tags

//---------------dance-single - Copied from Copied f----------------
#NOTES:
     dance-single:
     Copied from Copied f:
     Challenge:
     10:
     1.000,1.000,0.827,0.398,1.000,1052.000,110.000,53.000,0.000,0.000:
1100
0100
0110
0010
0011
0001
1001
1000
,
1010
0100
0110
0010
0011
0010
0110
0100
,
0101
0000
0010
0000
1010
0000
0100
0000
0001
0010
0100
1000
0001
0010
0100
1000
,
0100
1000
0001
0010
0001
1000
0100
0010
0001
1000
0100
0001
0100
1000
0100
0010
,
0101
0010
0110
0100
1010
1000
1001
0010
,
0011
0100
1010
0010
0011
0010
0110
0100
,
1100
1000
0110
0001
0110
1000
1001
0001
,
1000
0100
1000
0001
0010
0001
1000
0100
1000
0100
0010
0001
0010
0100
0010
0001
,
2200
0000
0000
0000
0000
0000
0000
0000
0000
0000
0000
3300
2020
3030
0202
0303
,
0220
0000
0000
0330
2200
0000
0000
3300
0022
0000
0000
0033
0220
0000
0000
0330
,
2002
0000
0000
0000
0000
0000
0000
0000
0000
0000
0000
3003
0220
0000
0000
0330
,
0022
0000
0000
0000
0000
0000
0000
0000
0000
0000
0000
0033
0220
0000
0000
0330
,
2200
0000
0000
0000
0000
0000
0000
0000
0000
0000
0000
3300
2002
3003
2020
3030
,
2200
0000
0000
3300
0220
0000
0000
0330
0022
0000
0000
0033
0202
0000
0000
0303
,
1000
0100
1000
0100
0010
0001
0010
0100
1000
0010
1000
0010
1000
0100
0010
0001
,
1000
0100
1000
0100
1000
0010
0100
0001
0010
0100
0010
0001
0010
0001
0010
0100
,
1000
0000
0100
0000
1000
0000
0100
0000
0010
0100
0010
0000
0100
0000
1000
0000
,
0100
0010
0001
0000
0010
0000
0100
0000
1000
0010
0100
0000
0001
0000
0010
0000
,
0100
0001
0100
0000
0010
0000
1000
0000
0001
0010
0001
0010
0100
0010
0100
1000
,
0100
1000
0010
0100
0001
0100
0001
0010
0100
1000
0001
0010
0100
1000
0010
1000
,
0100
0010
0001
0000
0010
0000
0001
0000
1000
0100
0010
0000
0001
0010
0100
0000
,
1000
0000
0100
0000
0010
0000
0100
0000
1000
0001
1000
0000
0100
0010
0100
0000
,
0001
0000
0010
0000
0100
0000
1000
0000
0010
0100
0010
0000
1000
0100
1000
0000
,
0001
1000
0001
1000
0001
0010
0100
0010
0100
1000
0100
0010
0100
0010
0001
0010
,
0100
1000
0100
0000
0010
0001
0010
0000
0001
0010
0100
0000
1000
0100
0010
0000
,
1000
0100
1000
0000
0001
0010
0001
0000
1000
0001
1000
0000
0010
0100
0010
0000
,
1000
0100
0010
0100
1000
0100
0010
0001
0010
0001
1000
0100
0010
0001
0010
0001
,
1000
0100
0010
0001
0010
0001
1000
0001
0010
0001
0010
0001
1000
0010
1000
0010
,
1000
0100
0010
0001
1000
0100
0010
0001
1000
0100
0010
0001
1000
0100
0010
0001
,
1000
0010
0100
0001
1000
0010
0100
0001
1000
0010
0100
0001
0010
0100
1000
0100
,
1000
0100
0010
0001
0010
0100
0010
0001
0010
0100
1000
0100
0010
0100
1000
0100
,
1000
0100
0010
0100
0010
0001
0010
0001
0010
0100
0010
0001
0010
0100
0010
0100
,
1100
0100
0110
0010
0011
0001
1001
0100
,
1010
0010
0101
0001
0011
0010
0110
0100
,
1100
0000
1000
0000
0001
0010
0001
1000
0100
1000
0010
0100
0010
1000
0100
0010
,
0001
1000
0100
0010
0001
0100
0010
1000
0100
0010
0100
1000
0010
0100
0001
0010
,
1100
0100
0110
0100
1100
0100
1010
0010
,
0101
0001
1001
0010
0101
0001
0110
1000
,
1010
0010
0011
0010
0110
0100
1100
0100
,
0010
0001
0010
0100
1000
0100
1000
0100
0010
0100
0010
0001
0010
0100
0010
0100
,
2020
0000
0000
0000
0000
0000
3030
0000
0220
0000
0000
0000
0000
0000
0000
0330
,
0202
0000
0000
0303
0220
0000
0000
0330
,
1010
0100
0110
0010
,
0011
0010
0110
0100
,
1100
0100
1010
0010
,
0101
0001
1001
0100
,
1010
1000
1001
0001
,
0110
1000
1100
0100
,
1000
0100
0010
0000
0001
0010
0100
0000
,
1000
0100
1000
0100
0010
0001
0010
0100
,
2020
0000
0000
0000
0000
0000
0000
3030
,
2002
0000
0000
0000
0000
0000
0000
3003
,
0202
0000
0000
0000
0000
0000
0000
0303
,
2002
0000
0000
0000
0000
0000
0000
3003
,
1000
1100
0100
1010
0100
0110
0010
0011
,
0010
0110
0100
1100
1000
0110
0001
0110
,
0100
1010
1000
1001
1000
1100
0100
0110
,
0010
0011
0010
0110
0100
1100
0100
1010
,
0010
0101
1000
0011
1000
0110
1000
0101
,
0001
0011
0010
0110
0100
1100
0100
0110
,
0010
0011
0001
1001
1000
1100
0100
0110
,
0010
0000
0000
0000
0000
0000
0000
0000
0000
0000
0000
0000
0000
0000
1000
0100
,
1000
0100
0010
0100
0010
0001
0010
0001
0010
0100
1000
0100
0010
0100
1000
0010
,
0100
0001
0010
0100
1000
0100
0001
0100
1000
0100
1000
0100
0010
0001
0010
0001
,
1000
0100
1000
0010
0100
0001
0010
0001
1000
0100
1000
0010
0100
0010
1000
0010
,
0100
0001
0010
0100
0010
0001
0100
0010
1000
0100
0010
0100
1000
0100
0010
0100
,
0010
0100
0010
0001
0010
0001
0010
0001
0010
0100
1000
0100
1000
0100
0010
0100
,
1000
0100
0010
0001
0010
0100
0010
0001
0010
0100
1000
0100
0010
0100
1000
0100
,
0001
0010
0100
1000
0010
0100
0001
0010
0100
1000
0010
0100
0001
0010
0100
1000
,
0100
0010
0100
1000
0010
0100
0001
0010
0001
1000
0100
1000
0100
1000
0100
0010
,
0001
0100
0001
0100
0001
0100
0001
0100
0001
0100
0001
0010
0100
1000
0010
1000
,
0010
1000
0010
1000
0010
1000
0010
1000
0010
1000
0010
1000
0010
1000
0010
0100
,
0010
0100
0010
0100
0010
0100
0010
0100
0010
0100
0010
0100
0010
0100
0010
0001
,
0010
0001
0010
0001
0010
0001
0010
0001
0010
0001
0010
0001
0010
0001
0010
0100
,
0010
0100
1000
0100
1000
0100
0010
0100
0010
0001
0010
0001
0010
0001
1000
0001
,
1000
0100
1000
0100
0010
0100
0010
0100
1000
0100
1000
0100
0010
0100
0010
0100
,
0010
0001
0010
0001
0010
0100
0010
0100
0010
0001
1000
0001
1000
0100
1000
0100
,
1000
0010
1000
0010
0100
0001
0100
0001
0010
0100
1000
0100
0010
0001
0110
1000
,
0100
1000
0100
0010
0001
0010
0100
1000
0100
0010
0001
0100
0010
1000
0100
1000
,
0010
0100
0010
1000
0100
0010
0100
1000
0010
0100
0001
0010
0001
0100
0010
0100
,
0001
0010
0100
0010
0001
1000
0100
0010
0001
0010
0100
0010
0001
0100
0010
1000
,
0100
1000
0010
0100
0001
0100
0010
1000
0100
0010
0001
0100
0001
0010
0100
1000
,
0100
0001
0010
1000
0100
0001
0010
0100
1000
0001
0010
0100
1000
0100
0010
0001
,
0010
0100
1000
0100
1000
0001
0010
0100
1000
0100
0010
0001
0100
0010
1000
0010
,
0100
0001
0010
0001
1000
0100
1000
0001
0010
0001
1000
0001
1000
0010
0100
0010
,
1000
0001
1000
0100
0010
0001
1000
0100
0010
0001
0010
0100
1000
0001
0010
0100
,
1000
0100
0010
0001
1000
0100
0010
0001
1000
0100
0010
0001
0010
0001
1000
0100
,
0010
0100
1000
0001
0010
0100
0010
0001
0100
0010
1000
0100
1000
0001
0010
0001
,
1000
0100
0010
0001
0010
0100
1000
0001
0010
0100
1000
0100
0010
0001
1000
0100
,
0010
0001
0010
0100
1000
0100
0010
0100
0010
0001
0010
0100
0010
0100
0010
0001
,
0010
0100
0010
0100
1000
0100
0010
0001
0010
0100
1000
0100
0010
0100
0010
0001
,
0010
0100
0010
0100
1000
0100
0010
0100
0010
0001
0010
0100
1000
0100
1000
0001
,
0010
0001
0100
0010
1000
0010
0100
0001
0010
0001
1000
0100
1000
0001
1000
0100
,
0010
0100
1000
0010
1000
0100
0010
0001
0010
0001
0010
0100
1000
0010
2000
0000
,
3001
0000
0000
0000
;
