#TITLE:Yamato Nadeshiko;
#SUBTITLE:(Arch0wl edit);
#ARTIST:小坂りゆ;
#TITLETRANSLIT:;
#SUBTITLETRANSLIT:;
#ARTISTTRANSLIT:Riyu Kosaka;
#CREDIT:Arch0wl/Rebirth;
#BANNER:yamatonadeshikoa0-bn.png;
#BACKGROUND:yamatonadeshikoa0-bg.png;
#LYRICSPATH:;
#CDTITLE:!arch0wltitle.png;
#MUSIC:yamatonadeshikoa0.ogg;
#OFFSET:0.993;
#SAMPLESTART:34.930;
#SAMPLELENGTH:15.635;
#SELECTABLE:YES;
#BPMS:0.000=200.380,48.000=200.440,55.000=200.000,83.000=194.000,84.000=200.000,87.000=399.998,88.000=200.000,216.000=50.000,218.000=50.400,220.000=128.000,224.000=200.000;
#STOPS:87.000=0.160
;
#BGCHANGES:0.000=yamatonadeshikoa0-bg.png=1.000=0=0=1,
99999=-nosongbg-=1.000=0=0=0 // don't automatically add -songbackground-
;
// cache tags:
#FIRSTBEAT:4.000;
#LASTBEAT:324.000;
#SONGFILENAME:Songs/Archmage and Dark0wl Hammer of Thor UltraHyperMegaPack/Yamato Nadeshiko (Arch0wl edit)/yamatonadeshikoa0.sm;
#HASMUSIC:1;
#HASBANNER:1;
#MUSICLENGTH:105.000;
// end cache tags

//---------------dance-single - Arch0wl----------------
#NOTES:
     dance-single:
     Arch0wl:
     Hard:
     9:
     0.852,1.000,0.876,0.162,0.148,514.000,92.000,17.000,0.000,8.000:
0000
0000
0000
0000
,
2002
0000
0000
3003
,
0001
0010
0100
0000
1000
0000
0001
0010
0100
1000
0001
0000
1000
0000
0000
0000
,
0010
1000
0001
0000
0100
0000
0010
1000
0001
0100
0010
0000
1000
0000
0000
0000
,
0001
0100
0010
0000
1000
0000
0001
0100
0010
1000
0001
0000
1000
0000
0000
0000
,
0001
1000
0100
0000
0010
0000
0001
1000
0100
0010
0001
0000
1000
0000
0000
0000
,
0001
0000
0100
0010
0100
0000
0001
0000
0010
0100
0010
0000
0001
0000
1000
0000
,
0010
0000
0100
1000
0100
0000
0010
0000
1000
0100
1000
0000
0010
0000
1000
0000
,
0001
0000
1000
0100
1000
0000
0001
0000
0100
1000
0100
0000
0010
0000
1000
0000
,
0100
0000
0010
1000
0010
0000
0100
0000
1000
0010
1000
0000
0100
0000
1000
0000
,
0001
0010
0100
0010
0100
0010
0100
0010
1000
0000
0010
0000
0001
0000
1000
0000
,
0010
0100
0010
0100
0010
0100
0010
0100
1000
0000
0100
0000
0010
0000
0101
0000
,
1010
0000
1010
0000
,
1010
0101
0011
1101
,
1000
0000
1010
0000
1001
0000
0001
0100
,
0000
0001
0100
0010
1000
0100
0011
0000
,
0001
0000
0101
0000
1001
0000
1000
0010
,
0000
1000
0010
0100
0001
0010
1100
0000
,
1000
0000
1010
0000
1001
0000
0001
0010
,
0000
0001
0010
0100
1000
0010
1001
0000
,
0010
0100
0010
0000
1001
0000
0000
0000
0010
0100
0010
0000
1001
0000
0000
0000
,
0022
0033
0022
0033
0022
0000
0133
0000
,
1001
0000
1100
0000
0011
0000
0010
0001
,
0000
0001
0100
0001
0010
1000
1010
0000
,
0001
0000
0101
0000
1010
0000
0100
0010
,
0000
0010
1000
0100
0001
0100
0101
0000
,
1100
0000
0011
0000
0101
0000
0100
1010
,
0000
1010
0101
0011
,
0200
0000
0020
0000
,
2000
0000
3331
0000
,
0010
1000
0010
0100
0010
1000
0010
0100
,
0010
0001
0100
0010
1000
0101
0010
1000
,
0100
0010
0100
1000
0100
0010
0100
1000
,
0001
0100
0010
1000
0100
0011
0100
1000
,
0001
0100
0001
0100
0001
0100
0001
0100
,
0010
0100
0010
0100
0010
0100
0010
0100
,
1000
0100
1000
0100
1000
0100
1000
0100
,
1000
0100
0001
0010
0100
1000
0010
0100
,
0001
0010
1000
0010
0001
0100
1000
0100
,
0001
0010
1000
0010
0001
0100
1000
0100
,
0001
0001
0001
0001
0001
0001
1000
0001
,
0001
0001
0001
0001
0001
0001
0001
0001
,
0001
0000
0000
0000
0000
0000
0000
0000
0001
0100
1000
0000
0000
0000
0000
0000
,
1001
1001
1001
1001
,
0110
0110
0110
0110
,
0101
0101
0101
0101
,
1001
1001
1001
1001
,
1001
0110
0000
0000
0000
0000
0000
0000
,
1001
0110
0000
0000
0000
1001
0000
1001
,
0110
1001
0000
0000
0000
0000
1001
0000
,
0000
1001
0000
0110
0000
1001
0000
1001
,
0110
1000
0010
1000
0010
1000
0010
1000
,
0100
0001
0100
0001
0100
0001
0100
0001
,
1100
0000
0010
1100
0000
0010
1100
0000
,
1210
0000
0000
0000
,
2000
0000
0020
0000
,
3331
0100
1000
0001
0010
1000
0001
0100
,
1000
0001
0010
0100
0010
0001
0010
1000
,
0001
0100
1000
0001
0010
1000
0001
0100
,
1000
0010
0100
0001
0100
1000
0100
0010
,
1000
0100
0010
0100
0010
1000
0001
1000
,
0010
0100
0010
0100
0010
1000
0001
1000
,
0001
1000
0010
0100
0001
0100
0010
0100
,
1000
0100
1000
0010
1000
0001
1000
0010
,
0100
1000
0001
0010
1000
0001
0100
1000
,
0001
0010
1000
0100
0010
0001
0010
1000
,
0001
0100
0001
0100
0001
0100
0010
1000
,
0010
1000
0010
0001
0100
1000
0100
0010
,
1000
0100
0001
0100
1000
0100
0100
0100
,
0010
0100
0100
0100
0010
0100
0100
0100
,
0010
1000
0010
1000
0010
1000
0010
0001
,
0100
1000
0100
1000
0001
0010
0001
0010
,
1001
0000
1000
0100
0010
0001
1000
0000
,
0100
0001
0100
0010
0100
0001
1000
0000
,
0011
0000
0001
0100
0010
1000
0001
0000
,
0010
1000
0010
0001
0010
1000
0011
1100
,
1001
1001
1001
1001
,
0011
0011
0011
0011
,
0110
0110
0110
0110
,
0110
0110
0110
2022
,
0033
0000
0000
0000
,
3000
0000
0000
0000
;

//---------------dance-single - Arch0wl/Rebirth----------------
#NOTES:
     dance-single:
     Arch0wl/Rebirth:
     Challenge:
     15:
     1.000,1.000,0.695,0.181,1.000,1003.000,73.000,19.000,0.000,9.000:
0000
0000
0000
0000
,
2002
0000
0000
3003
,
0001
0010
0100
1000
0001
0000
1000
0100
0010
0001
1000
0000
0001
0000
0100
0000
,
0010
1000
0001
0100
0010
0000
0100
0001
1000
0010
0100
0000
0001
0000
0000
0000
,
1010
0100
0001
0010
0100
0000
1000
0001
0100
0010
1000
0000
0001
0000
0010
0000
,
0101
1000
0001
0100
0010
0000
1000
0010
0100
0001
1000
0000
0001
0000
0000
0000
,
0110
0001
1000
0100
0010
0000
0100
1000
0001
0100
0010
0000
1000
0000
0100
0000
,
0010
0001
0010
0100
1000
0000
0001
0100
0010
1000
0001
0000
0010
0000
0100
0000
,
1000
0100
0010
0001
0100
0010
1000
0001
0100
0000
0010
0000
1000
0000
0100
0000
,
1000
0010
0100
0001
0100
0010
1000
0001
0010
0000
0100
0000
1000
0000
0010
0000
,
1001
0010
0100
0010
0100
0010
0100
0010
1000
0000
0100
0000
0010
0000
0001
0000
,
0010
0100
0010
0100
0010
0100
0010
0100
1000
0000
0100
0000
0010
0000
0001
0000
,
0001
0100
0010
0100
0010
0100
0010
0100
0001
0100
0010
0100
0010
0100
0010
0100
,
0001
0010
0001
0010
0100
1000
0100
1000
0010
0100
0010
0100
1001
0000
0000
0000
,
1001
0100
0010
0001
0010
0100
1000
0010
1010
0000
0101
0000
0011
0000
1100
0000
,
1000
0001
1000
0100
0010
0100
1000
0001
1000
0010
1000
0000
0011
0000
0100
0000
,
0010
0100
1000
0001
0010
0001
1000
0100
0010
0001
0100
0000
1010
0000
1001
0000
,
0100
0010
1000
0001
1000
0100
0010
0001
0100
0010
0100
0000
1010
0000
0110
0000
,
1001
0100
0010
1000
0010
0100
0001
0100
1010
0000
0101
0000
0011
0000
1100
0000
,
0001
0010
0100
1000
0001
0100
0001
0010
0100
0010
0001
0000
0101
0000
1010
0000
,
0100
0010
1000
0001
0100
0010
1000
0001
1000
0100
0010
0001
1001
0000
0000
0000
,
0122
0033
0122
0033
0122
0033
1000
0000
,
1001
0010
0100
1000
0100
0010
0001
0100
0101
0000
1010
0000
1100
0000
0011
0000
,
0001
1000
0001
0010
0100
0010
0001
1000
0001
0100
0001
0000
1100
0000
0010
0000
,
0100
0010
0001
1000
0100
1000
0001
0010
0100
1000
0010
0000
0101
0000
1001
0000
,
0010
0100
0001
1000
0001
0010
0100
1000
0010
0100
0010
0000
0101
0000
0000
0000
,
1001
0010
0100
1000
0100
0010
0001
0100
0101
0000
1010
0000
1100
0000
0011
0000
,
0001
1000
0001
0010
0100
0010
0001
0100
1010
0000
0101
0000
0011
0000
1100
0000
,
0100
0010
0001
1000
0100
1000
0001
0010
0100
1000
0010
0000
0101
0000
0000
0000
,
2120
3030
2120
3030
2120
3030
0001
0000
,
1000
0100
0010
0100
1000
0001
0010
0001
1000
0010
0100
0010
1000
0100
0010
0100
,
1000
0001
0010
0100
1000
0010
0100
0001
0010
0100
1000
0010
1000
0100
1000
0010
,
0100
0001
0010
0001
1000
0100
0010
0100
1000
0001
0010
0001
0100
0010
1000
0010
,
0100
0001
0010
0100
1000
0010
0100
0001
0010
0100
1000
0010
1000
0100
1000
0010
,
1000
0100
0010
0001
1000
0100
0010
0001
1000
0100
0010
0001
1000
0100
0010
0001
,
1000
0010
0100
0001
1000
0010
0100
0001
1000
0010
0100
0001
1000
0010
0100
0001
,
1000
0100
0010
0001
1000
0010
0100
0001
1000
0100
0010
0001
1000
0010
0100
0001
,
1000
0100
0010
0001
0100
0010
1000
0100
0010
0001
0100
0010
1000
0100
0010
0001
,
1000
0100
1000
0100
1000
0100
1000
0100
0010
0001
0010
0001
0010
0001
0010
0001
,
1000
0100
1000
0100
1000
0100
1000
0100
0010
0001
0010
0001
0010
0001
0010
0001
,
0100
0010
0100
0010
0100
0010
0100
0010
0100
0010
0100
0010
1000
0001
0100
0010
,
0100
0010
0100
0010
0100
0010
0100
0010
0100
0010
0100
0010
0100
0010
0100
0010
,
0100
0000
0000
0000
0000
0000
0000
0000
0001
0100
0010
1000
0101
0000
0000
0000
,
1001
0000
0100
0000
0001
0100
0001
0000
0001
0100
0001
0000
0001
0100
0001
0000
,
1000
0100
1000
0000
1000
0100
1000
0000
1000
0100
1000
0000
1000
0100
1000
0000
,
0001
0010
0001
0000
0001
0010
0001
0000
0001
0010
0001
0000
0001
0010
0001
0000
,
1000
0010
1000
0000
1000
0010
1000
0000
1000
0010
1000
0000
1000
0010
1000
0000
,
0011
0000
1001
0000
0100
0010
1000
0001
0010
0100
1000
0000
0010
0000
0100
0000
,
0011
0000
1001
0000
0100
0010
0001
1000
0010
0100
0011
0000
0000
0000
0011
0000
,
1001
0011
0000
0000
0000
0000
0011
0000
,
0000
0011
0000
1001
0000
1010
0000
0101
,
1000
0100
1000
0000
0001
0100
0001
0000
1000
0100
1000
0000
0001
0100
0001
0000
,
1000
0010
1000
0000
0001
0010
0001
0000
1000
0010
1000
0000
0001
0010
0001
0100
,
1010
0000
0001
1010
0000
0001
1010
0000
,
0211
0000
0000
0000
,
1321
0000
0000
0000
0000
0000
0000
0000
1132
0000
0000
0000
0000
0000
0000
0003
,
1000
0100
0010
0001
0100
0010
1000
0100
0010
0001
0100
0010
1000
0100
0010
0001
,
0100
0010
1000
0100
0010
0001
0100
0001
0010
0100
1000
0100
0010
0001
0100
0001
,
0010
0100
1000
0010
0100
0001
0010
0100
1000
0010
0100
0001
0010
0100
1000
0010
,
0100
0001
0010
0100
1000
0010
0100
0010
1000
0100
0010
0100
1000
0010
0100
0010
,
1000
0001
0100
0001
0100
0001
0100
0001
0100
0001
1000
0001
1000
0001
1000
0001
,
0100
0001
0100
0001
0100
0001
0100
0001
0100
0001
1000
0001
1000
0001
1000
0001
,
0100
0001
0100
0001
1000
0100
0010
0001
1000
0100
0010
0001
1000
0100
0010
0001
,
1000
0010
0100
0001
1000
0010
0100
0010
1000
0001
0010
0001
1000
0010
0100
0010
,
1000
0100
0010
0001
0100
0010
1000
0100
0010
0001
0100
0010
1000
0100
0010
0001
,
0100
0010
1000
0100
0010
0001
0100
0001
0010
0100
1000
0100
0010
0001
0100
0001
,
0010
0100
0010
0100
0010
0100
0010
0100
0010
0100
0010
0100
1000
0100
1000
0100
,
1000
0100
1000
0100
1000
0001
0010
0001
0100
0010
1000
0010
0100
0001
0010
0001
,
1000
0010
1000
0010
1000
0010
1000
0010
1000
0010
0100
0001
0100
0001
0100
0001
,
1000
0010
0100
0001
0100
0001
0100
0001
1000
0010
0100
0001
0100
0001
1000
0010
,
1000
0100
0010
0100
1000
0100
0010
0100
1000
0100
0010
0100
1000
0001
0010
0001
,
1000
0100
0010
0001
1000
0100
0010
0001
1000
0010
0100
0001
1000
0010
0100
0001
,
1001
0100
0010
0001
1000
0000
0001
0010
0100
1000
0001
0000
1000
0000
0010
0000
,
0100
0001
1000
0010
0100
0000
0001
0010
0100
0010
0001
0000
1000
0000
0000
0000
,
0101
0010
1000
0001
0010
0000
0001
1000
0010
0000
0100
0010
1000
0000
0100
0000
,
0010
0001
1000
0010
0100
0000
0001
0100
0010
1000
0100
0000
0010
0100
0010
0100
,
0010
0001
0010
0001
0100
0001
0100
0001
0010
0001
0010
0001
0100
0001
0100
0001
,
1000
0010
1000
0010
0100
0010
0100
0010
1000
0010
1000
0010
0100
0001
1000
0001
,
1000
0100
0010
0001
1000
0010
0100
0001
1000
0100
0010
0001
1000
0010
0100
0001
,
1000
0100
0010
0001
1000
0010
0100
0001
1000
0100
0010
0001
2200
0000
0000
0000
,
0300
0000
0000
0000
,
3000
0000
0000
0000
;
