#TITLE:LOOK AT US;
#SUBTITLE:(Daddy DJ Remix);
#ARTIST:SARINA PARIS;
#TITLETRANSLIT:;
#SUBTITLETRANSLIT:;
#ARTISTTRANSLIT:;
#CREDIT:;
#BANNER:LOOK AT US (Daddy DJ Remix).png;
#BACKGROUND:LOOK AT US (Daddy DJ Remix)-bg.png;
#LYRICSPATH:;
#CDTITLE:;
#MUSIC:LOOK AT US (Daddy DJ Remix).ogg;
#OFFSET:-0.025;
#SAMPLESTART:57.450;
#SAMPLELENGTH:12.000;
#SELECTABLE:YES;
#DISPLAYBPM:135.000;
#BPMS:0.000=134.690;
#STOPS:;
#BGCHANGES:;
// cache tags:
#FIRSTBEAT:4.000;
#LASTBEAT:199.250;
#SONGFILENAME:Songs/DDR 4 ITG/LOOK AT US (Daddy DJ Remix)/LOOK AT US (Daddy DJ Remix).sm;
#HASMUSIC:1;
#HASBANNER:1;
#MUSICLENGTH:89.417;
// end cache tags

//---------------dance-single - ----------------
#NOTES:
     dance-single:
     :
     Beginner:
     1:
     0.134,0.137,0.000,0.000,0.000,84.000,0.000,0.000,0.000,0.000:





0000
0000
0000
0000
,
0000
0000
0000
0000
,
0000
0000
0000
0000
,
0001
0000
0000
0000
,
0001
0000
0001
0000
,
1000
0000
0000
0000
,
0001
0000
0000
0000
,
1000
0000
0000
0000
,
1000
0000
1000
0000
,
0001
0000
0000
0001
,
0001
0000
0000
1000
,
1000
0000
0000
1000
,
1000
0000
0000
0010
,
0010
0000
0000
0010
,
0010
0000
0000
0100
,
0100
0000
0000
0100
,
0100
0000
0000
0000
,
0000
0000
1000
1000
,
0000
0000
0010
0010
,
0000
0000
0001
0001
,
0000
0000
1000
1000
,
0000
0000
0100
0100
,
0000
0000
0001
0001
,
0000
0000
1000
1000
,
0000
0000
0000
0000
,
0001
0000
0000
0000
,
1000
0000
1000
1000
,
1000
0000
0000
0000
,
0100
0000
0100
0100
,
0100
0000
0000
0000
,
0010
0000
0010
0010
,
0010
0000
0000
0000
,
0001
0000
0000
0000
,
0001
0000
0000
0001
,
0001
0000
0000
0100
,
0100
0000
0000
1000
,
1000
0000
0000
0010
,
0010
0000
0000
1000
,
1000
0000
0000
0001
,
0001
0000
0000
0100
,
0100
0000
0100
0000
,
0001
0000
0000
0001
,
0001
0000
0000
0010
,
0010
0000
0000
1000
,
1000
0000
0000
0100
,
0100
0000
0000
0010
,
0010
0000
0000
1000
,
1000
0000
0000
0001
,
0001
0000
0100
0000
,
0100
0000
0000
0000
;

//---------------dance-single - ----------------
#NOTES:
     dance-single:
     :
     Easy:
     2:
     0.189,0.192,0.123,0.000,0.000,107.000,11.000,0.000,0.000,0.000:





0000
0000
0000
0000
,
0000
0000
0000
0000
,
0010
0000
0000
0000
,
0100
0000
0000
0000
,
0110
0000
0001
0000
,
1000
0000
0000
0000
,
0001
0000
0000
0000
,
1000
0000
0010
0000
,
1001
0000
0100
0000
,
1001
0001
0000
0001
,
0000
1000
0000
1000
,
0000
0010
0000
0010
,
0000
0100
0000
0100
,
0000
0001
0000
0100
,
0000
0010
0000
1000
,
0000
0010
0000
0100
,
0000
1001
0000
0110
,
0000
1000
1000
1000
,
0000
0010
0010
0010
,
0000
0001
0001
0001
,
0000
1000
1000
1000
,
0000
0100
0100
0100
,
0000
0001
0001
0001
,
0000
1000
0000
0100
,
0000
0001
0000
0100
,
1000
0000
0001
0001
,
0010
0000
1000
1000
,
0001
0000
1000
0000
,
0001
0000
1000
0001
,
0001
0100
0000
1000
,
0000
1000
0000
0100
,
0001
0000
1000
0000
,
0010
0000
0100
0100
,
0000
0010
0000
0001
,
0000
1000
0000
0100
,
0000
1001
0000
0100
,
0000
1001
0000
0010
,
0000
1000
0000
1000
,
0000
0001
0000
0001
,
0000
0110
0000
1001
,
0000
0110
0000
1001
,
0000
0001
0100
1000
,
0000
1000
0001
0100
,
0000
0100
0010
0001
,
0000
0001
1000
0100
,
0000
0010
0000
0010
,
0000
0100
0000
0100
,
0000
0001
0000
1000
,
0000
0010
0000
0100
,
0100
0000
0000
0000
;

//---------------dance-single - ----------------
#NOTES:
     dance-single:
     :
     Medium:
     6:
     0.359,0.445,0.447,0.089,0.000,177.000,40.000,8.000,0.000,0.000:





0000
0000
0000
0000
,
0000
0000
0000
0000
,
0101
0000
1000
0100
,
0101
0000
1100
0000
,
1001
0000
1000
0001
,
0100
0000
0100
1000
,
0001
0000
0001
0100
,
2002
0000
0000
3003
,
0001
0011
1000
1100
,
0001
0001
1000
1000
,
0001
0010
1000
0100
,
0010
0010
0100
0100
,
0010
1000
0100
0001
,
0002
0003
0200
0300
,
1000
1100
0001
0011
,
0110
0110
1001
1001
,
0220
0000
0000
0330
,
0001
0000
0001
0100
,
1000
0000
1000
0100
,
0010
0000
0010
0001
,
0100
0000
0100
1000
,
0001
0000
0001
0100
,
1001
0000
0100
0001
,
1000
0000
0011
1100
,
0010
0000
1010
0000
0101
0000
0001
1000
,
0001
0010
0000
0010
0000
0001
0000
0010
,
0000
1000
0000
1100
0000
0001
0000
0101
,
0000
0100
0000
0100
0000
1000
0000
0100
,
0000
0101
0000
0101
0000
1010
0000
1010
,
0000
0001
0000
0100
0000
1000
0000
0001
,
0000
1000
0000
0100
0000
0001
0000
1000
,
0000
0010
0000
1000
0001
0000
0010
0000
,
0011
0011
1100
1100
,
0001
0000
0100
0000
1000
0001
0100
0000
,
1000
0000
0100
0000
0001
1000
0100
0000
,
0010
0010
0100
0100
,
1000
1010
0001
0011
,
0010
0000
1000
0000
0100
1000
0010
0000
,
0100
0000
0001
0000
0100
0001
0010
0000
,
0001
0001
1000
1000
,
0010
0001
1000
0100
,
0100
1000
0000
1100
0000
0001
0000
0101
,
0000
0010
0000
1010
0000
0100
0000
0101
,
0000
0001
0000
0010
0000
0100
0000
1000
,
0100
1000
0000
0100
0000
0010
0000
0001
,
0000
1000
0000
0100
0000
0001
0000
0011
,
0000
0001
0000
0010
0000
1000
0000
1100
,
0000
0001
0000
1000
0010
1000
0001
0000
,
0001
1010
1000
0101
,
2002
0000
0000
3003
;

//---------------dance-single - ----------------
#NOTES:
     dance-single:
     :
     Hard:
     7:
     0.506,0.501,0.134,0.123,0.229,294.000,12.000,11.000,0.000,0.000:




0000
0000
0000
0000
,
0000
0000
0000
0000
,
0020
0030
0001
0100
,
2000
3000
0200
0300
,
1002
0003
2000
3001
,
1000
0000
0000
0000
0100
0000
0000
0001
,
0100
0000
0000
0020
0000
0030
0000
1000
,
0100
0000
0000
0020
0000
0030
0000
0001
,
0100
0001
0100
1000
,
0100
0000
0001
0010
0001
1000
0100
0010
,
0001
0000
1000
0100
0000
0010
0001
1000
,
0100
1000
0000
0001
0000
1000
0100
0000
,
1001
0000
1000
0100
1000
0001
0010
0100
,
1000
0000
0001
0100
0010
1000
0001
1000
,
0100
0000
1000
0100
0000
0001
0100
0000
,
0010
0100
0000
0010
0000
1000
0100
0000
,
2002
0003
0100
3001
,
0001
0000
0001
0000
0100
0001
0000
0000
1000
0000
0000
1000
0000
0000
0100
0000
,
1000
0000
0001
0000
1000
0100
0000
0000
0001
0000
0000
0001
0000
0000
0100
0000
,
0001
0000
1000
0000
0001
0100
0000
0000
0010
0000
0000
0010
0000
0010
1000
0000
,
0001
0000
0100
0000
0000
0100
0000
0000
0001
0000
0000
0001
0000
0100
0001
0000
,
1000
0000
1000
0000
0000
0100
0000
0000
0010
0000
0000
0010
0000
0000
0001
0000
,
1000
0000
0001
0000
0100
0001
0000
0000
0010
0000
0000
1000
0000
0000
0001
0000
,
0100
0000
0001
0000
1000
0100
0000
0000
1000
0000
0000
0001
0000
0001
0100
0000
,
0100
0000
0001
0000
0001
0010
0000
0000
0001
0000
0000
0100
0000
0000
0010
0000
,
1000
0000
0010
0000
1000
0000
0100
0000
0010
0000
0000
0001
0000
0000
0100
0001
,
0100
0000
0010
0000
1000
0000
0100
0000
1000
0000
0000
1000
0000
0000
0010
0100
,
0010
0000
0001
0000
0100
0000
0001
0000
0010
0000
0000
0001
0000
0000
1000
0100
,
1000
0000
0010
0000
0100
0000
0001
0000
0010
0000
0000
0100
0000
0000
1000
0100
,
1000
0000
0100
0000
1000
0000
0001
0000
0100
0000
0001
0010
0000
0000
0001
0000
,
0100
0000
0010
0000
0100
0000
0001
0000
1000
0000
0001
0100
0000
0000
0010
0000
,
1000
0000
0001
0000
0100
0000
0001
0000
1000
0000
0010
0100
0000
0000
0001
0000
,
0001
0011
1000
1100
,
1001
0000
0010
1000
0100
1000
0001
0100
,
0010
0000
1000
0100
0000
0010
0001
0100
,
0001
1000
0000
1000
0000
0001
0100
0000
,
0101
0000
1000
0100
1000
0010
0001
1000
,
0100
0000
0001
0010
0001
0100
0010
1000
,
0100
0000
0001
0010
0000
1000
0100
0000
,
0010
0100
0000
0010
0000
0100
0010
0000
,
1100
0101
0011
1010
,
0010
0000
1000
0000
0100
1000
0100
0000
1000
0000
0100
0000
0010
0000
0001
0000
,
0100
0000
0000
0000
0100
0000
0001
0000
0100
0000
0001
0010
0001
0000
0100
0000
,
0010
0000
1000
0000
0100
1000
0100
0000
1000
0000
0001
0000
0100
0000
0001
0000
,
0010
0000
0000
0000
0001
0000
0100
0000
0001
0000
0010
0001
0000
0000
0100
0000
,
0010
0000
1000
0000
0100
1000
0100
0000
1000
0000
0100
0000
0010
0000
0001
0000
,
0010
0000
0000
0000
0001
0100
0001
0000
0100
0000
0001
0000
0010
0000
0100
0000
,
1000
0000
0010
0000
1000
0100
0000
0000
0010
0000
0000
0001
0000
0000
0100
0000
,
0001
0000
0100
0000
0000
0001
0000
0000
1000
0000
0000
0010
0000
1000
0001
0000
,
2002
0000
0000
3003
;

//---------------dance-double - ----------------
#NOTES:
     dance-double:
     :
     Easy:
     2:
     0.169,0.223,0.067,0.101,0.000,91.000,6.000,9.000,0.000,0.000:





00000000
00000000
00000000
00000000
,
00000000
00000000
00000000
00000000
,
00000000
00000000
00000000
00000000
,
00000000
00000000
00000000
00000000
,
00000000
00000000
00000000
00000000
,
00001000
00000000
00000000
00000000
,
00010000
00000000
00000000
00000000
,
00100000
00000000
00000000
00000000
,
10000000
00000000
00000000
00000000
,
10010000
00000000
00000000
00000000
,
02000000
00000000
00000000
03000000
,
00020000
00000000
00000000
00030000
,
00002000
00000000
00000000
00003000
,
00000020
00000000
00000000
00000030
,
00000002
00000000
00000000
00000003
,
00000200
00000000
00000000
00000300
,
00002000
00000000
00000000
00003000
,
00011000
00000000
00010000
00000000
,
01000000
00000000
10000000
00000000
,
00100000
00000000
00010000
00000000
,
00001000
00000000
00000100
00000000
,
00000001
00000000
00000001
00000000
,
00001000
00000000
00001000
00000000
,
00000001
00000000
00000100
00000000
,
00001000
00000000
00010000
00000000
,
00011000
00000000
00000000
00001000
,
00010000
00000000
00010000
01000000
,
10000000
00000000
10000000
00010000
,
01000000
00000000
00100000
00010000
,
00001000
00000000
00001000
00000100
,
00000001
00000000
00001000
00001000
,
00000001
00000000
00000001
00000001
,
00001000
00000000
00000000
00000000
,
00001001
00000000
00000100
00000000
,
00001000
00000000
00010000
00000000
,
00100000
00000000
10000000
00000000
,
00010000
00000000
01000000
00000000
,
00100000
00000000
10000000
00000000
,
01000000
00000000
00010000
00000000
,
00001000
00000000
00000100
00000000
,
00000001
00000000
00000010
00000100
,
00001001
00000000
00000001
00000100
,
00001000
00000000
00001000
00010000
,
00100000
00000000
10000000
00010000
,
01000000
00000000
00100000
10000000
,
01000000
00000000
00010000
00001000
,
00010000
00000000
00001000
00000100
,
00000001
00000000
00001000
00000001
,
00000100
00000000
00000010
00000100
,
00002002
00000000
00000000
00003003
;

//---------------dance-double - ----------------
#NOTES:
     dance-double:
     :
     Medium:
     6:
     0.366,0.438,0.302,0.089,0.000,194.000,27.000,8.000,0.000,0.000:





00000000
00000000
00000000
00000000
,
00000000
00000000
00000000
00000000
,
00000000
00000000
00000000
00000000
,
00000000
00000000
00000000
00000000
,
00000000
00000000
00000000
00000000
,
00002000
00000000
00000000
00003000
,
00000002
00000000
00000000
00000003
,
00000200
00000000
00000000
00000300
,
00002000
00000000
00003000
00000000
00010000
00001000
00010000
00000000
,
01001000
00000000
00100000
00000000
10000000
00000000
00010000
10000000
,
01000000
00000000
00010000
00000000
00000010
00000000
00001000
00000001
,
00001000
00000000
00000001
00000000
00000100
00000000
00000010
00010000
,
00000010
00000000
00000100
00000000
00001000
00010000
00001000
00000000
,
00010100
00000000
00000010
00000000
00000001
00000000
00001000
00000001
,
00000100
00000000
00000010
00000000
00001000
00000000
00000001
00000100
,
00001000
00000000
00010000
00000000
01000000
00000000
10000000
00100000
,
00010000
00000000
00000100
00000000
00010000
00001000
00010000
00000000
,
00011000
00000100
00000001
00000010
,
00000001
00001000
00000010
00000100
,
00000001
00001000
00000001
00000000
00000100
00000000
00001000
00000000
,
00010000
01000000
10000000
00010000
,
00100000
00010000
01000000
00000000
00100000
00000000
10000000
00000000
,
01000000
10000000
01000000
00000000
00100000
00000000
00001000
00000000
,
00000000
00010000
00001000
00000000
00000010
00000000
00000001
00000000
,
00001000
00000001
00000100
00000000
00000100
00000000
00000010
00001000
,
00000200
00000000
00001000
00001300
,
00020000
00000000
00001000
00031000
,
02000000
00000000
00100000
03100000
,
20000000
00000000
00000000
00000000
01000000
00000000
31000000
10000000
,
01000000
00000000
00000000
00000000
00100000
00000000
00100000
00001000
,
00010000
00000000
00000000
00000000
00001000
00000000
00001000
00010000
,
00001000
00000000
00000000
00000000
00000010
00000000
00000010
00000001
,
00000100
00001000
00010000
00010000
,
00011000
00000000
00010000
01000000
10000000
00000000
00110000
00000000
,
11000000
00000000
00100000
00000000
10000000
01000000
00010000
00000000
,
00011000
00000000
00010100
00000000
00001000
00000100
00000001
00000000
,
00000110
00000000
00001001
00000000
00000001
00000100
00001000
00000000
,
00001001
00000000
00001100
00000000
00000100
00010000
00001000
00000000
,
01001000
00000000
00011000
00000000
00010000
01000000
10000000
00000000
,
11000000
00000000
01010000
00000000
00100000
10000000
01000000
00000000
,
00110000
01001000
00011000
00010100
,
00001010
00000000
00000000
00000001
00000100
00001000
00000100
00000001
,
00001000
00000000
00000000
00000011
00000000
00000100
00001000
00000000
,
00001000
00010000
00000000
01010000
00000000
00100000
10000000
00000000
,
11000000
00000000
00000000
10000000
01000000
00010000
01000000
10000000
,
00010000
00000000
00000000
00100000
00010000
10000000
00010000
01000000
,
00001000
00000000
00000000
00011000
00000000
00000100
00000010
00000000
,
00000001
00001000
00000000
00000110
00000000
00010000
00001000
00000000
,
01010000
00000000
00100000
00000000
10000000
00010000
01000000
00000000
,
00001000
00000000
00000000
00000000
;

//---------------dance-double - ----------------
#NOTES:
     dance-double:
     :
     Hard:
     7:
     0.463,0.501,0.615,0.034,0.123,232.000,55.000,3.000,0.000,0.000:





00000000
00000000
00000000
00000000
,
00000000
00000000
00000000
00000000
,
00000000
00000000
00000000
00000000
,
00000000
00000000
00000000
00000000
,
00000000
00000000
00000000
00000010
00000001
00001000
00000100
00000000
,
00000011
00000000
00000000
00000001
00001000
00000001
00000010
00000000
,
00001100
00000000
00000000
00011000
00000000
00010000
00001000
00000000
,
00001000
00010000
00000000
01010000
00000000
10000000
01000000
00000000
,
10100000
01010000
00101000
00011000
,
00010100
00000000
00000010
00000001
00000010
00000100
00001000
00000000
,
00000101
00000000
00000010
00001000
00000000
00000001
00000010
00001000
,
00000010
00000001
00000000
00000110
00000000
00001000
00010000
00000000
,
01100000
00000000
00000000
10000000
00100000
01000000
00010000
00100000
,
11000000
00000000
00100000
01000000
00001000
00010000
01000000
00000000
,
01010000
00000000
00100000
00010000
00000000
00010000
00001000
00000000
,
00001000
00000100
00000000
00011000
00000000
00010000
01000000
00000000
,
20020000
00000000
00000000
30030000
,
01100000
00000000
00010000
00000000
10000000
00000000
00000000
00000000
01000000
00000000
00000000
00100000
00000000
00000000
00010000
00000000
,
10000000
00000000
00010000
00000000
01000000
00000000
00000000
00000000
00100000
00000000
00000000
00010000
00000000
00000000
00001000
00000000
,
00010000
00000000
00000100
00000000
00000010
00000000
00001000
00000000
00000010
00000000
00000000
00000001
00000000
00000000
00000100
00000000
,
00000010
00000000
00001000
00000000
00000001
00000000
00000000
00000000
00000010
00000000
00000000
00000100
00000000
00000000
00001000
00000000
,
00000001
00000000
00000010
00000000
00001000
00000000
00000000
00000000
00010000
00000000
00000000
00001000
00000000
00000000
01000000
00000000
,
00100000
00000000
10000000
00000000
01000000
00000000
00010000
00000000
01000000
00000000
00000000
00100000
00000000
00000000
00010000
00000000
,
10000000
00000000
01000000
00000000
00100000
00000000
00000000
00000000
00010000
00000000
00000000
10000000
00000000
00000000
01000000
00000000
,
01100000
00110000
00011000
00001100
,
00001001
00000000
00000000
00000000
00000000
00000000
00000010
00000000
00010000
00000000
00000000
00000100
00000000
00000000
00000010
00000000
,
00000101
00000000
00000000
00000000
00000000
00000000
00010000
00000000
00000010
00000000
00000000
00000100
00000000
00000000
00000001
00000000
,
00000110
00000000
00000000
00000000
00000000
00000000
00001000
00000000
00000001
00000000
00000000
00000100
00000000
00000000
00000010
00000000
,
00001001
00000000
00000000
00000000
00000000
00000000
00000010
00000000
00001000
00000000
00000000
00010000
00000000
00000000
00100000
00000000
,
11000000
00000000
00000000
00000000
00000000
00000000
01000000
00000000
00100000
00000000
00000000
00001000
00000000
00000000
00010000
00000000
,
01000000
00000000
00000000
00000000
00000000
00000000
10000000
00000000
00010000
00000000
00000000
01000000
00000000
00000000
00100000
00000000
,
10010000
00000000
00000000
00000000
00000000
00000000
00100000
00000000
10000000
00000000
00000000
00010000
00000000
00000000
00100000
00000000
,
11000000
00110000
00011000
00001010
,
00000110
00000000
00000000
00001001
00000100
00000010
00000001
00000100
,
00001100
00000000
00000000
00000011
00000000
00001000
00010000
00100000
,
01000000
01010000
00000000
10100000
00000000
01000000
00100000
00000000
,
01010000
00000000
00000000
10010000
01000000
00100000
10000000
01000000
,
01010000
00000000
00000000
01100000
00010000
10000000
01000000
00010000
,
00011000
00000000
00000000
00011000
00000000
00000100
00000010
00000001
,
00001000
00001100
00000000
00001001
00000000
00000100
00000010
00000000
,
00001001
00000000
00000000
00000000
00000000
00000000
00000010
00000000
00010000
00000000
00000000
00000100
00000000
00000000
00000010
00000000
,
00001100
00000000
00000000
00000000
00000000
00000000
00010000
00000000
00000010
00000000
00000000
00000100
00000000
00000000
00001000
00000000
,
00011000
00000000
00000000
00000000
00000000
00000000
00010000
00000000
01000000
00000000
00000000
10000000
00000000
00000000
00100000
00000000
,
01100000
00000000
00000000
00000000
00000000
00000000
00100000
00000000
00010000
00000000
00000000
00001000
00000000
00000000
00000010
00000000
,
00000101
00000000
00000000
00000000
00000000
00000000
00000100
00000000
00000010
00000000
00000000
00010000
00000000
00000000
00001000
00000000
,
00011000
00000000
00000000
00000000
00000000
00000000
00010000
00000000
01000000
00000000
00000000
10000000
00000000
00000000
00100000
00000000
,
10010000
00000000
00000000
00000000
00000000
00000000
10000000
00000000
00100000
00000000
00000000
00010000
00000000
00000000
00001000
00000000
,
00011000
00000000
00000000
00000000
00000000
00000000
00000010
00000000
00000001
00000000
00000000
00000100
00000000
00000000
00000010
00000000
,
00001100
00000000
00000000
00000000
00010100
00000000
00000010
00001000
,
00000200
00000000
00000000
00000300
;

//---------------dance-single - retard_gamer----------------
#NOTES:
     dance-single:
     retard_gamer:
     Challenge:
     9:
     0.682,0.696,0.056,0.514,0.509,376.000,5.000,46.000,63.000,0.000:

0000
0000
0000
0000
,
2MMM
0000
0000
3010
1000
0100
0001
0100
,
2000
0M00
0000
0000
0000
0000
3020
0000
0000
0000
0130
0000
0M20
0000
0000
0000
,
0130
0M20
0000
2030
0000
3001
200M
0000
,
3002
M000
0003
1000
0100
0010
0001
0100
,
2000
0M00
0000
0000
0000
0000
3100
0000
0010
0000
1000
0000
0100
0000
0010
0000
,
0002
00M0
0000
0000
0000
0000
2003
0000
0000
0000
3100
0000
2M00
0000
0000
0000
,
3100
2M00
0000
3002
0000
0103
020M
0000
,
0301
0010
0100
1000
0001
0010
0100
1000
0010
0100
0001
1000
0100
0010
0001
1000
,
0100
0010
0001
0100
0010
0001
0010
1000
,
0001
0010
0100
0M02
0000
0103
0M02
0000
,
0103
0010
0100
2M00
0000
3100
2M00
0000
,
3100
M100
0100
0010
0100
1000
0010
0100
,
0001
1000
0001
0010
0100
1000
0010
0100
,
0001
1000
0001
002M
0000
0130
0M20
0000
,
0130
0010
0100
2M00
0000
3001
200M
0000
,
3010
1000
0001
0100
0001
0010
0100
1000
0010
0100
0010
1000
0001
0000
0010
0000
,
0100
0000
1000
0000
0010
0000
0100
0000
0001
0000
0000
0010
0000
0001
1000
0001
,
1000
0000
0010
0000
1000
0000
0100
0000
0010
0000
0000
0001
0000
0100
0001
0100
,
0001
0000
1000
0000
0010
0000
1000
0000
0001
0000
0000
0010
0000
0100
0010
0100
,
1000
0000
0001
0000
0100
0000
0001
0000
0010
0000
0000
0100
0000
0010
0100
0010
,
0001
0000
0100
0000
0010
0000
1000
0000
0100
0000
0100
1000
0000
1000
0010
0100
,
0001
0000
0010
0000
0100
0000
0010
0000
0001
0000
0001
0100
0000
0100
0010
1000
,
0001
0000
0010
0000
0100
0000
0010
0000
0001
0000
0001
1000
0000
1000
0010
0100
,
0010
0000
1000
0000
0100
0000
1000
0000
0010
0000
0100
0001
0000
1000
0100
0010
,
0001
0000
1000
0000
0010
0000
1000
0000
0001
0000
0000
0010
0000
0100
1000
0001
,
M100
00M0
000M
0000
0000
0000
0010
0000
1000
0000
0100
1000
0000
0010
0100
0001
,
1M00
000M
00M0
0000
0000
0000
0001
0010
0001
0000
1000
0010
0000
0100
0001
1000
,
0M01
M000
00M0
0000
0000
0000
1000
0000
0100
0000
0100
1000
0000
1000
0010
0100
,
M010
0M00
000M
0000
0000
0000
0100
0000
0001
0000
0001
0010
0000
0010
0100
0010
,
0M01
00M0
M000
0000
0000
0000
1000
0000
0100
0000
1000
0010
0000
0100
0010
0100
,
00M1
0M00
M000
0000
0000
0000
1000
0000
0100
0000
1000
0010
0000
0100
0010
0100
,
1001
0000
0000
0000
0100
0000
0000
0000
1001
0000
0000
0000
0100
0000
0000
0000
1001
0000
0000
0000
0100
0000
0000
0000
0001
0000
1000
0000
0010
1000
0010
1000
,
0010
0100
0001
0010
0100
1000
0100
0001
,
0100
1000
0010
00M2
0000
0013
00M2
0000
,
0013
0001
0010
20M0
0000
3010
20M0
0000
,
3020
M000
0030
01M0
0001
1000
0100
0010
,
0002
00M0
0000
0000
0003
0000
1000
0000
0100
0000
0001
0000
0100
0000
0010
0000
,
0002
0000
0003
020M
0000
0310
00M2
0000
,
1003
M200
0000
0320
0000
1030
M002
0000
,
0013
0100
0010
0100
1000
0001
1000
0001
0100
0001
1000
0010
0100
0001
1000
0100
,
0010
0001
1000
0100
0001
0100
1000
0010
,
0001
1000
0001
002M
0000
0031
002M
0000
,
0031
0010
1000
M200
0000
0301
020M
0000
,
0320
0M00
0030
0100
1000
0001
1000
0100
,
0110
0000
0000
0010
0001
0100
0010
1000
,
0101
0000
0000
0020
0000
0031
002M
0000
,
0130
0M01
0010
20M0
0000
3001
020M
0000
,
M310
0001
0010
0001
1000
0010
1000
0010
0100
0010
0100
1000
0100
0010
0100
0002
,
2000
0000
0000
0000
0000
0000
0000
0000
0000
0000
0000
0000
3003
M00M
0000
0000
;
