#TITLE:エイプリルフールの唄;
#SUBTITLE:;
#ARTIST:AKIRA YAMAOKA;
#TITLETRANSLIT:;
#SUBTITLETRANSLIT:;
#ARTISTTRANSLIT:;
#CREDIT:;
#BANNER:aprilfoolnouta-bn.PNG;
#BACKGROUND:aprilfoolnouta-bg.PNG;
#LYRICSPATH:;
#CDTITLE:;
#MUSIC:April Fool's Song.mp3;
#OFFSET:-1.080;
#SAMPLESTART:11.800;
#SAMPLELENGTH:12.000;
#SELECTABLE:YES;
#BPMS:0.000=179.000;
#STOPS:;
#BGCHANGES:;
// cache tags:
#FIRSTBEAT:0.000;
#LASTBEAT:344.000;
#SONGFILENAME:Songs/keyboard/April Fool no uta/aprilfoolnouta.sm;
#HASMUSIC:1;
#HASBANNER:1;
#MUSICLENGTH:120.218;
// end cache tags

//---------------dance-single - ----------------
#NOTES:
     dance-single:
     :
     Hard:
     8:
     0.772,1.000,1.000,0.000,0.000,492.000,158.000,0.000,0.000,0.000:  // measure 1
1001
0000
1100
0000
0000
1001
0000
1100
,  // measure 2
0000
1001
0000
0101
0000
1001
0100
1100
,  // measure 3
0100
1001
0000
0101
0000
1001
0000
0011
,  // measure 4
0000
0110
0000
1001
0000
1100
0010
1010
,  // measure 5
0010
1000
0010
1000
0001
0100
0001
0000
,  // measure 6
0001
0000
1000
1100
0000
0100
1000
0001
,  // measure 7
0100
0001
0010
0100
1000
0010
1010
0000
,  // measure 8
1010
0000
1001
0000
0101
0000
1001
1001
,  // measure 9
1001
0100
1000
0001
0010
0001
0010
0000
,  // measure 10
0001
0000
0010
0000
0100
1000
0001
0100
,  // measure 11
0000
0001
1000
0100
1000
0010
1000
0000
,  // measure 12
0010
0000
1000
0000
1010
1010
1001
1001
,  // measure 13
0101
0101
0000
1001
0000
1100
0000
1010
,  // measure 14
0000
1010
0101
0011
0110
0000
1001
1001
,  // measure 15
0000
0100
1000
0010
1000
0001
1000
0001
,  // measure 16
0100
0001
0010
0001
0000
0011
0011
0110
,  // measure 17
0110
0001
0000
1100
0000
0001
0000
1100
,  // measure 18
0000
1001
0100
1010
0010
0000
1010
0001
,  // measure 19
0000
0001
1000
0001
0100
0001
0001
0010
,  // measure 20
0001
0100
0010
1000
1010
0000
1010
1010
,  // measure 21
0000
1001
0001
0100
0001
1000
0100
0100
,  // measure 22
1000
0001
0010
0001
0010
0000
0001
0010
,  // measure 23
0000
0100
0100
1000
0010
0100
0001
0001
,  // measure 24
1000
0100
0100
1000
0010
0000
0010
1000
,  // measure 25
0000
1000
1000
0010
1000
0001
0001
0100
,  // measure 26
0001
1000
0100
0100
0010
0000
0010
0001
,  // measure 27
0000
0001
0010
0011
0000
0011
0000
0110
,  // measure 28
0000
0100
1000
1100
0000
1100
0000
1010
,  // measure 29
0000
0000
1010
1001
0000
0101
1001
0000
,  // measure 30
1100
1100
0000
1001
1001
0000
0000
0000
,  // measure 31
0000
0001
1000
0100
1000
0010
0000
0010
,  // measure 32
0000
0010
1000
0100
1000
1001
0000
0001
,  // measure 33
0000
0100
0100
1000
0001
0100
0001
1000
,  // measure 34
0000
0100
0100
0010
0001
1000
0100
0010
,  // measure 35
0000
0010
0010
1000
0001
1000
0100
1000
,  // measure 36
0000
0001
0001
0100
0010
1000
0001
1000
,  // measure 37
0000
0100
0100
1000
0010
1000
0001
1000
,  // measure 38
0000
1001
0000
1100
0000
1010
0000
1001
,  // measure 39
0000
0001
0001
0100
0010
1000
0001
0010
,  // measure 40
0000
0010
0010
0001
0010
0100
1000
0100
,  // measure 41
0000
0010
0010
1000
0001
1000
0010
1000
,  // measure 42
0000
0100
0100
1000
0010
1000
0001
0100
,  // measure 43
0000
0101
0000
1001
0000
1100
0000
0100
,  // measure 44
0100
1000
0010
1000
0001
0010
0001
1000
,  // measure 45
0000
0100
0100
1000
0010
1000
0001
0100
,  // measure 46
0000
0001
0010
0010
0010
1000
0001
1000
,  // measure 47
0010
1010
0000
1001
0000
1100
0000
1001
,  // measure 48
0000
1100
0000
0011
0101
0110
1001
0011
,  // measure 49
1100
0110
0011
0110
0011
0110
0011
0110
,  // measure 50
0011
1100
1010
1100
1010
1100
1010
1100
,  // measure 51
1010
1100
0000
1001
0000
0100
0000
1100
,  // measure 52
0000
0000
1001
0000
0000
0101
0000
0011
,  // measure 53
0000
0110
0000
0000
1100
0000
0000
1010
,  // measure 54
0000
0000
1010
0000
0000
1010
0000
1001
,  // measure 55
0000
0101
0000
1000
0001
0000
0010
0100
,  // measure 56
0000
0000
0000
0000
,  // measure 57
0000
1001
0000
0100
1000
0000
1000
0010
,  // measure 58
0000
0000
0010
1000
0000
1001
0000
0101
,  // measure 59
0000
0001
1000
0100
0000
0100
1000
0010
,  // measure 60
0000
1010
0000
1001
0000
0101
0000
0011
,  // measure 61
0000
0100
0010
0001
0000
0001
1000
0100
,  // measure 62
0000
0100
1000
0010
0100
0001
1000
1001
,  // measure 63
0000
0001
0100
0010
0000
0010
1000
0100
,  // measure 64
0000
0001
1000
0100
0010
0001
0010
0001
,  // measure 65
0000
0011
0110
0000
1100
1010
0000
0101
,  // measure 66
0011
0000
0101
0101
0000
1100
0000
0011
,  // measure 67
0000
0100
1000
0001
0000
0100
1000
0010
,  // measure 68
1000
0001
0100
0000
0101
0000
0001
1000
,  // measure 69
0000
0100
0100
1000
0001
0010
0001
1000
,  // measure 70
0010
1000
0010
1010
0000
1010
0000
1010
,  // measure 71
0000
1001
0001
0100
0001
1000
0100
0010
,  // measure 72
0000
0110
0100
1000
0001
0010
0001
0010
,  // measure 73
0000
0001
0001
0010
0100
1000
0010
1000
,  // measure 74
0000
1010
0000
1001
0000
0101
0000
1001
,  // measure 75
0000
0100
0100
1000
0010
1000
0000
0001
,  // measure 76
0000
0001
0001
1000
0100
0010
0001
1000
,  // measure 77
0000
0001
0001
0100
0010
1000
0001
0010
,  // measure 78
0000
0011
0000
0110
0000
1100
0000
1010
,  // measure 79
0000
0010
0010
1000
0001
0100
0001
1000
,  // measure 80
0000
0100
0100
1000
0010
1000
0001
0010
,  // measure 81
0000
0001
0001
0010
0100
1000
0010
0100
,  // measure 82
0000
0110
0000
1001
0000
0011
0000
1100
,  // measure 83
0000
1001
0000
0000
0000
0000
0000
0000
,  // measure 84
0000
1100
0000
0000
0000
0000
0000
0000
,  // measure 85
0000
1001
0000
0000
0000
0000
0000
0000
,  // measure 86
1001
0000
0000
0000
0000
1001
1100
0011
,  // measure 87
1100
0000
0000
0000
;

//---------------dance-single - ----------------
#NOTES:
     dance-single:
     :
     Medium:
     7:
     0.438,0.501,0.516,0.000,0.000,307.000,62.000,0.000,0.000,0.000:  // measure 1
1000
0001
0000
0100
0000
0001
0000
0000
,  // measure 2
0000
0100
0000
0000
0000
0100
1000
0010
,  // measure 3
0000
0001
0000
0100
0000
0001
0000
0100
,  // measure 4
0000
0001
0000
0010
0000
0001
0010
0100
,  // measure 5
0000
0001
0000
0100
0000
0010
0000
0000
,  // measure 6
0010
0000
0010
0000
0010
1000
0000
0001
,  // measure 7
0000
0100
0000
0001
0000
0100
0000
0000
,  // measure 8
0001
0100
0001
0000
,  // measure 9
0000
0001
0000
0100
0000
0010
0000
0000
,  // measure 10
0001
0000
0100
0000
0000
0001
1000
0100
,  // measure 11
0000
0001
0000
0100
0000
0010
0000
0000
,  // measure 12
0010
0000
0100
0000
0000
0001
0000
0000
,  // measure 13
0000
1001
0000
0000
0000
1100
0000
0000
,  // measure 14
0000
1010
0000
0000
0000
0000
0000
0000
,  // measure 15
0000
0001
0000
0000
0000
0100
0000
0000
,  // measure 16
0000
0011
0000
0000
0000
0000
0000
0000
,  // measure 17
0000
1100
0000
0000
0000
1010
0000
0000
,  // measure 18
0000
0101
0000
0000
0000
0000
0000
0000
,  // measure 19
0000
0010
0000
0000
0000
0100
0000
0000
,  // measure 20
0000
1000
0000
0000
0000
0000
0000
0000
,  // measure 21
0000
0001
0000
0000
0000
0001
0000
0000
,  // measure 22
0000
0010
0000
0000
0000
0100
0000
0000
,  // measure 23
0000
1100
0000
0000
0000
1001
0000
0000
,  // measure 24
0000
0101
0000
0000
0000
0010
0000
0000
,  // measure 25
0000
1010
0000
0000
0000
1100
0000
0000
,  // measure 26
0000
1001
0000
0000
0000
1100
0000
0000
,  // measure 27
0000
0100
1000
0010
0000
1001
0000
0101
,  // measure 28
0000
0001
1000
0100
0000
0011
0000
0110
,  // measure 29
0000
0000
1001
0000
0000
0001
0000
0000
,  // measure 30
0000
1100
0000
0000
1010
0000
0000
0000
,  // measure 31
0001
0000
0000
0100
0000
0010
0000
0000
,  // measure 32
0000
0010
0000
1000
0000
0100
0000
0000
,  // measure 33
0000
0010
0000
1000
0000
0001
0000
0000
,  // measure 34
0000
0001
1000
0100
0000
1010
0000
0000
,  // measure 35
0000
0001
1000
0010
0000
0011
0000
0000
,  // measure 36
0000
0001
0010
0100
0000
1100
0000
0000
,  // measure 37
0000
0010
0100
0001
0000
1001
0000
0000
,  // measure 38
0000
0001
1000
0100
0000
1100
0000
0000
,  // measure 39
0000
0100
0000
1000
0000
1010
0000
1010
,  // measure 40
0000
0001
0000
0100
0000
0101
0000
0101
,  // measure 41
0000
0001
0010
0100
0000
0100
1000
0010
,  // measure 42
0000
0101
0000
1100
0000
0011
0000
1100
,  // measure 43
0000
0100
1000
0010
0000
0010
1000
0001
,  // measure 44
0000
0001
0100
0001
0010
0100
1000
0001
,  // measure 45
0000
0001
0001
1000
0000
0100
0100
1000
,  // measure 46
0000
0010
1000
0000
0100
0010
1000
0010
,  // measure 47
0000
0001
0000
0000
0000
1000
0000
0000
,  // measure 48
0000
0010
0000
0000
0000
1000
0000
0000
,  // measure 49
0000
0100
0000
0000
0000
0001
0000
0000
,  // measure 50
0000
1000
0000
0000
0000
0001
0000
0000
,  // measure 51
0000
1001
0000
0001
0000
0011
0000
0100
,  // measure 52
0000
1100
0000
0010
0000
0010
0000
0010
,  // measure 53
0000
1001
0000
0001
0000
0101
0000
0010
,  // measure 54
0000
1010
0000
0100
0000
1100
0000
0101
,  // measure 55
0000
0001
0000
1001
0000
0100
0000
0110
,  // measure 56
0000
0010
0000
0011
0000
0011
0000
0110
,  // measure 57
0000
0011
0000
0000
1100
0000
0000
1010
,  // measure 58
0000
1000
0001
0000
0000
0101
0000
1100
,  // measure 59
0000
0001
0000
0001
0000
0100
0000
0010
,  // measure 60
0000
0010
0000
1000
0000
1000
0000
0001
,  // measure 61
0000
0001
0000
0001
0000
1000
0000
1000
,  // measure 62
0000
0100
0000
0100
0000
0110
0000
0110
,  // measure 63
0000
0001
0000
0001
0000
0100
0000
0100
,  // measure 64
0000
0010
0000
0010
0000
1010
0000
1001
,  // measure 65
0000
0001
0000
0000
1000
0000
0000
0100
,  // measure 66
0000
0000
1000
0000
0000
0100
0000
1000
,  // measure 67
0000
0010
0000
0010
0000
0010
1000
0100
,  // measure 68
0000
0001
0000
0100
0000
0001
0100
0010
,  // measure 69
0000
0001
0000
0100
0000
1000
0001
0100
,  // measure 70
0000
0010
0000
1000
0000
0001
0010
1000
,  // measure 71
0000
0100
0000
0001
0000
0100
0001
1000
,  // measure 72
0000
0100
0000
1000
0000
0100
0100
1000
,  // measure 73
0000
0001
0000
0100
0000
0010
0010
1000
,  // measure 74
0000
0001
0000
0001
0000
0010
0001
0010
,  // measure 75
0000
0100
0100
1000
0000
0001
0000
0100
,  // measure 76
0000
0001
1000
0100
0000
0010
0000
0010
,  // measure 77
0000
1000
0001
1000
0000
0001
0000
1000
,  // measure 78
0000
0001
0001
0100
0000
0001
0000
1000
,  // measure 79
0000
0100
1000
0010
0000
0010
0000
0001
,  // measure 80
0000
0001
1000
0100
0000
0010
0000
0001
,  // measure 81
0000
0100
1000
0001
0000
0001
0000
0100
,  // measure 82
0000
0011
0000
0000
0000
1100
0000
0000
,  // measure 83
0000
1010
0000
0000
0000
1001
0000
0000
,  // measure 84
0000
0001
0000
0000
0000
0100
0000
0000
,  // measure 85
0000
0000
0000
0000
,  // measure 86
0000
0000
1001
0000
,  // measure 87
1001
0000
0000
0000
;

//---------------dance-single - ----------------
#NOTES:
     dance-single:
     :
     Easy:
     1:
     0.153,0.178,0.050,0.000,0.000,123.000,6.000,0.000,0.000,0.000:  // measure 1
0001
0000
1000
0000
0000
0100
0000
0000
,  // measure 2
0000
0001
0000
0000
0000
0100
0000
0000
,  // measure 3
0000
1000
0000
0000
0000
0010
0000
0000
,  // measure 4
0000
0001
0000
0000
0000
0100
0000
0000
,  // measure 5
0000
0001
0000
0100
0000
0010
0000
0000
,  // measure 6
0000
0100
0000
0000
0000
1000
0000
0000
,  // measure 7
0000
0001
0000
1000
0000
0100
0000
0000
,  // measure 8
0000
0010
0000
0000
0000
0001
0000
0000
,  // measure 9
0000
0100
0000
0010
0000
0100
0000
0000
,  // measure 10
0000
0001
0000
0000
0000
1000
0000
0000
,  // measure 11
0000
0100
0000
1000
0000
0010
0000
0000
,  // measure 12
0000
0001
0000
0000
0000
0100
0000
0000
,  // measure 13
0000
0001
0000
0000
0000
0010
0000
0000
,  // measure 14
0000
0011
0000
0000
0000
0000
0000
0000
,  // measure 15
0000
0100
0000
0000
0000
0001
0000
0000
,  // measure 16
0000
1001
0000
0000
0000
0000
0000
0000
,  // measure 17
0000
0100
0000
0000
0000
0010
0000
0000
,  // measure 18
0000
1010
0000
0000
0000
0000
0000
0000
,  // measure 19
0000
0001
0000
0000
0000
0100
0000
0000
,  // measure 20
0000
1010
0000
0000
0000
0000
0000
0000
,  // measure 21
0000
0100
0000
0000
0000
0010
0000
0000
,  // measure 22
0000
0001
0000
0000
0000
0100
0000
0000
,  // measure 23
0000
1000
0000
0000
0000
0001
0000
0000
,  // measure 24
0000
1000
0000
0000
0000
0001
0000
0000
,  // measure 25
0000
0010
0000
0000
0000
0100
0000
0000
,  // measure 26
0000
1000
0000
0000
0000
0001
0000
0000
,  // measure 27
0000
0100
0000
0000
0000
1000
0000
0000
,  // measure 28
0000
0001
0000
0000
0000
0010
0000
0000
,  // measure 29
0000
0100
0000
0000
0000
0000
1000
0000
,  // measure 30
0001
0000
0000
1000
0000
0000
0000
0000
,  // measure 31
0000
0001
0000
0000
0000
0100
0000
0000
,  // measure 32
0000
0010
0000
0000
0000
1000
0000
0000
,  // measure 33
0000
0100
0000
0000
0000
1000
0000
0000
,  // measure 34
0000
0001
0000
0000
0000
0100
0000
0000
,  // measure 35
0000
0001
0000
0000
0000
1000
0000
0000
,  // measure 36
0000
0100
0000
0000
0000
1000
0000
0000
,  // measure 37
0000
0010
0000
0000
0000
0010
0000
0000
,  // measure 38
0000
1000
0000
0000
0000
0000
0000
0000
,  // measure 39
0000
0001
0000
0000
0000
0000
0000
0000
,  // measure 40
0000
1000
0000
0000
0000
0000
0000
0000
,  // measure 41
0000
0010
0000
0000
0000
0000
0000
0000
,  // measure 42
0000
0100
0000
0000
0000
0000
0000
0000
,  // measure 43
0000
1000
0000
0000
0000
0000
0000
0000
,  // measure 44
0000
0001
0000
0000
0000
0000
0000
0000
,  // measure 45
0000
0100
0000
0000
0000
0000
0000
0000
,  // measure 46
0000
0010
0000
0000
0000
0000
0000
0000
,  // measure 47
0000
1001
0000
0000
0000
0000
0000
0000
,  // measure 48
0000
0000
0000
0000
,  // measure 49
0000
0000
0000
0000
,  // measure 50
0000
0000
0000
0000
,  // measure 51
0000
0001
0000
0000
0000
0000
0000
0000
,  // measure 52
0000
0100
0000
0000
0000
0000
0000
0000
,  // measure 53
0000
1010
0000
0000
0000
0000
0000
0000
,  // measure 54
0000
0001
0000
0000
0000
0000
0000
0000
,  // measure 55
0000
0100
0000
0000
0000
0000
0000
0000
,  // measure 56
0000
0010
0000
0000
0000
0000
0000
0000
,  // measure 57
0000
0010
0000
0000
0000
0000
0000
0000
,  // measure 58
0000
0001
0000
0000
0000
0000
0000
0000
,  // measure 59
0000
1000
0000
0000
0000
0000
0000
0000
,  // measure 60
0000
0100
0000
0000
0000
0000
0000
0000
,  // measure 61
0000
0010
0000
0000
0000
0000
0000
0000
,  // measure 62
0000
1000
0000
0000
0000
0000
0000
0000
,  // measure 63
0000
0001
0000
0000
0000
0000
0000
0000
,  // measure 64
0000
0010
0000
0000
0000
0000
0000
0000
,  // measure 65
0000
0001
0000
0000
0100
0000
0000
1000
,  // measure 66
0000
0000
0010
0000
0000
0001
0000
0000
,  // measure 67
0000
0100
0000
0000
0000
0000
0000
0000
,  // measure 68
0000
0001
0000
0000
0000
0000
0000
0000
,  // measure 69
0000
1000
0000
0000
0000
0000
0000
0000
,  // measure 70
0000
0010
0000
0000
0000
0000
0000
0000
,  // measure 71
0000
0100
0000
0000
0000
0000
0000
0000
,  // measure 72
0000
0001
0000
0000
0000
0000
0000
0000
,  // measure 73
0000
1000
0000
0000
0000
0000
0000
0000
,  // measure 74
0000
0010
0000
0000
0000
0000
0000
0000
,  // measure 75
0000
0100
0000
0000
0000
0000
0000
0000
,  // measure 76
0000
1000
0000
0000
0000
0000
0000
0000
,  // measure 77
0000
0001
0000
0000
0000
0000
0000
0000
,  // measure 78
0000
0100
0000
0000
0000
0000
0000
0000
,  // measure 79
0000
0010
0000
0000
0000
0000
0000
0000
,  // measure 80
0000
1000
0000
0000
0000
0000
0000
0000
,  // measure 81
0000
0001
0000
0000
0000
0000
0000
0000
,  // measure 82
0000
0100
0000
0000
0000
0000
0000
0000
,  // measure 83
0000
1000
0000
0000
0000
0000
0000
0000
,  // measure 84
0000
0000
0000
0000
,  // measure 85
0000
0000
0000
0000
,  // measure 86
0000
0000
0000
0000
1000
0001
0000
0000
;
