#TITLE:ska a go go;
#SUBTITLE:;
#ARTIST:THE BALD HEAD;
#TITLETRANSLIT:;
#SUBTITLETRANSLIT:;
#ARTISTTRANSLIT:;
#CREDIT:;
#BANNER:../BN.png;
#BACKGROUND:../BG.png;
#LYRICSPATH:;
#CDTITLE:;
#MUSIC:THE_BALD_HEAD_-_ska_a_go_go_CLUB_ANOTHER_VER.ogg;
#OFFSET:-0.210;
#SAMPLESTART:37.720;
#SAMPLELENGTH:12.000;
#SELECTABLE:YES;
#BPMS:0.000=160.000,100.000=145.000,112.000=156.000,114.000=160.000;
#STOPS:;
#BGCHANGES:;
// cache tags:
#FIRSTBEAT:4.000;
#LASTBEAT:220.000;
#SONGFILENAME:Songs/Index Gradation/ska a go go - [Carmelo]/THE BALD HEAD - ska a go go (CLUB ANOTHER VER.) [HQ].sm;
#HASMUSIC:1;
#HASBANNER:1;
#MUSICLENGTH:84.035;
// end cache tags

//---------------dance-single - Blank----------------
#NOTES:
     dance-single:
     Blank:
     Challenge:
     26:
     1.000,1.000,0.071,0.309,1.000,828.000,6.000,26.000,1.000,1.000:

0000
0000
0000
0000
,
1000
0010
1000
0001
1000
0010
1000
0001
,
1000
0100
0010
0100
1000
0100
0010
0100
,
1000
0000
0000
0000
0010
0000
0000
0000
0100
0001
0100
0001
0100
0000
0000
0000
0001
0100
0010
1000
0001
0100
0010
1000
0001
0000
0000
0000
0100
0010
0100
0010
,
0100
0010
1000
0010
0100
0010
1000
0010
,
0200
0302
0023
0230
,
1300
0000
0000
1000
0000
0000
0010
0100
0010
0000
1000
0000
0001
0000
0000
0000
,
0020
0230
2300
3002
,
0103
0000
0000
0100
0000
0000
0010
1000
0010
0000
0100
0000
0001
0000
0000
0000
,
0010
0001
0010
0100
0010
0001
0010
0100
,
1000
0001
1000
0100
1100
0000
1110
0000
,
1000
0001
1000
0010
1000
0001
1000
0010
,
0100
0000
0100
0000
0100
0000
0100
0000
0100
0000
0100
0000
,
0002
0003
0010
0000
0001
0000
2000
3000
0010
0000
0100
0000
0002
0003
1000
0000
0100
0000
2000
3000
0100
0000
0010
0000
0002
0003
1000
0000
0001
0000
0100
0000
,
0010
0000
1000
0000
0001
0000
1000
0000
0100
0000
0010
0000
0001
0000
1000
0000
0100
0000
1000
0000
0001
0000
0010
0000
0100
0000
1000
0000
0001
0000
1000
0000
0000
0100
0000
0000
0010
0000
0000
0100
0000
0000
1000
0000
0000
0001
0000
0000
,
1000
0000
0020
0030
0100
0000
0001
0000
1000
0000
0020
0030
0100
0000
0010
0000
1000
0000
0002
0003
0010
0000
0100
0000
1000
0000
0002
0003
0100
0000
0001
0000
,
1000
0000
0010
0000
1000
0001
0100
0010
1000
0001
0100
0001
1000
0010
0100
0001
1000
0010
1000
0001
0100
0001
1000
0010
0200
0000
0000
0000
0000
0000
0000
0000
,
0301
0000
0200
0300
0001
0000
0010
0000
0001
0000
2000
3000
0100
0000
0010
0000
0100
0000
2000
3000
0010
0000
0100
0000
0001
0000
0020
0030
0100
0000
0010
0000
,
0001
0000
1000
0000
0100
0000
0010
0000
0001
0000
1000
0000
0001
0000
1000
0000
0010
0000
0100
0000
0001
0000
0100
0000
0001
0000
1000
0000
0100
0000
0010
0000
0100
0000
1000
0000
0001
0000
0000
0100
0000
0000
0001
0000
0000
0100
0000
0000
,
0010
0000
2000
3000
0100
0000
0010
0000
0001
0000
2000
3000
0010
0000
1000
0000
0010
0000
0200
0300
0001
0000
1000
0000
0010
0000
0200
0300
0001
0000
0100
0000
,
0001
1000
0010
1000
0001
0100
0010
1000
0001
1000
0100
0010
0001
1000
0100
1000
0100
0001
0010
0100
1000
0001
0100
0001
1000
0010
0100
0001
1000
0010
1000
0001
,
0100
0010
1000
0001
0010
0100
0010
0001
1000
0100
0010
0100
1000
0001
0010
0100
,
1000
0001
0100
0001
1000
0100
0010
0001
1000
0010
1000
0001
0100
0001
1000
0100
,
1000
0001
0010
0100
1000
0100
0010
0001
1000
0100
1000
0001
0100
0001
1000
0010
0100
0001
1000
0010
1000
0001
0100
0010
1000
0001
0100
0001
1000
0100
0010
0100
,
1000
0001
0010
0100
1000
0001
0010
0001
1000
0100
1000
0001
0100
0001
1000
0010
0100
0000
0000
0000
0000
0000
0000
0000
0100
0000
0000
0000
0000
0000
0000
0000
,
0001
0000
0000
0000
0001
0000
0000
0000
1000
0010
1000
0010
1000
0000
0000
0000
0001
0000
0000
0000
0100
0010
0100
0010
0100
0000
0000
0000
0001
0000
0000
0000
,
1000
0010
1000
0010
1000
0000
0000
0000
0001
0000
0000
0000
0001
0000
0000
0000
1000
0100
1000
0100
1000
0000
0000
0000
0001
0000
0000
0000
0010
0000
0000
0000
,
0001
0000
0000
0000
0100
0000
0000
0000
0010
1000
0010
1000
0010
0000
0000
0000
0100
0001
0100
0001
0100
0000
0000
0000
0010
0000
0000
0000
1000
0000
0000
0000
,
0100
0000
0100
0000
0100
0000
0100
0000
0100
0000
0100
0000
,
0100
0000
1000
0100
0010
0001
1000
0010
1000
0001
0010
0100
1000
0001
0100
0001
,
1000
0010
1000
0010
0100
0001
1000
0010
0100
0001
0100
0001
1000
0100
0010
0001
,
1000
0100
0010
0100
1000
0001
0100
0010
1000
0001
0100
0001
1000
0100
0010
0001
,
0100
0010
0100
0001
1000
0100
0010
0100
1000
0001
0100
0010
1000
0001
0100
0001
,
1000
0010
0100
0010
0100
0001
1000
0001
1000
0010
0100
0010
0100
0001
0100
0001
,
0100
0010
1000
0001
0100
0010
0100
0001
1000
0100
0010
0001
1000
0100
1000
0001
,
0010
0000
0100
0000
,
1000
0001
1000
0100
,
0010
0001
0010
0100
0010
0001
0010
0100
,
1000
0001
1000
0100
1000
0001
1000
0100
,
1000
0010
0100
0010
1000
0010
0100
0010
,
1000
0000
1001
0000
0100
0000
0010
1000
0010
0000
0100
0000
1001
0000
0100
0010
,
0100
0001
0010
0001
0100
0001
0010
0001
,
0100
0010
1000
0010
0100
0010
1000
0010
,
0100
0001
0100
0010
0100
0001
0100
0010
,
0100
0000
0001
0000
0110
0000
1000
0001
1000
0000
0010
0000
0100
0000
1001
0000
,
1000
0010
0100
0001
1000
0010
1000
0001
0100
0010
0100
0001
1000
0001
1000
0100
0010
0001
1000
0100
1000
0001
0010
0100
1000
0001
1000
0001
0100
0010
1000
0001
,
1000
0100
1000
0001
0010
0100
0010
0001
1000
0100
0010
0001
1000
0001
0100
0001
1000
0010
1000
0001
0100
0010
1000
0001
0100
0001
0100
0001
1000
0010
0100
0001
,
0100
0001
1000
0010
0100
0001
1000
0001
1000
0100
0010
0001
1000
0100
1000
0001
0010
0100
1000
0001
0010
0001
1000
0001
0100
0010
1000
0001
0100
0001
1000
0100
,
1000
0000
0000
0000
0010
0100
0010
0100
,
0001
1000
0010
0100
0001
1000
0010
1000
0001
0100
0001
1000
0100
1000
0001
0010
0100
1000
0001
0010
0001
1000
0010
1000
0001
0100
0001
0100
0010
1000
0001
0100
,
0001
0100
0010
1000
0001
0100
0001
1000
0100
1000
0001
0010
0100
1000
0001
0010
0001
1000
0001
0100
0010
1000
0001
0100
0001
1000
0010
1000
0001
0100
0001
1000
,
0001
0100
0010
1000
0001
1000
0001
0100
0001
1000
0010
1000
0001
0100
0001
1000
0100
1000
0001
0010
0100
1000
0001
0010
0001
1000
0100
0010
0100
1000
0001
0010
,
0001
1000
0010
1000
0001
0100
0010
1000
0001
0100
0001
1000
0010
1000
0001
0100
0001
0000
0000
0000
1000
0000
0000
0000
0001
0000
0000
0000
1000
0000
0000
0000
,
0001
0100
0001
1000
0010
1000
0001
0100
0010
1000
0001
0100
0001
1000
0100
1000
0001
0010
0100
1000
0100
0010
0100
1000
0001
0010
0001
1000
0010
1000
0001
0100
,
0010
1000
0001
0100
0001
1000
0100
1000
0001
0010
0100
1000
0001
0010
0001
1000
0100
0010
0001
1000
0001
1000
0001
0100
0001
0000
0000
0000
0000
0000
0000
0000
,
M000
0000
0000
0000
;
