#TITLE:Second Heaven;
#SUBTITLE:;
#ARTIST:Ryu☆;
#TITLETRANSLIT:;
#SUBTITLETRANSLIT:;
#ARTISTTRANSLIT:;
#CREDIT:;
#BANNER:secondheaven.jpg;
#BACKGROUND:secondheaven_bg.jpg;
#LYRICSPATH:;
#CDTITLE:iidx.png;
#MUSIC:secondheaven.mp3;
#OFFSET:0.240;
#SAMPLESTART:45.300;
#SAMPLELENGTH:12.000;
#SELECTABLE:YES;
#BPMS:0.000=149.000;
#STOPS:;
#BGCHANGES:;
// cache tags:
#FIRSTBEAT:5.000;
#LASTBEAT:285.000;
#SONGFILENAME:Songs/toune 2/secondheaven/secondheaven.sm;
#HASMUSIC:1;
#HASBANNER:1;
#MUSICLENGTH:117.310;
// end cache tags

//---------------dance-single - ----------------
#NOTES:
     dance-single:
     :
     Hard:
     11:
     0.781,1.000,1.000,0.094,0.298,503.000,127.000,11.000,0.000,0.000:
0000
0000
0000
0000
,
0000
0000
0000
0000
,
0000
0000
1000
0100
1000
0100
1000
0100
,
1000
0100
0010
0000
0100
0000
1010
0000
,
1001
0000
0001
0010
0001
0010
0001
0010
,
0001
0010
0100
0000
0010
0000
0101
0000
,
1001
0000
0010
1001
0000
0100
0000
0100
,
0000
0100
1010
0101
0000
0010
0000
0010
,
0000
0010
0101
1000
0000
0100
1001
0010
,
0000
0001
0110
0001
0000
1000
0110
1000
,
0000
0100
2002
0000
0000
0000
0000
0000
,
0000
0000
0000
3003
,
0000
0000
0010
0100
1000
0100
0000
0010
,
0001
0010
0000
1000
0100
0010
0001
0010
,
0001
0100
1000
0100
0010
0001
1000
0010
,
0100
0001
0010
0001
0010
0001
0100
0000
,
0000
0000
0010
0100
1000
0100
0000
0010
,
0001
0010
0000
1000
0100
0010
0001
0010
,
0001
0100
1000
0100
0010
0001
1000
0010
,
0100
0001
0010
0001
0010
0001
0100
0000
,
1100
0000
0000
0100
0010
0001
0000
0100
,
0010
0001
0000
0100
0010
0001
0010
0100
,
0010
0100
0000
0100
0010
0001
0000
0100
,
0010
0001
0010
0100
1000
0100
1000
0000
,
1001
0110
0010
0100
,
0010
0110
0100
0010
,
0100
1100
0001
0110
,
0100
0011
1100
0011
,
1100
2002
0000
0000
,
3003
0000
0000
0000
1100
0000
0100
1000
0100
1000
0100
0010
0001
0000
0001
0000
,
0001
0010
0100
0010
0001
0000
0010
0000
0010
0100
1000
0100
0001
0000
0010
0000
,
0100
0000
0010
0000
1000
0000
0100
1000
0100
1000
0100
0010
0001
0000
0001
0000
,
0001
0010
0100
0010
0001
0000
0010
0000
0100
0000
0010
0000
0200
0000
0000
0000
,
0301
0000
0000
0000
0101
0000
0001
0100
0001
0100
0001
1000
0010
0000
0010
0000
,
0010
1000
0001
1000
0010
0000
1000
0000
1000
0001
0100
0001
0010
0000
1000
0000
,
0001
0000
1000
0000
0100
0000
0001
0100
0001
0100
0001
1000
0010
0000
0010
0000
,
0010
1000
0001
1000
0010
0000
1000
0000
0001
0000
1000
0000
0002
0000
0000
0000
,
0103
0000
1000
0100
0010
0001
0000
0100
,
0010
0001
0000
0100
0010
0001
0010
0100
,
1000
0100
1000
0100
0010
0001
0100
1000
,
0100
0010
0001
0010
0001
0010
0100
0000
,
0100
0100
1000
0100
0010
0001
0000
0100
,
0010
0001
0000
0100
0010
0001
0010
0100
,
1000
0100
1000
0100
0010
0001
0100
1000
,
0100
0010
0001
0010
0001
0010
0100
0000
,
1001
0000
0001
1000
0001
1100
0001
1000
,
0001
1100
1001
0000
1001
1001
0100
0010
,
0001
0110
0010
0100
0010
0101
0010
0100
,
0010
0101
0110
0000
0110
0110
0001
1000
,
0010
1001
1100
1100
0000
0010
0000
0010
,
0000
0010
0011
0011
0000
0100
0000
0100
,
0000
0100
1100
1100
0100
0000
0011
0011
,
0010
0000
1100
0000
0110
0000
0001
1000
,
0001
0000
0100
0000
0010
1100
0010
0000
,
1000
0000
0100
0000
0010
0000
0010
0101
,
0010
0100
1000
0000
0100
0000
0010
1001
,
0010
0101
0010
0000
0100
0000
1000
0000
,
1001
0000
0000
0000
1000
0000
0100
1000
0100
1000
0100
0010
0001
0000
0001
0000
,
0001
0010
0100
0010
1000
0000
0100
1000
0100
1000
0100
0010
0001
0000
0001
0000
,
0001
0010
0100
0010
1000
0000
0001
1000
0001
0000
1000
0001
1000
0000
0001
1000
,
0001
0000
1000
0001
1001
0000
1001
0000
1001
0000
1001
0000
0010
0100
0010
0100
,
0010
0100
0010
0100
0220
0000
0000
0000
0000
0000
0000
0000
0000
0000
0000
0000
,
0330
0000
0000
0000
0001
1000
0001
1000
0001
1000
0001
1000
2002
0000
0000
0000
,
3003
0000
0000
0000
1100
0000
0110
1000
0110
1000
0110
1000
0011
0000
0101
0000
,
0101
0010
1100
0010
0101
0000
0011
0000
0010
0101
1000
0110
1001
0000
0011
0000
,
0101
0000
0011
0000
1001
0000
0110
1000
0110
1000
0110
1000
0101
0000
1001
0000
,
0101
1010
0100
1010
0101
0000
1010
0000
0110
0000
0011
0000
0210
0000
0000
0000
,
0301
0000
0010
0000
0101
0000
0011
1100
0011
1100
0011
1100
1100
0000
0101
0000
,
0110
1001
0100
1010
0101
0000
1010
0000
1100
0011
0100
1001
1100
0000
1010
0000
,
0101
0000
1010
0000
1100
0000
0011
1100
0001
0110
1001
0100
1010
0000
0110
0000
,
0011
1100
0010
1001
0110
0000
1010
0000
0101
0000
1010
0000
0101
0000
0000
0000
,
0101
1001
0000
0000
;

//---------------dance-single - Copied from----------------
#NOTES:
     dance-single:
     Copied from:
     Challenge:
     12:
     1.000,1.000,1.000,0.085,0.524,619.000,478.000,10.000,0.000,0.000:
0000
0000
0000
0000
,
0000
0000
1001
1001
0000
0000
0000
0000
,
0000
0000
0000
0000
1100
0000
0010
0001
1100
0000
0010
0001
1100
0000
0010
0001
,
1100
0000
0010
0100
1001
0000
0100
0000
0010
0000
0001
0000
0110
0000
0100
0000
,
1001
0000
0001
0000
0011
0000
0100
1000
0011
0000
0100
1000
0011
0000
0100
1000
,
0011
0000
0100
0010
1001
0000
0010
0000
0100
0000
1000
0000
0110
0000
0010
0000
,
1001
0001
1010
1001
0100
0010
0000
0101
,
0010
0101
1100
0110
0001
1000
0000
0011
,
1000
0011
0101
1010
0000
0110
1001
1010
,
0000
0101
0110
1001
0100
1010
0110
1010
,
0001
0100
2002
0000
0000
0000
0000
0000
,
0000
0000
0000
3003
,
0000
0000
0110
1100
1010
0110
0000
1100
,
0110
0011
0000
1100
0110
0011
0101
0011
,
0101
0110
1100
0101
0011
0101
1100
0011
,
0110
0011
0110
0011
1010
0101
0110
0000
,
0000
0000
0110
1100
1010
0110
0000
1100
,
0110
0011
0000
1100
0110
0011
0101
0011
,
0101
0110
1100
0101
0011
0101
1100
0011
,
0110
0011
0110
0011
1010
0101
0110
0000
,
1100
0000
0010
0100
0010
0001
0000
0100
,
0010
0001
0000
0100
0010
0001
0010
0100
,
0010
0100
0000
0100
0010
0001
0000
0100
,
0010
0001
0010
0100
1000
0100
1000
0000
,
1001
0000
1010
0100
0010
0001
0000
0100
,
0010
0001
1010
0100
1000
0100
0001
0010
,
0001
0100
1001
0100
0010
0001
1010
0100
,
0010
0001
0110
0001
0011
1000
0110
0000
,
1001
2002
0000
0000
,
3003
0000
0000
0000
1100
0000
0011
1100
0011
1100
0011
1100
0011
0000
1010
0000
,
0110
1001
0110
1001
0110
0000
1100
0000
0011
1100
0011
1100
0011
0000
0011
0000
,
0101
0000
0011
0000
1001
0000
0110
1001
0110
1001
0110
1001
0110
0000
1001
0000
,
0101
1010
0101
1010
0101
0000
1010
0000
0110
0000
0011
0000
0210
0000
0000
0000
,
0301
0000
0000
0000
0101
0000
1010
0101
1010
0101
1010
0101
1010
0000
1100
0000
,
1001
0110
1001
0110
1001
0000
0101
0000
1010
0101
1010
0101
1010
0000
1010
0000
,
0011
0000
1010
0000
0110
0000
0110
1001
0110
1001
0110
1001
0110
0000
1000
0000
,
1010
0101
1010
0101
1010
0000
0100
0000
0010
0000
0100
0000
1020
0000
0000
0000
,
0031
0000
1010
0110
0011
1010
0110
0011
,
1010
0011
1010
0110
0011
1010
0110
0011
,
1010
0011
1100
1001
1010
1100
1001
1010
,
1100
1010
1100
1001
1010
1100
1001
1010
,
1100
1010
0101
0110
1100
0101
0110
1100
,
0101
1100
0101
0110
1100
0101
0110
1100
,
0101
1100
0011
1001
0101
0011
1001
0101
,
0011
0101
0011
1001
0101
0011
1001
0101
,
0011
0000
0101
0000
1100
0000
0101
1010
0110
0000
0011
1100
1001
0000
0011
1100
,
1001
0000
1010
0101
0110
0000
0101
1010
0110
0000
0011
1100
1001
0000
0011
1100
,
0011
0000
0010
0000
0101
0000
0011
1100
1001
0000
1010
0101
0110
0000
1010
0101
,
0110
0000
1100
0011
1001
0000
0011
1100
1001
0000
1010
0101
1001
0000
0011
1100
,
0011
0000
0000
0010
0000
0000
1001
0000
0000
1001
0000
0000
0001
0010
0100
1000
0000
0000
1000
0100
0010
0001
0000
0000
,
0011
0000
0000
1100
0000
0000
1001
0000
0000
1001
0000
0000
1000
0100
0010
0001
0000
0000
0001
0010
0100
1000
0000
0000
,
1100
0000
0011
0000
1010
0000
1010
0000
0010
0100
1000
0100
0011
0000
0011
0000
,
0010
0100
1000
0010
1100
0000
1100
0000
0110
0000
0110
0000
0011
0000
0011
0000
,
0101
0000
0101
0000
1100
0000
0011
1100
0011
1100
0011
1100
0011
0000
1010
0000
,
0110
1001
0110
1001
0110
0000
1100
0000
0011
1100
0011
1100
0011
0000
0011
0000
,
0101
0000
0011
0000
1001
0000
0110
1001
0110
1001
0110
1001
0110
0000
1001
0000
,
0101
1010
0101
1010
0101
0000
1010
0000
0110
0000
0011
0000
1100
0000
0110
0000
,
0011
0000
0000
0000
0110
0000
0011
1100
0011
1100
0011
1100
0011
0000
1010
0000
,
0110
1001
0110
1001
0110
0000
0011
1100
0011
1100
0011
1100
0011
0000
1010
0000
,
0110
1001
0110
1001
1010
0000
0011
1000
0011
0000
1010
0001
1010
0000
0011
1000
,
0011
0000
1010
0001
1001
0000
1001
0000
1001
0000
1001
0000
0110
0110
0110
0110
,
0110
0110
0110
0110
0220
0000
0000
0000
0000
0000
0000
0000
0000
0000
0000
0000
,
0330
0000
0000
0000
1001
1001
1001
1001
1001
1001
1001
1001
2002
0000
0000
0000
,
3003
0000
0000
0000
1010
0000
0010
0101
1000
0011
0100
1001
0110
0000
0101
0000
,
0110
1001
0100
1010
0101
0000
1010
0000
1100
0011
0100
1001
1100
0000
1010
0000
,
0101
0000
1010
0000
1100
0000
0011
1100
0001
0110
1001
0100
1010
0000
0110
0000
,
0011
1100
0010
1001
0110
0000
0011
0000
0101
0000
1010
0000
0110
0000
1100
0000
,
0101
0000
0000
0000
0000
0000
1010
0000
0000
0000
0000
0000
0101
0000
0000
0000
0000
0000
0110
0000
0000
1001
0000
0000
0010
0000
0000
0101
0000
0000
1010
0000
0000
0101
0010
0000
1100
0000
0000
0000
0000
0000
0110
0000
0000
0000
0000
0000
,
0110
0000
0000
1000
0000
0000
0101
0000
0000
1010
0000
0000
0101
0000
0000
0000
0000
0000
1100
0000
0000
0000
0000
0000
1100
0000
0000
0011
0000
0000
0100
0000
0010
1001
0010
0000
1100
0000
0000
0000
0000
0000
0011
0000
0000
0000
0000
0000
,
0110
0000
0000
0000
0000
0000
1010
0000
0000
0000
0000
0000
0110
0000
0000
0000
0000
0000
0011
0000
0000
1100
0000
0000
0001
0000
0000
0110
0000
0000
1000
0000
0100
1000
0010
0000
0101
0000
0000
0000
0000
0000
0110
0000
0000
0000
0000
0000
,
0011
0000
0000
1100
0001
0000
0010
0000
0100
1001
0000
0000
0110
0000
0000
0000
0000
0000
1010
0000
0000
0000
0000
0000
0110
0000
0000
0000
0000
0000
0011
0000
0000
0000
0000
0000
1100
0000
0000
0000
0000
0000
0100
0000
0000
0000
0000
0000
,
0110
0010
1001
0000
0000
0000
0000
0000
;
