#TITLE:SEPTEMBER;
#SUBTITLE:;
#ARTIST:DJ Speedo feat. Angelica;
#TITLETRANSLIT:;
#SUBTITLETRANSLIT:;
#ARTISTTRANSLIT:;
#CREDIT:;
#BANNER:SEPTEMBER.PNG;
#BACKGROUND:SEPTEMBER-bg.png;
#LYRICSPATH:;
#CDTITLE:CDtitle.PNG;
#MUSIC:DJ Speedo feat. Angelica - SEPTEMBER.mp3;
#OFFSET:-1.000;
#SAMPLESTART:15.860;
#SAMPLELENGTH:30.000;
#SELECTABLE:YES;
#BPMS:0.000=178.180;
#STOPS:;
#BGCHANGES:;
// cache tags:
#FIRSTBEAT:6.000;
#LASTBEAT:390.000;
#SONGFILENAME:Songs/other/SEPTEMBER/SEPTEMBER.sm;
#HASMUSIC:1;
#HASBANNER:1;
#MUSICLENGTH:132.393;
// end cache tags

//---------------dance-single - ----------------
#NOTES:
     dance-single:
     :
     Challenge:
     9:
     0.700,0.626,0.363,0.234,0.083,570.000,48.000,31.000,0.000,0.000:  // measure 1
0000
0000
0000
0000
,  // measure 2
0000
0000
0000
0000
1000
0001
0100
0000
,  // measure 3
0010
1000
0001
0000
0100
1000
0001
0100
,  // measure 4
0010
1000
0001
0000
0100
0010
1000
0000
,  // measure 5
1000
0010
0100
0000
1000
0001
0100
0010
,  // measure 6
0100
0001
1000
0000
0010
0001
1000
0000
,  // measure 7
0100
0001
1000
0000
0100
0001
0010
0100
,  // measure 8
1000
0010
0001
0000
1000
0001
0010
0000
,  // measure 9
0010
0001
1000
0000
0100
0001
1000
0010
,  // measure 10
0100
0000
1000
0100
0001
0100
1000
0100
,  // measure 11
0001
0100
1000
0000
0110
0000
0101
0000
,  // measure 12
1001
0000
0001
0010
1000
0010
0001
0010
,  // measure 13
1000
0010
0001
0000
1001
0000
0110
0000
,  // measure 14
1001
0000
0100
1000
0010
0001
0100
1000
,  // measure 15
0010
0001
0100
0000
1100
0000
0110
0000
,  // measure 16
0011
0000
1000
0010
0100
0001
1000
0010
,  // measure 17
0100
0001
1000
0000
0110
0000
0101
0000
,  // measure 18
1001
0000
0100
1000
0020
0001
0000
1000
,  // measure 19
0000
0100
0000
0031
1000
0010
0100
0001
,  // measure 20
1000
0000
0010
0100
0002
0010
0000
1000
,  // measure 21
0000
0013
0100
1000
0010
0001
2000
0010
,  // measure 22
0000
3010
0100
0001
0020
1000
0000
0001
,  // measure 23
0000
1030
0100
0001
1000
0010
0001
0100
,  // measure 24
0000
0000
0100
0000
0002
0000
0003
0000
0100
0010
0000
0000
0010
1000
0000
0000
,  // measure 25
0100
0001
0000
0000
1000
0010
0000
0000
0010
0100
0000
0000
0001
1000
0000
0000
,  // measure 26
0100
0001
1000
0010
0200
1000
0000
0310
,  // measure 27
0001
0010
0100
1000
0100
0001
0020
0000
,  // measure 28
0000
0000
0031
0100
2000
0010
0000
0001
,  // measure 29
0000
3010
0100
0001
1000
0010
0200
0001
,  // measure 30
0000
1300
0010
0001
0200
0010
0000
1000
,  // measure 31
0000
0301
1000
0010
0100
1000
0100
0010
,  // measure 32
0000
0000
0010
0000
0200
0000
0300
0000
0001
1000
0000
0000
0010
0100
0000
0000
,  // measure 33
1000
0001
0000
0000
0100
0010
0000
0000
0110
0000
0000
0000
1100
0000
0000
0000
,  // measure 34
0022
0000
0000
0033
1000
0100
0001
0100
,  // measure 35
1000
0000
0000
0001
1000
0001
1000
0010
,  // measure 36
0100
0010
0100
0000
0001
0010
1000
0010
,  // measure 37
0001
0000
0000
0100
1000
0100
1000
0010
,  // measure 38
0001
0010
0001
0000
0100
1000
0001
0010
,  // measure 39
0100
0000
0000
0100
1000
0100
0001
0100
,  // measure 40
0000
0000
0100
0000
0001
0000
0000
0000
0100
1000
0000
0000
0001
0010
0000
0000
,  // measure 41
1000
0100
0000
0000
0010
0001
0000
0000
0011
0000
0000
0000
0110
0000
0000
0000
,  // measure 42
2200
0000
0000
3300
0001
0100
0010
1000
,  // measure 43
0001
0000
0000
0100
0010
0100
0010
1000
,  // measure 44
0100
1000
0100
0000
0001
0100
0010
1000
,  // measure 45
0001
0000
0000
0010
0100
0010
0100
0001
,  // measure 46
0010
0001
0010
0000
0001
0100
0010
1000
,  // measure 47
0001
0000
0000
0100
1000
0001
0010
1000
,  // measure 48
0000
1000
0000
0100
0020
0001
0000
1000
,  // measure 49
0000
0001
0030
0000
2002
0000
0000
0000
,  // measure 50
0000
0000
3003
0000
1000
0100
0001
0000
,  // measure 51
0010
0100
1000
0000
0010
1000
0001
0100
,  // measure 52
0010
0001
0100
0000
0010
1000
0001
0000
,  // measure 53
0010
0100
0001
0000
0100
1000
0010
0100
,  // measure 54
0001
1000
0010
0000
0100
0010
1000
0000
,  // measure 55
0001
1000
0100
0000
0001
1000
0001
0000
,  // measure 56
1000
0001
1000
1001
0000
0000
0000
0011
,  // measure 57
0000
0000
0000
1100
0000
0101
0000
0110
,  // measure 58
0000
0100
1000
0001
1000
0001
1000
0001
,  // measure 59
1000
0001
1000
0000
0110
0000
1001
0000
,  // measure 60
0110
0000
0100
0010
0100
0010
0100
0010
,  // measure 61
0100
0010
0100
0000
1100
0000
0110
0000
,  // measure 62
0011
0000
0100
1000
0100
1000
0100
1000
,  // measure 63
0100
1000
0100
0000
0011
0000
0110
0000
,  // measure 64
1100
0000
0010
0001
0010
0001
0010
0001
,  // measure 65
0010
0001
0010
0000
0100
0100
0001
0001
,  // measure 66
0000
0000
0100
0000
0010
0000
1000
0000
0001
0000
0100
0010
0100
0010
0100
0000
,  // measure 67
0000
1000
0001
0100
0010
1000
0100
0010
,  // measure 68
0001
0000
1000
0200
0000
0302
0000
0003
,  // measure 69
0000
1000
0010
0100
0001
0100
1000
0000
,  // measure 70
0000
0000
0100
1000
0002
0010
0000
0100
,  // measure 71
0000
1003
0100
0010
1000
0001
0100
0000
,  // measure 72
0000
0000
0000
0000
0100
0000
1000
0000
0001
0100
0000
0000
0010
1000
0000
0000
,  // measure 73
0100
0010
0000
0000
1000
0001
0000
0000
0100
1000
0000
0000
0010
0001
0000
0000
,  // measure 74
0000
0100
0001
1000
0020
1000
0000
0001
,  // measure 75
0030
1000
0100
0010
0000
0000
1000
0100
,  // measure 76
0000
0001
0100
0010
2000
0001
0000
3100
,  // measure 77
0001
0010
1000
0010
0001
0100
0020
0000
,  // measure 78
0030
0001
0100
1000
0200
0010
0000
0001
,  // measure 79
0000
1300
0000
0010
1000
0100
0010
0001
,  // measure 80
0000
0000
0010
0002
0000
0010
0000
0100
,  // measure 81
0000
1000
0003
0000
0101
0000
1100
0000
,  // measure 82
0110
0011
1010
0101
,  // measure 83
1001
0000
0000
0000
0100
0001
1000
0010
,  // measure 84
0100
0000
0000
0001
1000
0010
0100
0010
,  // measure 85
0001
0100
1000
0000
0010
0001
1000
0100
,  // measure 86
0010
0000
0000
0100
0010
1000
0010
0100
,  // measure 87
0001
0010
0100
0000
0010
1000
0100
0001
,  // measure 88
0100
0000
0000
0001
1000
0010
0100
0010
,  // measure 89
1000
0100
0001
0020
0000
1000
0000
0001
,  // measure 90
0000
1000
0030
0000
1001
0000
0110
0000
,  // measure 91
1001
0000
0000
0000
0010
1000
0001
0100
,  // measure 92
0020
0000
0030
0000
1000
0001
0100
0010
,  // measure 93
1000
0001
0010
0000
0100
0001
1000
0010
,  // measure 94
0200
0000
0300
0000
0010
0100
0001
1000
,  // measure 95
0100
0010
0001
0000
1000
0010
0100
0001
,  // measure 96
2000
0000
3000
0000
0010
0100
0001
0100
,  // measure 97
0020
0030
1001
0011
,  // measure 98
0101
1100
1001
0000
;
