#TITLE:8-Bit Assassin;
#SUBTITLE:;
#ARTIST:Peckerhead;
#TITLETRANSLIT:;
#SUBTITLETRANSLIT:;
#ARTISTTRANSLIT:;
#CREDIT:Aoreo;
#BANNER:Bn-Bit.png;
#BACKGROUND:Bg-Bit.png;
#LYRICSPATH:;
#CDTITLE:;
#MUSIC:8-Bit Assassin.ogg;
#OFFSET:-0.017;
#SAMPLESTART:43.998;
#SAMPLELENGTH:12.000;
#SELECTABLE:YES;
#BPMS:0.000=190.000;
#STOPS:;
#BGCHANGES:;
// cache tags:
#FIRSTBEAT:16.000;
#LASTBEAT:383.750;
#SONGFILENAME:Songs/SPEEEDCOOOORE/8-Bit Assassin - [Rynker & Aoreo]/8-Bit Assassin.sm;
#HASMUSIC:1;
#HASBANNER:1;
#MUSICLENGTH:121.418;
// end cache tags

//---------------dance-single - R. Konkul vs. J. Ner----------------
#NOTES:
     dance-single:
     R. Konkul vs. J. Ner:
     Challenge:
     13:
     1.000,1.000,0.329,0.412,1.000,946.000,40.000,50.000,28.000,0.000:

0000
0000
0000
0000
,
0000
0000
0000
0000
,
0000
0000
0000
0000
,
0000
0000
0000
0000
,
1000
0000
0100
0010
0100
0010
0100
0000
1000
0000
0001
0100
0001
0100
0001
0000
,
0010
0000
0100
1000
0100
1000
0100
0000
1000
0000
0001
0100
0001
0100
0001
0000
,
0010
0000
0100
1000
0100
1000
0100
0000
1000
0000
0001
0100
0001
0100
0001
0000
,
0010
0000
0100
1000
0100
1000
0100
0000
0010
0000
0001
0010
0001
0010
0001
0000
,
0100
0000
0010
1000
0010
0100
0010
0000
0100
0000
0001
1000
0010
1000
0001
0000
,
0010
0000
0100
0010
0100
1000
0100
0000
0010
0000
0001
1000
0100
1000
0001
0000
,
1000
0000
0010
1000
0010
0100
0010
0000
0100
0000
0001
0100
0010
0100
0001
0000
,
1000
0000
0010
1000
0001
0100
0010
0000
0100
0000
0001
0100
0010
1000
0001
0000
,
0010
0000
0100
0010
0100
1000
0100
0000
1000
0000
0001
0100
0010
0100
0001
0000
,
0010
0000
0100
0010
0100
1000
0100
0000
1000
0000
0001
0010
0100
0010
0001
0000
,
0100
0000
0010
0100
0010
1000
0010
0000
1000
0000
0100
1000
0010
1000
0100
0000
,
1000
0000
0001
0010
0100
1000
0001
0000
0100
0000
0010
1000
0001
0100
0010
0000
,
0100
0000
0010
0000
0100
0001
0100
0000
0001
0000
0010
0000
0100
1000
0100
0000
,
1100
0000
1000
0000
0010
1000
0010
0000
0100
0000
0001
0000
1000
0001
1000
0000
,
1001
0000
0001
0000
0010
0100
0010
0000
0100
0000
1000
0000
0001
0010
0001
0000
,
0101
0000
0100
0000
0010
1000
0010
0000
1000
0000
0100
0000
1000
0001
1000
0000
,
1010
0000
0010
0000
0100
0010
0100
0000
0001
0000
0010
0000
0100
1000
0100
0000
,
1100
0000
1000
0000
0001
0010
0001
0000
0010
0000
0100
0000
1000
0100
1000
0000
,
1010
0000
0010
0000
0100
0001
1000
0000
0001
0000
0010
0000
0100
1000
0001
0000
,
0100
0000
0010
1000
0001
0010
0100
0000
1000
0000
0010
0100
0001
1000
0001
1000
,
0100
1000
0010
0100
0001
0010
0100
1000
,
1010
0010
0100
0001
0010
0100
1000
0001
,
0101
0100
0010
1000
0100
0010
0100
1000
,
1001
0000
0001
0000
0100
0001
0100
0000
0010
0000
1000
0000
0001
1000
0001
0000
,
0011
0010
0100
0010
0100
1000
0001
0100
,
0101
0001
0010
0100
0010
0001
0010
0100
,
1100
1000
0010
0100
0001
1000
0010
0100
,
0001
0000
1000
0010
0100
0001
1000
0001
0100
0000
0010
1000
0001
0010
0100
1000
,
0001
0000
1000
0000
0010
1000
0001
0000
0010
0000
0100
0000
1000
0010
0100
0000
,
0110
0000
0010
0000
0100
0001
1000
0000
0100
0000
0010
0000
0001
0010
0100
0000
,
1100
0000
1000
0000
0010
1000
0001
0000
0010
0000
0100
0000
1000
0010
0100
0000
,
0101
0000
0001
0000
0010
0100
1000
0000
0001
0000
0100
0000
0010
0100
0001
0000
,
0101
0000
0100
0000
0001
0010
0100
0000
1000
0000
0001
0000
0100
0010
1000
0000
,
1010
0000
0010
0000
0100
0001
1000
0000
0100
0000
0010
0000
0001
0010
0100
0000
,
1100
0000
1000
0000
0010
0100
0010
0000
1000
0000
0001
0000
0010
0100
0010
0000
,
0001
0100
0010
1000
0001
1000
0100
0010
0001
1000
0010
0100
0001
1000
0100
0010
,
M002
0000
0203
0000
0000
0320
0000
2030
,
000M
0000
0000
0000
0000
0000
0000
0000
0000
0000
0000
0000
0000
0000
0000
0000
0000
0000
0000
0000
0000
0000
0000
0000
0000
0000
0000
0000
0000
0000
0000
0000
0000
0000
0000
0000
0000
0000
0000
0000
0000
0000
0000
0000
0000
0000
0000
0000
3002
0000
0000
0000
0000
0000
0000
0000
0000
0000
0000
0000
0000
0000
0000
0000
0000
0000
0000
0000
0000
0000
0000
0000
0023
0000
0000
0000
0000
0000
0000
0000
0000
0000
0000
0000
0000
0000
0000
0000
0000
0000
0000
0000
0000
0000
0000
0000
0230
0000
0000
0000
0000
0000
0000
0000
0000
0000
0000
0000
0000
0000
0000
0000
0000
0000
0000
0000
0000
0000
0000
0000
2300
0000
0000
0000
0000
0000
0000
0000
0000
0000
0000
0000
0000
0000
0000
0000
0000
0000
0000
0000
0000
0000
0000
0000
0000
0000
0000
0000
0000
0000
0000
0000
0000
0000
0000
0000
3000
0000
0000
0000
0000
0000
0000
0000
0000
0000
0000
1000
0002
0000
0000
0000
0000
0000
0000
0000
0000
0000
0000
0000
0000
0000
0000
0000
0000
0000
0000
0000
0000
0000
0000
0000
,
0M00
0000
0000
0000
1003
0000
0020
0230
,
M302
0000
0000
0000
0000
0000
0000
0000
0000
0000
0000
0000
0000
0000
0000
0000
0000
0000
0000
0000
0000
0000
0000
0000
0203
0000
0000
0000
0000
0000
0000
0000
0000
0000
0000
0000
0000
0000
0000
0000
0000
0000
0000
0000
0000
0000
0000
0001
2300
0000
0000
0000
0000
0000
0000
0000
0000
0000
0000
0000
0000
0000
0000
0000
0000
0000
0000
0000
0000
0000
0000
0000
0000
0000
0000
0000
0000
0000
0000
0000
0000
0000
0000
0000
0000
0000
0000
0000
0000
0000
0000
0000
0000
0000
0000
0000
0000
0000
0000
0000
0000
0000
0000
0000
0000
0000
0000
0000
0000
0000
0000
0000
0000
0000
0000
0000
0000
0000
0000
0000
0000
0000
0000
0000
0000
0000
0000
0000
0000
0000
0000
0000
0000
0000
0000
0000
0000
0000
0000
0000
0000
0000
0000
0000
0000
0000
0000
0000
0000
0000
0000
0000
0000
0000
0000
0000
0000
0000
0000
0000
0000
0000
0000
0000
0000
0000
0000
0000
0000
0000
0000
0000
0000
0000
0000
0000
0000
0000
0000
0000
0000
0000
0000
0000
0000
0000
0000
0000
0000
0000
0000
0000
,
3M1M
0000
0000
0000
0000
0000
0000
0000
0000
0000
0000
0000
0000
0000
0000
0000
0000
0000
0000
0000
0000
0000
0000
0000
0000
0000
0000
0000
0000
0000
0000
0000
0000
0000
0000
0000
0000
0000
0000
0000
0000
0000
0000
0000
0000
0000
0000
0000
0200
0000
0000
0000
0000
0000
0000
0000
0000
0000
0000
0000
0000
0000
0000
0000
0000
0000
0000
0000
0000
0000
0000
0000
0000
0000
0000
0000
0000
0000
0000
0000
0000
0000
0000
0000
0000
0000
0000
0000
0000
0000
0000
0000
0000
0000
0000
0000
0000
0000
0000
0000
0000
0000
0000
0000
0000
0000
0000
0000
0000
0000
0000
0000
0000
0000
0000
0000
0000
0000
0000
0000
0302
0000
0000
0000
0000
0000
0000
0000
0000
0000
0000
0000
0000
0000
0000
0000
0000
0000
0000
0000
0000
0000
0000
0000
0000
0000
0000
0000
0000
0000
0000
0000
0000
0000
0000
0000
0000
0000
0000
0000
0003
0000
0000
0000
0000
0000
0000
0010
2000
0000
0000
0000
0000
0000
0000
0000
0000
0000
0000
0000
0000
0000
0000
0000
0000
0000
0000
0000
0000
0000
0000
0000
,
0M0M
0000
3002
0023
0230
2300
0000
3020
,
0M0M
0000
0000
0000
0000
0000
0000
0000
0000
0000
0000
0000
0000
0000
0000
0000
0000
0000
0000
0000
0000
0000
0000
0000
0000
0000
0000
0000
0000
0000
0000
0000
0000
0000
0000
0000
0000
0000
0000
0000
0000
0000
0000
0000
0000
0000
0000
0000
0000
0000
0000
0000
0000
0000
0000
0000
0000
0000
0000
0000
0000
0000
0000
0000
0000
0000
0000
0000
0000
0000
0000
0000
0000
0000
0000
0000
0000
0000
0000
0000
0000
0000
0000
0000
0000
0000
0000
0000
0000
0000
0000
0000
0000
0000
0000
0000
0130
0000
0000
0000
0000
0000
0000
0000
0000
0000
0000
0000
0000
0000
0000
0000
0000
0000
0000
0000
0000
0000
0000
0000
0000
0000
0000
0000
0000
0000
0000
0000
0000
0000
0000
0000
0000
0000
0000
0000
0000
0000
0000
0000
0000
0000
0000
0001
2000
0000
0000
0000
0000
0000
0000
0000
0000
0000
0000
0000
0000
0000
0000
0000
0000
0000
0000
0000
0000
0000
0000
0000
0040
0000
0000
0000
0000
0000
0000
0000
0000
0000
0000
0000
0000
0000
0000
0000
0000
0000
0000
0000
0000
0000
0000
0000
,
3M0M
0000
0000
0000
,
2M3M
0000
0000
0000
3200
0000
0000
0000
0000
0000
0320
0032
2003
0000
3020
0000
,
M23M
0000
0000
0300
0002
0000
0000
0000
0000
0000
0203
0302
2003
0000
3200
0000
,
M32M
0030
0002
0023
0032
0000
0000
0000
0000
0000
0023
0230
0320
0000
0230
0000
,
43MM
0000
0000
0000
,
3001
0100
0010
0100
0001
1000
0100
0010
0001
0100
0010
1000
0001
0010
0100
1000
,
0001
0400
0310
0400
0301
4000
3010
4000
,
3002
0000
0023
0000
0000
0000
0430
0000
1300
0000
0100
1000
0100
0000
1000
0000
,
0001
0000
M4M0
0000
0300
0000
M4M0
0000
0300
0000
M2M0
0000
0300
0000
M2M0
0300
,
0101
0001
0010
0100
1000
0010
0100
0001
,
1001
1000
0100
0010
0100
1000
0001
0100
,
0110
0010
1000
0001
0010
0100
0010
0001
,
0011
0010
0100
1000
0001
0100
0001
1000
,
1100
0100
1000
0010
0100
0001
1000
0010
,
0110
0100
0001
0010
0100
0010
0001
1000
,
1001
0001
0100
0010
1000
0100
0010
0100
,
2000
0000
0000
0000
3001
0400
0310
0400
,
1301
1000
0010
0100
0001
1000
0001
0001
,
0011
0010
0100
1000
0010
0100
0001
0001
,
1001
0000
1000
0010
0100
0000
0010
0000
0100
0000
0001
0000
0010
0000
0010
0000
,
0110
0100
1000
0001
0010
0100
1000
0001
,
0101
0100
0010
1000
0100
0010
0100
0100
,
1100
1000
0010
0100
0001
0010
0001
0001
,
0101
0100
0010
1000
0100
0010
0100
1000
,
0001
0100
0010
1000
0001
0100
0010
1000
0001
1000
0100
0010
0001
1000
0100
0010
,
0001
0100
0001
0010
0100
1000
0100
1000
0100
1000
0010
0100
0001
1000
0001
1000
,
0001
1000
0100
0010
0001
0010
0001
0010
0001
0010
0100
1000
0010
1000
0010
1000
,
0010
1000
0100
0010
0001
0010
0001
0010
0001
0100
0010
1000
0001
1000
0001
1000
,
0001
1000
0010
0100
0001
0100
0001
0100
0001
0100
0010
1000
0100
1000
0100
1000
,
0100
1000
0010
0100
0001
0100
0001
0100
0001
0100
0010
1000
0100
1000
0100
1000
,
0100
1000
0010
0100
0001
0010
0001
0010
0001
0010
0100
1000
0001
0100
0001
0100
,
0001
0100
0010
1000
0100
1000
0100
1000
0100
1000
0001
0010
0001
0100
0010
0100
,
0001
0010
0100
1000
0010
0100
0001
1000
0002
0000
1003
0000
0200
0000
0310
0000
,
0001
0010
0100
1000
0100
0010
0001
1000
0001
0100
0010
1000
0100
0010
0001
1000
,
0001
0010
0100
1000
0001
0100
0001
0100
0010
1000
0010
1000
0100
0010
0001
1000
,
0001
0010
0100
1000
0001
0100
0001
0100
0010
1000
0010
1000
0100
0010
0001
1000
,
0001
1000
0100
0010
0100
1000
0001
0100
0010
0100
0001
0010
0100
0010
0001
1000
,
0001
0010
0100
1000
0100
0010
0001
1000
0001
0100
0010
1000
0100
0010
0001
1000
,
0001
0010
0100
1000
0001
0100
0001
0100
0010
1000
0010
1000
0100
0010
0001
1000
,
0001
0010
0100
1000
0001
0100
0001
0100
0010
1000
0010
1000
0100
0010
0001
1000
,
0001
1000
0100
0010
0100
1000
0001
0100
0010
0100
0001
0010
0100
0010
0001
1000
,
0001
0000
0010
0100
0010
0100
0010
0000
0001
0000
1000
0010
1000
0010
1000
0000
,
0100
0000
0010
0001
0010
0001
0010
0000
0001
0000
1000
0010
1000
0001
1000
0000
,
0100
0000
0010
0001
1000
0001
0010
0000
0001
0000
1000
0010
0100
0010
1000
0000
,
0100
0000
0010
0100
1000
0001
0010
0000
0100
0000
1000
0001
0100
0010
1000
0000
,
0010
0000
0100
0010
0100
0010
0100
0000
0010
0000
1000
0001
1000
0001
1000
0000
,
0100
0000
0010
0100
0010
0001
0010
0000
0100
0000
1000
0001
0010
0001
1000
0000
,
0001
0000
0100
0001
0100
0010
0100
0000
0010
0000
1000
0010
0100
0010
1000
0000
,
0001
0000
0100
0001
1000
0010
0100
0000
0010
0000
1000
0010
0100
0001
0010
0100
;
