#TITLE:Never Supply;
#SUBTITLE:;
#ARTIST:DJ Sharpnel;
#TITLETRANSLIT:;
#SUBTITLETRANSLIT:;
#ARTISTTRANSLIT:;
#CREDIT:;
#BANNER:never supply bn new.png;
#BACKGROUND:never supply bg new.png;
#LYRICSPATH:;
#CDTITLE:;
#MUSIC:never.ogg;
#OFFSET:-0.060;
#SAMPLESTART:72.069;
#SAMPLELENGTH:20.210;
#SELECTABLE:YES;
#DISPLAYBPM:190.000;
#BPMS:0.000=190.000,292.000=95.000,310.500=106.875,311.062=118.750,312.312=130.625,313.688=154.375,315.312=166.250,317.062=178.125,318.000=190.000,320.000=178.125,320.938=154.375,322.562=142.500,323.312=106.875,325.000=95.000,329.500=133.000,330.000=152.000,330.500=171.000,330.750=190.000,331.250=95.000,332.000=380.000,332.750=95.000,341.000=106.875,341.562=130.625,342.250=142.500,343.000=166.250,343.875=190.000,345.375=166.250,345.812=130.625,346.500=95.000,349.500=166.250,350.375=178.125,351.312=190.000,352.312=166.250,353.188=154.375,354.000=142.500,354.750=95.000,356.250=154.375,357.062=166.250,357.500=190.000,359.000=166.250,359.438=154.375,360.250=142.500,361.375=130.625,362.750=118.750,364.000=95.000,368.000=133.000,369.000=152.000,369.500=190.000,369.750=285.000,370.000=190.000,370.250=95.000,371.000=380.000,371.750=95.000,376.000=142.500,378.500=118.750,379.500=95.000,380.000=106.875,380.562=118.750,381.188=130.625,381.875=142.500,382.250=166.250,382.688=213.750,384.375=166.250,384.812=130.625,385.500=95.000,386.000=190.000,410.000=285.000,412.667=380.000,415.000=475.000,416.000=570.000,417.000=665.000,418.000=190.000,431.000=285.000,432.500=232.500,434.000=190.000,445.500=475.000,445.750=570.000,446.500=475.000,447.000=380.000,448.000=232.500,449.000=190.000,474.333=275.000,478.750=190.000,480.000=380.000,481.000=190.000,506.000=380.000,508.000=475.000,509.000=580.000,510.000=232.500,512.000=190.000,538.000=275.000,540.000=380.000,541.500=475.000,542.250=380.000,543.000=232.500,544.250=190.000,571.000=380.000,571.500=580.000,572.000=380.000,572.500=232.500,574.000=190.000;
#STOPS:329.500=0.045
,329.750=0.045
,330.000=0.039
,330.167=0.041
,330.333=0.039
,330.500=0.035
,330.625=0.035
,330.750=0.040
,330.875=0.039
,331.000=0.040
,331.125=0.038
,332.000=0.031
,332.062=0.030
,332.125=0.029
,332.188=0.029
,332.250=0.029
,332.312=0.030
,332.375=0.029
,332.438=0.031
,332.500=0.039
,332.583=0.039
,332.667=0.040
,368.000=0.068
,368.375=0.022
,368.500=0.030
,368.667=0.030
,368.833=0.030
,369.000=0.040
,369.167=0.039
,369.333=0.039
,369.500=0.039
,369.625=0.040
,369.750=0.053
,369.875=0.053
,370.000=0.039
,370.125=0.040
,371.000=0.029
,371.062=0.030
,371.125=0.030
,371.188=0.030
,371.250=0.029
,371.312=0.029
,371.375=0.030
,371.438=0.029
,371.500=0.040
,371.583=0.040
,371.667=0.039
,376.000=0.052
,376.250=0.053
,376.500=0.053
,376.750=0.052
,377.000=0.053
,377.250=0.053
,377.500=0.053
,377.750=0.052
,378.000=0.053
,378.250=0.052
,378.500=0.043
,378.833=0.041
,379.167=0.043
,410.000=0.065
,410.625=0.058
,411.167=0.052
,411.667=0.053
,412.167=0.052
,412.667=0.053
,413.000=0.054
,413.333=0.052
,413.667=0.052
,414.000=0.040
,414.250=0.039
,414.500=0.040
,414.750=0.039
,415.000=0.032
,415.167=0.031
,415.333=0.032
,415.500=0.023
,415.625=0.024
,415.750=0.024
,415.875=0.024
,416.000=0.034
,416.167=0.036
,416.333=0.035
,416.500=0.026
,416.625=0.027
,416.750=0.026
,416.875=0.026
,417.000=0.019
,417.083=0.018
,417.167=0.020
,417.250=0.018
,417.333=0.019
,417.417=0.019
,417.500=0.019
,417.583=0.018
,417.667=0.019
,417.750=0.019
,417.833=0.019
,417.917=0.019
,431.000=0.026
,431.250=0.027
,431.500=0.035
,431.833=0.034
,432.167=0.035
,432.500=0.029
,433.000=0.029
,433.500=0.029
,445.500=0.024
,445.625=0.023
,445.750=0.027
,445.875=0.026
,446.000=0.026
,446.125=0.026
,446.250=0.018
,446.333=0.018
,446.417=0.017
,446.500=0.023
,446.625=0.024
,446.750=0.024
,446.875=0.024
,447.000=0.039
,447.250=0.040
,447.500=0.039
,447.750=0.040
,448.000=0.021
,448.375=0.022
,448.750=0.015
,474.333=0.022
,474.556=0.021
,474.778=0.021
,475.000=0.034
,475.333=0.032
,475.667=0.022
,475.889=0.022
,476.111=0.021
,476.333=0.024
,476.583=0.041
,477.000=0.041
,477.417=0.025
,477.667=0.021
,477.896=0.022
,478.104=0.021
,478.333=0.041
,480.000=0.026
,480.167=0.027
,480.333=0.025
,480.500=0.027
,480.667=0.027
,480.833=0.026
,506.000=0.098
,506.625=0.060
,507.000=0.052
,507.333=0.053
,507.667=0.052
,508.000=0.032
,508.167=0.032
,508.333=0.031
,508.500=0.032
,508.667=0.032
,508.833=0.031
,509.000=0.027
,509.125=0.026
,509.250=0.027
,509.375=0.026
,509.500=0.027
,509.625=0.026
,509.750=0.027
,509.875=0.026
,510.000=0.019
,510.333=0.025
,510.750=0.033
,511.333=0.039
,538.000=0.049
,538.500=0.049
,539.000=0.048
,539.500=0.049
,540.000=0.040
,540.250=0.039
,540.500=0.040
,540.750=0.039
,541.000=0.039
,541.250=0.040
,541.500=0.036
,541.688=0.035
,541.875=0.035
,542.062=0.036
,542.250=0.039
,542.500=0.040
,542.750=0.039
,543.000=0.025
,543.417=0.023
,543.833=0.024
,571.000=0.040
,571.250=0.039
,571.500=0.028
,571.625=0.026
,571.750=0.017
,571.833=0.018
,571.917=0.018
,572.000=0.026
,572.167=0.026
,572.333=0.027
,572.500=0.019
,572.833=0.028
,573.333=0.019
,573.667=0.010
,573.833=0.010
;
#BGCHANGES:;
// cache tags:
#FIRSTBEAT:4.000;
#LASTBEAT:710.500;
#SONGFILENAME:Songs/SHARPNELSTREAMZ v2/Never Supply/never.sm;
#HASMUSIC:1;
#HASBANNER:1;
#MUSICLENGTH:246.125;
// end cache tags

//---------------dance-single - 15- (TYLR)----------------
#NOTES:
     dance-single:
     15- (TYLR):
     Challenge:
     15:
     1.000,1.000,0.158,0.244,1.000,1999.000,39.000,60.000,17.000,0.000:

0000
0000
0000
0000
,
1001
1000
0010
0100
0100
0001
1000
1000
,
0100
0000
0100
0000
0010
0000
0001
0010
0001
0010
0100
1000
0001
0000
1000
0000
,
0001
0001
0100
0010
0010
1000
0100
0100
,
0010
0010
0001
1000
1000
0010
0100
0001
,
1001
1000
0100
0010
0010
0001
1000
1000
,
0010
0000
0010
0000
0100
0000
0001
0100
0001
0100
0010
1000
0001
0000
1000
0000
,
0001
0001
0010
0100
0100
1000
0010
0010
,
0100
0000
0100
0000
0001
0000
1000
0000
0001
1000
0001
1000
0001
1000
0001
1000
,
0002
0103
0020
1030
2000
3001
0020
0130
,
0020
0000
0031
0000
0200
0000
0301
1000
0002
0013
0100
1000
0002
0000
0013
0000
,
0002
0003
0001
0000
0200
0000
0310
0000
0020
0000
1030
0000
0200
0000
0310
0000
,
0200
1300
0010
0100
0200
0301
0020
0031
,
1002
1003
0200
0310
0020
0031
2000
3010
,
2000
0000
3001
0000
0020
0000
0130
1000
0002
1003
0100
0010
0002
0000
0103
0000
,
0002
0013
0200
0310
0020
0031
0200
0301
,
0020
0130
2000
3001
0200
0310
0200
0301
,
1002
1003
0020
0130
0200
0301
2000
3100
,
2000
0000
3001
0000
0200
0000
0310
1000
0002
1003
0010
0100
0002
0000
0013
0000
,
0002
0103
0020
0130
0200
0301
0020
0031
,
0200
0310
2000
3001
0020
0130
0020
0031
,
1002
1003
0020
0130
0200
0301
2000
3100
,
2000
0000
3001
0000
0200
0000
0310
1000
0002
1003
0010
0100
0002
0000
0013
0000
,
0002
0103
0020
0130
0200
0301
0020
0031
,
1001
0000
1000
0000
0010
0000
0100
0000
0001
0100
0001
0100
0001
0100
0001
0100
,
M010
0000
1000
0010
0100
0001
1000
0001
1000
0100
0010
0001
0010
0001
0100
0000
,
0001
1000
0001
0100
0010
1000
0001
1000
0100
0000
0010
0000
0100
1000
0001
0100
,
0001
0000
1000
0010
0100
0001
1000
0001
1000
0100
0010
0001
0010
0001
0100
0000
,
0001
1000
0001
0100
0010
0100
0001
0010
0100
0000
1000
0000
0001
0100
0010
0000
,
1001
0000
1000
0100
0010
0001
1000
0001
1000
0010
0100
0001
0100
0001
0010
0000
,
0001
1000
0001
0010
0100
1000
0001
1000
0010
0000
0100
0000
0010
1000
0001
0010
,
0001
0000
1000
0100
0010
0001
1000
0001
1000
0010
0100
0001
0100
0001
0010
0000
,
0001
1000
0001
0010
0100
0010
0001
0100
0010
0000
0100
0001
0010
0001
1000
0000
,
1001
0000
0001
0100
0010
1000
0001
1000
0001
0010
0100
1000
0100
1000
0010
0000
,
1000
0001
1000
0010
0100
0001
1000
0001
0010
0000
0100
0000
0010
0001
1000
0010
,
1000
0000
0001
0100
0010
1000
0001
1000
0001
0010
0100
1000
0100
1000
0010
0000
,
1000
0001
1000
0010
0100
0010
1000
0100
0010
0000
0001
0000
1000
0010
0100
0000
,
1001
0000
0001
0010
0100
1000
0001
1000
0001
0100
0010
1000
0010
1000
0100
0000
,
1000
0001
1000
0100
0010
0001
1000
0001
0100
0000
0010
0000
0100
0001
1000
0100
,
1000
0000
0001
0010
0100
1000
0001
1000
0001
0100
0010
1000
0010
1000
0100
0000
,
1000
0001
1000
0100
0010
0100
1000
0010
0100
0001
0100
0001
0100
0001
0100
0001
,
0010
0100
1000
0001
0010
0001
1000
0001
0010
0100
1000
0001
0010
0001
1000
0100
,
0010
0001
1000
0100
0010
0001
1000
0001
0100
0010
1000
0010
0100
0001
1000
0001
,
1000
0100
0010
0001
1000
0001
0010
0001
1000
0100
0010
0001
1000
0001
1000
0100
,
0010
0001
1000
0100
0010
0001
1000
0001
0100
0010
1000
0010
0100
0001
1000
0001
,
1000
0100
1000
0010
0100
0010
1000
0001
0010
0100
0010
0001
1000
0100
1000
0001
,
1000
0010
0100
0001
1000
0001
0100
0010
1000
0001
1000
0100
0010
0100
1000
0001
,
1000
0010
1000
0001
0010
0100
1000
0001
0010
0100
0010
0001
1000
0010
0100
0001
,
1000
0001
0100
0010
1000
0010
0100
0001
0010
0000
0001
0000
0100
0000
0001
0000
,
1000
0100
0010
0001
1000
0001
0010
0100
1000
0001
0100
0001
1000
0010
0100
0001
,
1000
0010
1000
0001
0010
0100
1000
0001
0100
0001
1000
0010
0100
0001
1000
0001
,
1000
0100
0010
0001
1000
0001
0010
0100
1000
0001
0100
0001
1000
0001
0100
0001
,
1000
0100
1000
0001
0010
0100
0010
0001
0100
0010
1000
0001
0010
0001
1000
0010
,
1000
0001
1000
0010
0100
0010
1000
0001
0010
0100
0010
0001
1000
0100
1000
0001
,
1000
0010
0100
0001
1000
0001
0100
0010
1000
0001
1000
0100
0010
0100
1000
0001
,
1000
0010
1000
0001
0010
0100
1000
0001
0010
0100
0010
0001
1000
0010
0100
0001
,
1000
0001
0100
0010
1000
0010
0100
0001
0010
0000
0001
0000
0100
0000
0001
0000
,
1000
0100
1000
0001
0100
0001
1000
0100
0010
0100
1000
0001
0010
0100
0010
0001
,
1000
0010
1000
0001
0010
0001
1000
0010
0100
0001
0100
0010
1000
0001
0010
0001
,
1000
0100
1000
0001
0100
0001
1000
0100
0010
0100
1000
0001
0010
0100
0010
0001
,
1000
0010
1000
0001
0010
0100
0010
0001
0100
0001
1000
0100
0010
0100
1000
0001
,
1000
0100
1000
0001
0100
0001
1000
0100
0010
0100
1000
0001
0010
0100
0010
0001
,
1000
0010
1000
0001
0010
0001
1000
0010
0100
0001
0100
0010
1000
0001
0010
0001
,
1000
0100
1000
0001
0100
0001
1000
0100
0010
0100
1000
0001
0010
0100
0010
0001
,
1000
0010
1000
0001
0010
0100
0010
0001
0100
0000
0001
0000
0010
0000
0001
0000
,
1000
0100
1000
0001
0100
0001
1000
0100
0010
0100
1000
0001
0010
0100
0010
0001
,
1000
0010
1000
0001
0010
0001
1000
0010
0100
0001
0100
0010
1000
0001
0010
0001
,
1000
0100
1000
0001
0100
0001
1000
0100
0010
0100
1000
0001
0010
0100
0010
0001
,
1000
0010
1000
0001
0010
0100
0010
0001
0100
0001
1000
0100
0010
0100
1000
0001
,
1000
0100
1000
0001
0100
0001
1000
0100
0010
0100
1000
0001
0010
0100
0010
0001
,
1000
0010
1000
0001
0010
0001
1000
0010
0100
0001
0100
0010
1000
0001
0010
0001
,
1000
0100
1000
0001
0100
0001
1000
0100
0010
0100
1000
0001
0010
0100
0010
0001
,
1000
0000
0000
0000
0000
0000
0000
0000
0001
0010
0001
0100
0010
0000
1000
0000
,
1MM1
0000
0001
0000
0010
0000
0001
1000
0001
1000
0010
0000
0100
0000
0010
1000
,
0001
0000
0001
0000
0010
0000
0100
1000
0100
0010
0001
0000
1000
0000
0001
0100
,
0010
0000
0010
0000
1000
0000
0010
0100
0010
1000
0001
0000
0100
0000
0001
1000
,
0100
0000
0100
0000
0010
0000
0100
1000
0100
0010
0001
0000
1000
0000
0001
0100
,
0110
0000
0010
1000
0010
0100
0001
0000
1001
0000
4000
0000
0000
0000
0000
0000
,
0000
0000
0000
0000
,
0000
0000
0000
3001
,
0404
0000
0000
0000
,
0000
0000
0000
0000
0000
0000
0000
0000
0000
0000
0000
0000
0000
0000
0000
0303
,
1010
0000
1000
0000
1001
0000
0004
0000
0000
0000
0000
0000
0000
0003
0101
0000
,
4040
0000
0000
3030
1001
0000
0001
0010
0001
0100
0010
1000
0001
0000
0011
0010
,
0100
0000
1000
0000
0100
0000
1000
0000
0100
0000
1000
0000
0001
0000
0000
0000
0000
0000
0101
0000
0000
0000
0000
0000
0100
0000
0000
0001
0000
0000
0010
0000
0000
0100
0000
0000
1000
0000
0000
0001
0000
0000
0100
0000
0000
0001
0000
0000
,
1000
0100
0010
0100
4000
0000
0000
0000
0000
0000
0000
0000
0000
0000
0000
0000
,
0000
0000
0000
0000
0000
0000
0000
0000
0000
0000
0000
3000
0011
0000
0001
1000
,
0010
1000
0100
0000
0011
0000
4000
0000
0000
0000
0000
0000
0000
0000
0000
0000
,
0000
0000
0000
0000
,
0000
0000
3001
0404
,
0000
0000
0000
0000
,
0000
0000
0000
0000
0000
0000
0000
0000
0000
0000
0000
0303
1010
0000
1000
0000
,
4001
0000
0000
0000
0000
0000
0000
0000
0000
3000
0011
0000
0404
0000
0000
0303
,
1010
0000
0000
0000
0000
0000
1000
0000
0000
0001
0000
0000
0010
0000
0000
0100
0000
0000
1000
0000
0000
0001
0000
0000
0100
0000
0000
0000
0000
0000
1010
0000
0000
1000
0000
0000
0001
0000
0010
0000
0001
0000
1000
0000
0001
0000
1000
0000
,
0004
0000
0000
0000
0000
0000
0000
0000
0000
0000
0000
0000
0000
0000
0103
0010
,
4000
0000
0000
0000
,
0000
0000
0000
0000
0000
0000
0000
3000
1MM1
0000
0001
0010
0001
1000
0010
0000
,
0100
0000
0100
0000
0100
0000
0001
0000
0010
0000
0100
1000
0100
0010
0001
1000
,
0001
0000
0001
0000
0100
0010
1000
0000
0001
0010
0100
0000
1000
0000
0001
0100
,
0010
1000
0000
1000
0001
1000
0001
0010
0100
0000
1000
0100
0010
0100
1000
0000
,
0001
0000
0100
0000
0001
0000
0100
0000
0010
0000
1000
0010
1000
0001
0010
0000
,
0100
0000
0100
0000
0100
0000
1000
0000
0010
0000
0100
0001
0100
0010
1000
0001
,
1000
0000
1000
0000
0100
0010
0001
1000
0004
0000
0000
0000
0000
0000
0000
0000
,
0000
0000
0000
0000
,
0000
0000
0000
0000
0000
0000
0000
0000
1003
0000
0001
0100
0001
1000
0100
0000
,
0010
0000
0010
0000
0010
0000
0001
0000
0100
0000
0010
1000
0010
0100
0001
1000
,
0001
0000
0001
0000
0010
0100
1000
0000
0001
0100
0010
0000
1000
0000
0001
0010
,
0100
1000
0000
1000
0001
1000
0001
0100
0010
0000
1000
0010
0400
0000
0000
0000
,
0000
0000
0000
0000
0000
0000
0000
0000
0301
0000
1000
0100
1000
0001
0100
0000
,
0010
0000
0010
0000
0010
0000
1000
0000
0100
0000
0010
0001
0010
0100
1000
0001
,
1000
0000
1000
0000
0010
0100
0001
1000
0100
0000
1000
0001
0100
0000
0010
1000
,
0001
0000
0010
0100
1000
0000
0004
0000
0000
0000
0000
0000
0000
0000
0000
0000
,
0000
0000
0000
0000
1003
0001
1000
0001
0M10
0000
0001
1000
0001
0100
0010
0000
,
1000
0000
1000
0000
1000
0000
0001
0000
0010
0000
0100
1000
0100
0010
0001
1000
,
0001
0000
0001
0000
0100
0010
1000
0000
0001
0010
0100
0000
1000
0000
0001
0100
,
0010
1000
0000
1000
0001
1000
0001
0010
0100
0000
1000
0100
0010
0100
1000
0000
,
0001
0000
0100
0000
0001
0100
0001
0100
0010
0000
1000
0010
1000
0001
0010
0000
,
0100
0000
0100
0000
0100
0000
1000
0000
0010
0000
0100
0001
0100
0010
1000
0001
,
1000
0000
1000
0000
0100
0010
0001
1000
0004
0000
0000
0000
0000
0000
0000
0000
,
0000
0000
0000
0000
,
0403
0000
0000
0000
0000
0000
0000
0000
0000
0000
0000
0000
0301
0000
0000
0000
0000
0000
1000
0000
0001
0000
1000
0000
0001
0000
0000
0000
0000
0000
1000
0000
0000
0010
0000
0000
1000
0000
0000
0001
0000
0000
0010
0000
0000
0000
0000
0000
,
0100
0000
0100
0000
0100
0000
1000
0000
0010
0000
0100
0001
0100
0010
1000
0001
,
1000
0000
1000
0000
0100
0010
0001
0000
1000
0010
0100
0000
0001
0000
1000
0100
,
0010
0001
0000
0001
1000
0001
1000
0010
0100
0000
0001
0100
0010
0100
0001
0000
,
1000
0000
0100
0000
1000
0100
1000
0100
0010
0000
0001
0010
0001
1000
0010
0000
,
0100
0000
0100
0000
0100
0000
0001
0000
0010
0000
0100
1000
0100
0010
0001
1000
,
0001
0000
0001
0000
0100
0010
1000
0001
0400
0000
0000
0000
0000
0000
0000
0000
,
0000
0000
0000
0000
,
0320
0000
0000
0000
0000
0000
0000
0000
0000
0000
0000
0000
1030
0000
0000
0000
0000
0000
0001
0000
1000
0000
0001
0000
1000
0000
0000
0000
0000
0000
0001
0000
0000
1000
0000
0000
0001
0000
0000
0100
0000
0000
0010
0000
0000
0000
0000
0000
,
1000
0000
1000
0000
1000
0000
0001
0000
0010
0000
0100
1000
0100
0010
0001
1000
,
0001
0000
0001
0000
0100
0010
1000
0000
0001
0010
0100
0000
1000
0000
0001
0100
,
0010
1000
0000
1000
0001
1000
0001
0010
0100
0000
1000
0100
0010
0100
1000
0000
,
0001
0000
0100
0000
0001
0100
0001
0100
0010
0000
1000
0010
1000
0001
0010
0000
,
0100
0000
0100
0000
0100
0000
1000
0000
0010
0000
0100
0001
0100
0010
1000
0001
,
1000
0000
1000
0000
0100
0010
0001
1000
0004
0000
0000
0000
0000
0000
0000
0000
,
0000
0000
0000
0000
,
0000
0000
0000
0000
0000
0000
0000
0000
0000
0000
0000
0000
0103
0000
0000
0000
0000
0000
0001
0000
1000
0000
0001
0000
1000
0000
0000
0000
0000
0000
0001
0000
0000
0100
0000
0000
0001
0000
0000
1000
0000
0000
0100
0000
0000
0000
0000
0000
,
0010
0000
0010
0000
0010
0000
0001
0000
0100
0000
0010
1000
0010
0100
0001
1000
,
0001
0000
0001
0000
0010
0100
1000
0000
0001
0100
0010
0000
1000
0000
0001
0010
,
0100
1000
0000
1000
0001
1000
0001
0100
0010
0000
1000
0010
0100
0010
1000
0000
,
0001
0000
0010
0000
0001
0010
0001
0010
0100
0000
1000
0100
1000
0001
0100
0000
,
0010
0000
0010
0000
0010
0000
1000
0000
0100
0000
0010
0001
0010
0100
1000
0001
,
1000
0000
1000
0000
0010
0100
0001
1000
0100
0000
0000
0010
0400
0000
0000
0000
,
0000
0000
0000
0000
0000
0000
0000
0300
10M1
0000
0000
0000
0000
0000
0000
0000
,
0001
1000
0001
1000
0001
1000
0001
1000
0001
0010
0100
1000
0001
1000
0100
0010
,
0001
1000
0010
1000
0001
0100
0010
1000
0001
0100
0001
1000
0100
0010
0001
1000
,
0010
1000
0001
0100
0010
1000
0001
1000
0001
0010
0100
1000
0001
1000
0100
0010
,
0001
1000
0010
1000
0001
1000
0010
1000
0001
0010
0001
1000
0100
0010
0100
1000
,
0010
0100
0001
1000
0100
1000
0001
0100
0001
1000
0001
0100
0010
0100
0001
1000
,
0100
0010
0100
1000
0001
0010
0001
1000
0001
0100
0010
1000
0001
1000
0010
0100
,
0001
1000
0001
0010
0100
0010
0001
1000
0001
0100
0001
1000
0100
0010
0001
1000
,
0100
0010
0100
1000
0001
0100
0010
1000
0001
1000
0010
0100
0001
0100
0010
1000
,
0100
0010
0100
1000
0001
0100
0001
1000
0001
0010
0100
1000
0001
1000
0100
0010
,
0001
1000
0010
1000
0001
0100
0010
1000
0001
0100
0001
1000
0100
0010
0001
1000
,
0010
1000
0001
0100
0010
1000
0001
1000
0001
0010
0100
1000
0001
1000
0100
0010
,
0001
1000
0010
1000
0001
1000
0010
1000
0001
0010
0001
1000
0100
0010
0100
1000
,
0010
0100
0001
1000
0100
1000
0001
0100
0001
1000
0001
0100
0010
0100
0001
1000
,
0100
0010
0100
1000
0001
0010
0001
1000
0001
0100
0010
1000
0001
1000
0010
0100
,
0001
1000
0001
0010
0100
0010
0001
1000
0001
0100
0001
1000
0100
0010
0001
1000
,
0100
0010
0100
1000
0001
0100
0010
1000
0001
1000
0010
0100
0001
0100
0010
1000
,
0100
0010
0100
1000
0001
0100
0010
1000
0001
0010
0001
1000
0010
1000
0001
0010
,
0100
0010
0001
1000
0100
0010
0100
1000
0001
0100
0001
1000
0100
1000
0001
0100
,
0010
1000
0010
0100
0001
1000
0100
1000
0001
0010
0001
1000
0010
1000
0001
0010
,
0100
0010
0001
1000
0100
0010
0100
1000
0001
0100
0001
1000
0100
0010
0100
1000
,
0010
1000
0001
0010
0100
0010
0001
1000
0001
0010
0001
1000
0010
1000
0001
0010
,
0100
0010
0001
1000
0100
0010
0100
1000
0001
0100
0001
1000
0100
1000
0001
0100
,
0010
1000
0010
0100
0001
1000
0100
1000
0001
0010
0001
1000
0010
1000
0001
0010
,
0100
0010
0001
1000
0100
0010
0100
1000
0001
0100
0001
1000
0100
0010
0100
1000
,
0010
0100
0001
0100
0010
1000
0100
1000
0001
0010
0001
1000
0010
1000
0001
0010
,
0100
0010
0001
1000
0100
0010
0100
1000
0001
0100
0001
1000
0100
1000
0001
0100
,
0010
1000
0010
0100
0001
1000
0100
1000
0001
0010
0001
1000
0010
1000
0001
0010
,
0100
0010
0001
1000
0100
0010
0100
1000
0001
0100
0001
1000
0100
0010
0100
1000
,
0010
0100
0001
0100
0010
1000
0001
1000
0100
0010
0001
1000
0010
1000
0001
0010
,
0100
0010
0001
1000
0100
0010
0100
1000
0001
0100
0001
1000
0100
1000
0001
0100
,
0010
1000
0010
0100
0001
1000
0100
1000
0001
0010
0001
1000
0010
1000
0001
0010
,
0100
0010
0001
1000
0100
0010
0100
1000
0001
0000
0000
0000
0000
0000
0000
0000
,
1000
0100
1000
0010
0100
0000
0001
0000
M000
0000
00M0
0000
M000
0000
00M0
0000
,
M000
00M0
M000
00M0
M000
00M0
0000
0000
;
