#TITLE:Intro Stage-SNC;
#SUBTITLE:(Megaman X3);
#ARTIST:Capcom Sound Team;
#TITLETRANSLIT:;
#SUBTITLETRANSLIT:;
#ARTISTTRANSLIT:;
#CREDIT:Jason D. Gersztyn;
#BANNER:intro stage-banner.jpg;
#BACKGROUND:intro stage-bg.jpg;
#LYRICSPATH:;
#CDTITLE:PhoenixW-cdtitle.JPG;
#MUSIC:04 - X3 SFC - OPENING STAGE.mp3;
#OFFSET:-0.046;
#SAMPLESTART:32.141;
#SAMPLELENGTH:12.000;
#SELECTABLE:YES;
#BPMS:0.000=186.944;
#STOPS:;
#BGCHANGES:;
// cache tags:
#FIRSTBEAT:1.000;
#LASTBEAT:299.000;
#SONGFILENAME:Songs/keyboard/04 - X3 SFC - OPENING STAGE/04 - X3 SFC - OPENING STAGE.sm;
#HASMUSIC:1;
#HASBANNER:1;
#MUSICLENGTH:104.288;
// end cache tags

//---------------dance-single - ----------------
#NOTES:
     dance-single:
     :
     Challenge:
     10:
     0.821,1.000,0.652,0.364,0.451,493.000,68.000,38.000,0.000,6.000:
0000
0000
1000
0010
1000
0010
0100
0001
,
0100
0001
0010
0100
0010
0100
1000
1001
,
0000
0110
1000
0001
1000
0001
0100
0010
,
1000
0001
0110
0000
1000
0010
0100
0010
,
1000
0100
0010
0001
0010
0001
0100
1000
,
0100
1000
0001
1000
0001
1000
0010
1010
,
0000
0101
0100
0010
0100
0010
1000
0100
,
0010
0000
1001
0000
0000
0000
0100
0010
0000
0000
0010
0000
0000
0000
1100
0000
,
0000
0001
0000
1000
0100
0010
1000
0010
,
0100
1000
0100
0010
1000
0100
0010
0001
,
0100
2020
0000
0000
0000
0000
3030
0000
,
0000
0000
0000
0110
0000
0000
0001
0000
0010
0100
0000
0000
0000
0000
1000
0010
,
0000
0100
0000
0001
0100
0010
0001
0010
,
0100
0001
0100
0010
1000
0001
0100
0010
,
1000
0202
0000
0000
0000
0000
0303
0000
,
0000
0000
0000
1001
0000
0000
0100
0000
0010
0000
0000
1001
0000
0000
0220
0000
,
0000
0000
0000
0000
1330
0001
1000
0100
0010
0001
1000
0100
1000
0010
0100
0001
,
0010
0100
1000
0100
0010
0001
0100
0010
1000
0001
1000
0100
0010
0001
0100
0010
,
1000
0010
0100
0001
1000
0100
0010
0001
0010
0100
1000
0010
0100
0001
1000
0001
,
0100
0010
1000
0001
0100
0010
0100
0001
0010
0100
1000
0001
0100
0001
0100
0001
,
0100
0010
1000
0100
0001
0010
0100
0010
0001
1000
0010
0100
0010
1000
0100
0010
,
0002
0000
0000
0000
0000
0000
0000
0003
,
0000
0000
1010
0000
0000
0000
0100
0001
1000
0000
0001
0000
0000
0000
1001
0000
,
0110
0000
1010
0000
0000
1001
0000
0000
,
0011
0000
0000
1000
0000
0000
0010
0010
,
1001
0001
0000
1100
0000
1010
0000
0101
,
0000
0000
1001
0000
1000
0100
0000
0000
0020
0000
0000
0000
0032
0000
0000
0000
,
0203
0000
1301
0000
0000
0101
0000
0000
,
0220
0000
0000
0000
0000
0000
0000
0330
,
0000
2020
0000
0000
0000
0000
0000
3030
,
0000
2002
0000
0000
0000
0000
0000
3003
,
0000
0202
0000
0000
0000
0000
0000
0313
,
0010
0010
0001
0100
0001
0100
0010
1000
,
0010
1000
0100
0010
0100
0010
0001
0110
,
0000
1001
0001
1000
0001
1000
0010
0100
,
0001
1000
0110
0000
0001
0100
0010
0100
,
0001
0010
0100
1000
0100
1000
0010
0001
,
0010
0001
1000
0001
1000
0001
0100
0101
,
0000
1010
0010
0100
0010
0100
0001
0010
,
0100
0000
1001
0000
0000
0000
0010
0100
0000
0000
0100
0000
0000
0000
0011
0000
,
0000
1000
0000
0001
0010
0100
0001
0100
,
0010
0001
0010
0100
0001
0010
0100
1000
,
0010
0202
0000
0000
0000
0000
0303
0000
,
0000
0000
0000
0110
0000
0000
1000
0000
0100
0010
0000
0000
0000
0000
0001
0100
,
0000
0010
0000
1000
0010
0100
1000
0100
,
0010
1000
0010
0100
0001
1000
0010
0100
,
0001
2020
0000
0000
0000
0000
3030
0000
,
0000
0000
0000
1001
0000
0000
0010
0000
0100
0000
0000
1001
0000
0000
0220
0000
,
0000
0000
0000
0000
0331
1000
0001
0010
0100
1000
0001
0010
0001
0100
0010
1000
,
0100
0010
0001
0010
0100
1000
0010
0100
0001
1000
0001
0010
0100
1000
0010
0100
,
0001
0100
0010
1000
0001
0010
0100
1000
0100
0010
0001
0100
0010
1000
0001
1000
,
0010
0100
0001
1000
0010
0100
0010
1000
0100
0010
0001
1000
0010
1000
0010
1000
,
0010
0100
0001
0010
1000
0100
0010
0100
1000
0001
0100
0010
0100
0001
0010
0100
,
2000
0000
0000
0000
0000
0000
0000
3000
,
0000
0000
1010
0000
0000
0000
0100
1000
0001
0000
1000
0000
0000
0000
1001
0000
,
0110
0000
0101
0000
0000
1001
0000
0000
,
1100
0000
0000
0001
0000
0000
0100
0100
,
1001
1000
0000
0011
0000
0101
0000
1010
,
0000
0000
1001
0000
0001
0010
0000
0000
0200
0000
0000
0000
2300
0000
0000
0000
,
3020
0000
1031
0000
0000
1010
0000
0000
,
2002
0000
0000
0000
0000
0000
0000
3003
,
0000
0202
0000
0000
0000
0000
0000
0303
,
0000
0220
0000
0000
0000
0000
0000
0330
,
0000
2020
0000
0000
0000
0000
0000
3130
,
0100
0100
0010
0100
0010
0100
0001
0010
,
0001
0010
0100
1000
0100
1000
0010
1100
,
0000
0011
1000
0010
1000
0010
0100
0001
,
0010
0100
1010
0000
0001
0100
1000
0100
,
0001
0010
0100
1000
0100
1000
0001
0100
,
0001
0100
0010
0100
0010
0100
1000
1001
,
0000
0110
0100
0001
0100
0001
0010
0100
,
1000
0000
0101
0000
0000
0000
0001
1000
0000
0000
0000
1000
0000
0000
0011
0000
,
0000
0010
0000
0100
0001
1000
0001
0100
,
1000
0100
0001
1000
0001
0100
1000
0010
,
0001
2200
0000
0000
0000
0000
3300
0000
;

//---------------dance-single - ----------------
#NOTES:
     dance-single:
     :
     Hard:
     8:
     0.697,0.609,0.729,0.384,0.125,393.000,76.000,40.000,0.000,6.000:
0000
0000
1000
0010
1000
0010
0100
0001
,
0100
0001
0010
0100
0010
0100
1000
1001
,
0000
0110
1000
0001
1000
0001
0100
0010
,
1000
0001
0110
0000
1000
0010
0100
0010
,
1000
0100
0010
0001
0010
0001
0100
1000
,
0100
1000
0001
1000
0001
1000
0010
1010
,
0000
0101
0100
0010
0100
0010
1000
0100
,
0010
0000
1001
0000
0000
0000
0100
0010
0000
0000
0010
0000
0000
0000
1100
0000
,
0000
0001
0000
1000
0100
0010
1000
0010
,
0100
1000
0100
0010
1000
0100
0010
0001
,
0100
2020
0000
0000
0000
0000
3030
0000
,
0000
0000
0000
0110
0000
0000
0001
0000
0010
0100
0000
0000
0000
0000
1000
0010
,
0000
0100
0000
0001
0100
0010
0001
0010
,
0100
0001
0100
0010
1000
0001
0100
0010
,
1000
0202
0000
0000
0000
0000
0303
0000
,
0000
0000
0000
1001
0000
0000
0100
0000
0010
0000
0000
1001
0000
0000
0220
0000
,
0000
0000
1330
0000
0000
0101
0000
0000
,
0001
0000
0000
0000
0000
0000
1000
0100
1000
0000
0001
0010
0001
0000
0100
0000
,
0010
0100
1000
0000
0000
1010
0000
0000
,
0010
0000
0000
0000
0000
0000
0100
0001
0100
0000
0010
1000
0010
0000
0100
0000
,
0010
0100
0001
0000
0000
0110
0000
0000
,
2002
0000
0000
0000
0000
0000
0000
3003
,
0000
0000
1010
0000
0000
0000
0100
0001
1000
0000
0001
0000
0000
0000
1001
0000
,
0110
0000
1010
0000
0000
1001
0000
0000
,
0011
0000
0000
1000
0000
0000
0010
0010
,
1001
0001
0000
1100
0000
1010
0000
0101
,
0000
0000
1001
0000
1000
0100
0000
0000
0020
0000
0000
0000
0032
0000
0000
0000
,
0203
0000
1301
0000
0000
0101
0000
0000
,
0220
0000
0000
0000
0000
0000
0000
0330
,
0000
2020
0000
0000
0000
0000
0000
3030
,
0000
2002
0000
0000
0000
0000
0000
3003
,
0000
0202
0000
0000
0000
0000
0000
0313
,
0010
0010
0001
0100
0001
0100
0010
1000
,
0010
1000
0100
0010
0100
0010
0001
0110
,
0000
1001
0001
1000
0001
1000
0010
0100
,
0001
1000
0110
0000
0001
0100
0010
0100
,
0001
0010
0100
1000
0100
1000
0010
0001
,
0010
0001
1000
0001
1000
0001
0100
0101
,
0000
1010
0010
0100
0010
0100
0001
0010
,
0100
0000
1001
0000
0000
0000
0010
0100
0000
0000
0100
0000
0000
0000
0011
0000
,
0000
1000
0000
0001
0010
0100
0001
0100
,
0010
0001
0010
0100
0001
0010
0100
1000
,
0010
0202
0000
0000
0000
0000
0303
0000
,
0000
0000
0000
0110
0000
0000
1000
0000
0100
0010
0000
0000
0000
0000
0001
0100
,
0000
0010
0000
1000
0010
0100
1000
0100
,
0010
1000
0010
0100
0001
1000
0010
0100
,
0001
2020
0000
0000
0000
0000
3030
0000
,
0000
0000
0000
1001
0000
0000
0010
0000
0100
0000
0000
1001
0000
0000
0220
0000
,
0000
0000
0331
0000
0000
0110
0000
0000
,
0100
0000
0000
0000
0000
0000
0001
0100
0001
0000
1000
0010
1000
0000
0010
0000
,
0100
0010
0001
0000
0000
0011
0000
0000
,
1000
0000
0000
0000
0000
0000
0010
0100
0010
0000
0100
0001
0100
0000
0010
0000
,
0100
0010
1000
0000
0000
1100
0000
0000
,
2002
0000
0000
0000
0000
0000
0000
3000
,
0003
0000
1010
0000
0000
0000
0100
1000
0001
0000
1000
0000
0000
0000
1001
0000
,
0110
0000
0101
0000
0000
1001
0000
0000
,
1100
0000
0000
0001
0000
0000
0100
0100
,
1001
1000
0000
0011
0000
0101
0000
1010
,
0000
0000
1001
0000
0001
0010
0000
0000
0200
0000
0000
0000
2300
0000
0000
0000
,
3020
0000
1031
0000
0000
1010
0000
0000
,
2002
0000
0000
0000
0000
0000
0000
3003
,
0000
0202
0000
0000
0000
0000
0000
0303
,
0000
0220
0000
0000
0000
0000
0000
0330
,
0000
2020
0000
0000
0000
0000
0000
3130
,
0100
0100
0010
0100
0010
0100
0001
0010
,
0001
0010
0100
1000
0100
1000
0010
1100
,
0000
0011
1000
0010
1000
0010
0100
0001
,
0010
0100
1010
0000
0001
0100
1000
0100
,
0001
0010
0100
1000
0100
1000
0001
0100
,
0001
0100
0010
0100
0010
0100
1000
1001
,
0000
0110
0100
0001
0100
0001
0010
0100
,
1000
0000
0101
0000
0000
0000
0001
1000
0000
0000
0000
1000
0000
0000
0011
0000
,
0000
0010
0000
0100
0001
1000
0001
0100
,
1000
0100
0001
1000
0001
0100
1000
0010
,
0001
2200
0000
0000
0000
0000
3300
0000
;
