#TITLE:02________Z_j_________I.m4a;
#SUBTITLE:;
#ARTIST:Dancing Monkeys Project;
#TITLETRANSLIT:;
#SUBTITLETRANSLIT:;
#ARTISTTRANSLIT:;
#CREDIT:Gorilla v1.0.1 (Dancing Monkeys v1.06);
#BANNER:;
#BACKGROUND:;
#LYRICSPATH:;
#CDTITLE:;
#MUSIC:02________Z_j_________I.m4a.mp3;
#OFFSET:-1.192;
#SAMPLESTART:38.673;
#SAMPLELENGTH:12.000;
#SELECTABLE:YES;
#BPMS:0.000=160.082;
#STOPS:;
#BGCHANGES:;
// cache tags:
#FIRSTBEAT:1.000;
#LASTBEAT:586.000;
#SONGFILENAME:Songs/keyboard/02________Z_j_________I/02________Z_j_________I.m4a.sm;
#HASMUSIC:1;
#HASBANNER:0;
#MUSICLENGTH:223.798;
// end cache tags

//---------------dance-single - Basic----------------
#NOTES:
     dance-single:
     Basic:
     Easy:
     3:
     0.229,0.294,0.027,0.040,0.000,343.000,6.000,9.000,0.000,0.000:
0000
0000
1000
0000
0000
0000
0000
0000
,
0001
0000
0000
0000
0000
0000
0000
0000
,
0000
0000
1000
0000
0000
0000
0000
0000
,
0000
0000
1000
0000
0000
0000
0000
0000
,
0000
0000
1000
0000
0000
0000
0000
0000
,
0000
0000
0001
0000
0000
0000
0000
0000
,
0000
0000
0001
0000
0000
0000
0000
0000
,
0000
0000
0001
0000
0000
0000
0000
0000
,
0000
0000
1000
0000
0000
0000
0000
0000
,
0000
0000
1000
0000
0000
0000
0000
0000
,
0000
0000
0001
0000
0000
0000
0000
0000
,
0000
0000
1000
0000
0000
0000
0000
0000
,
0001
0000
0000
0000
0000
0000
0100
0000
,
1000
0000
0000
0000
0100
0000
0000
0000
,
0000
0000
0000
0000
0001
0000
0010
0000
,
0001
0000
0000
0000
0000
0000
0100
0000
,
0001
0000
0000
0000
0000
0000
0000
0000
,
0001
0000
0000
0000
2000
0000
0000
0000
,
0000
0000
0000
0000
3000
0000
0100
0000
,
0000
0000
0001
0000
1000
0000
0010
0000
,
0000
0000
1000
0000
0001
0000
0100
0000
,
0000
0000
0001
0000
1000
0000
0010
0000
,
0000
0000
0001
0000
1000
0000
0100
0000
,
0000
0000
1000
0000
0010
0000
0100
0000
,
0020
0000
0000
0000
0000
0000
0000
0000
,
0030
0000
1000
0000
0010
0000
0100
0000
,
0000
0000
1000
0000
0000
0000
0010
0000
,
0000
0000
0001
0000
0010
0000
0000
0000
,
0000
0000
1000
0000
1010
0000
1000
0000
,
0000
0000
0000
0000
0001
0000
1000
0000
,
0001
0000
0000
0000
0000
0000
0100
0000
,
0000
0000
1000
0000
0010
0000
0000
0000
,
0001
0000
0000
0000
0000
0000
0100
0000
,
1000
0000
0000
0000
0000
0000
0010
0000
,
0001
0000
0000
0000
0010
0000
0010
0000
,
0001
0000
0100
0000
0010
0000
0100
0000
,
1000
0000
0010
0000
0000
0000
0000
0000
,
0000
0000
0001
0000
1000
0000
0010
0000
,
1000
0000
0000
0000
1100
0000
1000
0000
,
0001
0000
1000
0000
1100
0000
0000
0000
,
0001
0000
0000
0000
0000
0000
0100
0000
,
1000
0000
0000
0000
0100
0000
0000
0000
,
0000
0000
0000
0000
0001
0000
0010
0000
,
0000
0000
1000
0000
0010
0000
0100
0000
,
0001
0000
0000
0000
1000
0000
0100
0000
,
0001
0000
0000
0000
1000
0000
0010
0000
,
1000
0000
0001
0000
0000
0000
0000
0000
,
0001
0000
0000
0000
1000
0000
0100
0000
,
0000
0000
1000
0000
0001
0000
0100
0000
,
0001
0000
0000
0000
1000
0000
0100
0000
,
1000
0000
0000
0000
0001
0000
0100
0000
,
1000
0000
0001
0000
0010
0000
0001
0000
,
1000
0000
0100
0000
0010
0000
0000
0000
,
0000
0000
1000
0000
0001
0000
0100
0000
,
0000
0000
0001
0000
1000
0000
0010
0000
,
1000
0000
0001
0000
1000
0000
0001
0000
,
0000
0000
1000
0000
0001
0000
0100
0000
,
0000
0000
0001
0000
1000
0000
0010
0000
,
0000
0000
0001
0000
1000
0000
0010
0000
,
0000
0000
0000
0000
1000
0000
0010
0000
,
0001
0000
0000
0000
0000
0000
0100
0000
,
0000
0000
0001
0000
0010
0000
0000
0000
,
0001
0000
0000
0000
0000
0000
0000
0000
,
0000
0000
0000
0000
1000
0000
0100
0000
,
0000
0000
1000
0000
0001
0000
0100
0000
,
0001
0000
0000
0000
1000
0000
0100
0000
,
0000
0000
1000
0000
0001
0000
0100
0000
,
0000
0000
1000
0000
0001
0000
0100
0000
,
0110
0000
0000
0000
0001
0000
1000
0000
,
1001
0000
0001
0000
0000
0000
0100
0000
,
0000
0000
0000
0000
0001
0000
0010
0000
,
0000
0000
1000
0000
0010
0000
0100
0000
,
1000
0000
0000
0000
1100
0000
1000
0000
,
0001
0000
0100
0000
0100
0000
0001
0000
,
0001
0000
0000
0000
0000
0000
0100
0000
,
1000
0000
0000
0000
0100
0000
0000
0000
,
0000
0000
0000
0000
0001
0000
0010
0000
,
0000
0000
1000
0000
0010
0000
0100
0000
,
1000
0000
0100
0000
0000
0000
0010
0000
,
0001
0000
0000
0000
1000
0000
0100
0000
,
1000
0000
0001
0000
0000
0000
0000
0000
,
2000
0000
0000
0000
0000
0000
0000
0000
,
0000
0000
3000
0000
1000
0000
0100
0000
,
1000
0000
0000
0000
1000
0000
0100
0000
,
0001
0000
0000
0000
1000
0000
0100
0000
,
1000
0000
0001
0000
0010
0000
0001
0000
,
1000
0000
0000
0000
0010
0000
0000
0000
,
0000
0000
1000
0000
0001
0000
0100
0000
,
0000
0000
1000
0000
0001
0000
0100
0000
,
0001
0000
0010
0000
0001
0000
0000
0000
,
1000
0000
0100
0000
0000
0000
0010
0000
,
0001
0000
0000
0000
0000
0000
0000
0000
,
0002
0000
0000
0000
0000
0000
0000
0000
,
0003
0000
0000
0000
1000
0000
0100
0000
,
0000
0000
1000
0000
0001
0000
0100
0000
,
0000
0000
0000
0000
0001
0000
0010
0000
,
0000
0000
0000
0000
0020
0000
0000
0000
,
0000
0000
0000
0000
0000
0000
0030
0000
,
0000
0000
0000
0000
0001
0000
0010
0000
,
0000
0000
1000
0000
0001
0000
0100
0000
,
0200
0000
0000
0000
0000
0000
0000
0000
,
0000
0000
0300
0000
0000
0000
0000
0000
,
1000
0000
0010
0000
0100
0000
0000
0000
,
1000
0000
0100
0000
0000
0000
0200
0000
,
0000
0000
0000
0000
0000
0000
0300
0000
,
1000
0000
0000
0000
0000
0000
0000
0000
,
1000
0000
0000
0000
0010
0000
0100
0000
,
0001
0000
0000
0000
0100
0000
0000
0000
,
0001
0000
0000
0000
0000
0000
0100
0000
,
0001
0000
0010
0000
0100
0000
0000
0000
,
1000
0000
0000
0000
0010
0000
0000
0000
,
0001
0000
0010
0000
0001
0000
0000
0000
,
0000
0000
0000
0000
1000
0000
0001
0000
,
1000
0000
0000
0000
1000
0000
0100
0000
,
0001
0000
0000
0000
1000
0000
0100
0000
,
1000
0000
0001
0000
0000
0000
0000
0000
,
1000
0000
0000
0000
1000
0000
0100
0000
,
0000
0000
0000
0000
0001
0000
0010
0000
,
0001
0000
0000
0000
1000
0000
0100
0000
,
1000
0000
0000
0000
0001
0000
0010
0000
,
1000
0000
0001
0000
0010
0000
0001
0000
,
0001
0000
0000
0000
1000
0000
0100
0000
,
1000
0000
0000
0000
0001
0000
0100
0000
,
1000
0000
0001
0000
0000
0000
0002
0000
,
0000
0000
0000
0000
0000
0000
0003
0000
,
1000
0000
0100
0000
0000
0000
0010
0000
,
0001
0000
0000
0000
1000
0000
1000
0000
,
0001
0000
0000
0000
1000
0000
0100
0000
,
1000
0000
0001
0000
0010
0000
0001
0000
,
1000
0000
0000
0000
0010
0000
0000
0000
,
0001
0000
0010
0000
0001
0000
0000
0000
,
0001
0000
0010
0000
0100
0000
0000
0000
,
1000
0000
0000
0000
0010
0000
1000
0000
,
0001
0000
0000
0000
0000
0000
0000
0000
,
0200
0000
0000
0000
0000
0000
0000
0000
,
0300
0000
1000
0000
0010
0000
0100
0000
,
0000
0000
1000
0000
0001
0000
0100
0000
,
0000
0000
0000
0000
0001
0000
0010
0000
,
0000
0000
1000
0000
0001
0000
0100
0000
,
0000
0000
0000
0000
1000
0000
0010
0000
,
0000
0000
1000
0000
0001
0000
0100
0000
,
0000
0000
0000
0000
0001
0000
0010
0000
,
0000
0000
1000
0000
0001
0000
0100
0000
,
0000
0000
0000
0000
1000
0000
0010
0000
,
0001
0000
0000
0000
0100
0000
0000
0000
,
0001
0000
0000
0000
0010
0000
0000
0000
,
1000
0000
0001
0000
0000
0000
0000
0000
,;

//---------------dance-single - Standard----------------
#NOTES:
     dance-single:
     Standard:
     Medium:
     5:
     0.311,0.392,0.089,0.040,0.000,457.000,20.000,9.000,0.000,0.000:
0000
0000
0000
0000
0000
0000
0000
0000
,
0001
0000
0000
0000
0000
0000
0000
0000
,
0000
0000
0000
0000
0000
0000
0000
0000
,
0000
0000
0000
0000
0000
0000
0000
0000
,
0000
0000
0000
0000
0000
0000
0000
0000
,
0000
0000
0000
0000
0000
0000
0000
0000
,
0000
0000
0000
0000
0000
0000
0000
0000
,
0000
0000
0000
0000
0000
0000
0000
0000
,
0000
0000
0000
0000
0000
0000
0000
0000
,
0000
0000
0000
0000
0000
0000
0000
0000
,
0000
0000
0000
0000
0000
0000
0000
0000
,
0000
0000
0000
0000
0000
0000
0000
0000
,
0001
0000
0000
0000
0010
0000
0100
0000
,
0001
0000
0000
0000
0010
0000
0000
0000
,
0000
0000
0001
0000
0001
0000
0100
0000
,
0001
0000
0000
0000
0010
0000
0100
0000
,
1000
0000
0000
0000
1000
0000
0000
0000
,
1000
0000
0001
0000
0002
0000
1000
0000
,
0000
0000
0001
0000
0003
0000
0010
0000
,
0001
0000
0001
0000
0100
0000
0010
0000
,
1000
0000
1000
0000
0100
0000
0010
0000
,
0001
0000
0001
0000
0010
0000
0100
0000
,
1000
0000
1000
0000
0010
0000
0100
0000
,
0000
0000
0001
0000
0100
0000
1010
0000
,
2000
0000
0001
0000
0000
0000
0010
0000
,
3000
0000
0001
0000
0100
0000
1010
0000
,
0000
0000
0001
0000
0100
0000
0001
0000
,
0000
0000
1000
0000
0100
0000
0000
0010
,
0000
0000
1000
0000
1010
0000
0010
0000
,
0000
0000
0000
0000
0001
0010
0001
0000
,
0001
0000
0000
0000
0010
0000
0100
0000
,
0000
0000
0001
0000
1000
0100
0000
0000
,
0001
0000
0000
0000
0010
0000
0100
0000
,
0001
1000
0010
0000
0000
0000
1000
0000
,
0001
0000
1000
0000
0001
0000
0001
0000
,
1000
0010
0100
0000
0010
0000
1000
0000
,
1000
0000
0001
0000
0000
0000
0100
0000
,
0000
0000
0001
0000
0100
0000
0010
1000
,
0001
0000
1000
0000
0011
0000
0001
0000
,
1000
0000
0100
0000
0110
0000
0001
0000
,
0001
0000
0000
0000
0010
0000
0100
0000
,
0001
0000
0000
0000
0010
0000
0000
0000
,
0000
0000
0001
0000
0001
0000
0100
0000
,
0001
0000
0001
0000
1000
0000
1100
0000
,
1000
0000
0010
0000
0100
0000
0001
0000
,
0001
0000
0100
0000
0010
0000
1000
0000
,
1000
0000
0001
0000
0100
0000
0010
0000
,
1000
0000
0010
0000
0100
0000
0001
0000
,
0001
0000
0001
0000
0100
0000
0010
0000
,
1000
0000
0010
0000
0100
0000
0001
0000
,
1000
0000
0100
0000
0010
0000
0001
0000
,
1000
0000
0010
0000
0100
0010
1000
0000
,
0101
0000
0001
1000
0100
0000
0000
0000
,
1000
0000
0001
0000
0100
0000
0001
0000
,
0001
0000
1000
0000
0010
0000
1000
0000
,
0001
0000
0010
0000
0110
0000
0001
0000
,
0001
0000
0001
0000
0100
0000
0010
0000
,
1000
0000
1000
0000
0100
0000
0010
0000
,
1000
0000
1000
0000
0100
0000
0010
0000
,
0000
0000
1000
0000
0001
0000
0100
0000
,
0001
0000
0000
0000
0010
0000
0100
0000
,
0000
0000
1000
0000
0100
0000
0000
0010
,
1000
0000
0000
0000
0000
0000
0010
0000
,
0000
0000
0000
0000
1000
0010
0100
0000
,
0001
0000
0001
0000
0100
0000
0010
0000
,
1000
0000
0010
0000
0100
0000
0001
0000
,
0001
0000
0001
0000
0100
0000
0010
0000
,
1000
0000
1000
0000
0100
0000
0010
0000
,
0110
0000
0000
0000
0001
0000
0100
0000
,
0101
0000
0001
0000
0100
0000
1000
0000
,
0000
0000
0001
0000
0001
0000
0100
0000
,
0000
0000
0001
0000
0100
0000
1010
0000
,
0001
0000
1000
0000
0011
0000
0001
0000
,
1100
0000
1000
0100
0100
0000
1000
0000
,
0001
0000
0000
0000
0010
0000
0100
0000
,
0001
0000
0000
0000
0010
0000
0000
0000
,
0000
0000
0001
0000
0001
0000
0100
0000
,
0001
0000
0001
0000
1000
0000
1100
0000
,
0001
0000
1000
0000
0010
0000
1000
0000
,
1000
0000
0010
0000
0100
0000
0001
0000
,
1000
0000
0001
0000
0100
0000
0010
0000
,
0002
0000
1000
0000
0000
0000
0100
0000
,
0000
0000
0013
0000
0100
0000
0001
0000
,
1000
0000
1000
0000
1000
0000
0100
0000
,
1000
0000
0010
0000
0100
0000
0001
0000
,
1000
0000
0010
0000
0100
0010
1000
0000
,
1000
0000
0000
0001
0100
0000
0000
0000
,
1000
0000
0001
0000
0100
0000
0001
0000
,
1000
0000
0001
0000
0100
0000
0001
0000
,
0001
0000
1000
0000
0100
0000
0000
0000
,
0001
0000
1000
0000
0010
0000
1000
0000
,
0001
0000
0000
0000
0000
0000
0000
0000
,
0200
0000
0000
0000
0000
0000
0000
0000
,
0300
0000
0010
0000
0100
0000
0001
0000
,
0001
0000
0001
0000
0100
0000
0010
0000
,
0000
0000
0001
0000
0001
0000
0100
0000
,
0000
0000
0001
0000
0200
0000
0100
0000
,
0000
0000
1000
0000
0000
0000
0310
0000
,
0000
0000
1000
0000
1000
0000
0100
0000
,
0001
0000
0001
0000
0100
0000
0010
0000
,
2000
0000
1000
0000
0000
0000
1000
0000
,
0000
0000
3001
0000
0100
0000
0010
0000
,
0001
0000
0101
0000
1000
0000
0001
0000
,
0001
0000
1000
0000
0010
0000
0020
0000
,
0000
0000
0000
0000
0000
0000
0030
0000
,
1000
0000
0000
0000
1000
0000
0000
0000
,
0110
0000
1000
0000
0100
0000
1000
0000
,
0001
0000
0000
0000
0010
0000
0100
0000
,
1000
0000
0000
0000
1000
0000
0010
0000
,
1000
0000
0001
0000
0010
0000
0001
0000
,
1000
0001
0000
0000
0100
0000
0000
0000
,
0001
0000
1000
0000
0100
0000
0000
0000
,
0000
0000
0000
0000
0001
0000
0110
0000
,
1000
0000
1000
0000
1000
0000
0100
0000
,
1000
0000
0010
0000
0100
0000
0001
0000
,
1000
0000
0001
0000
0100
0000
0010
0000
,
1000
0000
1000
0000
1000
0000
0100
0000
,
0000
0000
0001
0000
0001
0000
0100
0000
,
1000
0000
0010
0000
0100
0000
0001
0000
,
1000
0000
0100
0000
0010
0000
0001
0000
,
1000
0000
0010
0000
0100
0010
1000
0000
,
1000
0000
0010
0000
0100
0000
0001
0000
,
1000
0000
0010
0000
0100
0000
0001
0000
,
1000
0000
0001
0000
0100
0000
0020
0000
,
0000
0000
1000
0000
0000
0000
0130
0000
,
0001
0000
1000
0000
0010
0000
1000
0000
,
1000
0000
1000
0000
0010
0000
0010
0000
,
1000
0000
0010
0000
0100
0000
0001
0000
,
1000
0000
0010
0000
0100
0010
1000
0000
,
1000
0000
0000
0001
0100
0000
0000
0000
,
0001
0000
1000
0000
0100
0000
0000
0000
,
1000
0000
0001
0000
0010
0000
0001
0000
,
0001
0000
1000
0000
0001
0000
1000
0000
,
0001
0000
0000
0000
0000
0000
0000
0000
,
2000
0000
0000
0000
0000
0000
0000
0000
,
3000
0000
0001
0000
1000
0000
1100
0000
,
0001
0000
0001
0000
0100
0000
0010
0000
,
0000
0000
0001
0000
0001
0000
0100
0000
,
0001
0000
0001
0000
0100
0000
0010
0000
,
0000
0000
1000
0000
0001
0000
0100
0000
,
0001
0000
0001
0000
0100
0000
0010
0000
,
0000
0000
0001
0000
0001
0000
0100
0000
,
0001
0000
0001
0000
0100
0000
0010
0000
,
0000
0000
1000
0000
0001
0000
0100
0000
,
0001
0000
0000
0000
0010
0000
0100
0000
,
1000
0000
0000
0000
0100
0000
0010
0000
,
1000
0000
0100
0000
0000
0000
0000
0000
,;

//---------------dance-single - Heavy----------------
#NOTES:
     dance-single:
     Heavy:
     Hard:
     9:
     0.532,0.524,0.161,0.040,0.000,786.000,36.000,9.000,0.000,0.000:
0000
0000
0001
0000
0000
0000
0000
0000
,
0001
1000
0000
0000
0000
0000
0000
0000
,
0000
0000
0001
0000
0000
0000
0000
0000
,
0000
0000
0001
0000
0000
0000
0000
0000
,
0000
0000
1000
0000
0000
0000
0000
0000
,
0000
0000
1000
0000
0000
0000
0000
0000
,
0000
0000
1000
0000
0000
0000
0000
0000
,
0000
0000
0001
0000
0000
0000
0000
0000
,
0000
0000
1000
0000
0000
0000
0000
0000
,
0000
0000
1000
0000
0000
0000
0000
0000
,
0000
0000
0001
0000
0000
0000
0000
0000
,
0000
0000
0001
0000
0000
0000
0000
0000
,
0001
0000
0001
0000
0010
0001
0010
0000
,
1000
0000
0000
0010
0100
0010
0000
0000
,
0001
0000
1000
1000
1000
0100
0010
0000
,
0001
0000
0001
0000
0010
0001
0010
0000
,
1000
0000
0000
0000
1000
0000
0000
0010
,
1000
0100
0010
0100
0020
0000
0001
0000
,
0000
0000
0001
0000
0130
0010
0100
0010
,
0000
1000
1000
0001
0010
0100
0010
0100
,
0000
1000
1000
0001
0100
0010
0100
0010
,
0000
1000
1000
0001
0010
0100
0010
0100
,
0000
0001
0001
1000
0100
0010
0100
0010
,
0000
1000
1000
0100
1000
0000
1010
0000
,
0200
0000
0001
0000
0100
0000
0100
0000
,
0300
1000
1000
0100
1000
0000
1010
0000
,
1000
0001
0100
0000
0001
0100
0010
0000
,
0000
0001
0000
0010
0001
0010
0000
0001
,
0000
0001
0010
0000
0101
0000
0100
0100
,
0000
1000
0000
0000
1100
0000
0100
0001
,
0001
0000
0001
0000
0010
0001
0010
0000
,
0000
0000
1000
0100
0010
0100
1000
0001
,
0001
0000
0001
0000
0010
0001
0010
0000
,
0001
0100
0001
0010
0000
0001
1000
0001
,
0001
0100
0010
0000
1100
0000
0001
0010
,
0001
1000
0100
1000
0010
0000
1000
0000
,
0110
0000
0100
0001
0000
0100
1000
0100
,
0000
0001
0001
0100
0010
0100
0010
0100
,
1000
0000
0000
0000
0110
0000
0001
0001
,
1000
0100
1000
0000
1100
0000
0001
0010
,
0001
0000
0001
0000
0010
0001
0010
0000
,
1000
0000
0000
0010
0100
0010
0000
0000
,
0001
0000
1000
1000
1000
0100
0010
0000
,
0001
0001
0001
1000
0100
0000
1100
0000
,
0001
0000
0010
0001
0010
0100
0001
0100
,
0001
0000
0100
0001
0100
0010
0001
0010
,
0001
0001
0010
0001
0100
0001
0000
0010
,
0001
0000
0010
0001
0010
0100
0001
0100
,
0000
0001
0001
1000
0100
0010
0100
0010
,
0001
0000
0010
0001
0010
0100
0001
0100
,
0001
0000
0010
0001
0010
0100
0001
0000
,
1001
0000
0010
0001
1000
0001
0010
0000
,
0011
0000
0001
1000
0010
0001
0100
1000
,
0001
0001
1000
0100
1000
0000
0010
0100
,
0001
0001
1000
0100
1000
0000
0010
0100
,
0001
0010
0100
0000
1001
0000
0100
0010
,
0000
0001
0001
1000
0100
0010
0100
0010
,
0000
1000
1000
0001
0100
0010
0100
0010
,
0000
1000
1000
0001
0010
0100
0010
0100
,
1000
0100
1000
0100
0010
0000
0001
0000
,
0001
0000
0001
0000
0010
0001
0010
0000
,
0000
0001
0000
0010
0001
0010
0000
0001
,
0001
0000
0000
0000
0000
0100
0001
0001
,
0000
0000
0000
0001
0100
0001
1000
0010
,
0000
0001
0001
1000
0100
0010
0100
0010
,
0001
0000
0010
0001
0010
0100
0001
0100
,
0000
0001
0001
1000
0100
0010
0100
0010
,
0000
0001
0001
1000
0100
0010
0100
0000
,
1010
0000
0100
0010
1000
0010
0100
0000
,
1001
0000
0010
0000
0100
0000
1000
1000
,
0001
0000
1000
1000
1000
0100
0010
0000
,
0000
1000
1000
0100
1000
0000
1010
0000
,
1000
0000
0000
0000
0110
0000
0001
0000
,
0110
0000
0010
0100
0100
0010
0100
0010
,
0001
0000
0001
0000
0010
0001
0010
0000
,
1000
0000
0000
0010
0100
0010
0000
0000
,
0001
0000
1000
1000
1000
0100
0010
0000
,
0001
0001
0001
1000
0100
0000
1100
0000
,
1000
0001
0010
0001
1000
1000
0100
0000
,
0001
0000
0010
0001
0010
0100
0001
0100
,
0001
0001
0010
0001
0100
0001
0000
0010
,
0020
0000
0100
0000
0010
0000
0100
0000
,
0001
0000
0030
0001
0010
0100
0001
0100
,
1000
0100
0100
0010
0010
0010
0100
0010
,
0001
0000
0010
0001
0010
0100
0001
0000
,
1001
0000
0010
0001
1000
0001
0010
0000
,
0011
0000
0000
1000
0010
0100
0010
0100
,
0001
0001
1000
0100
1000
0000
0010
0100
,
1000
1000
0001
0010
0001
0000
0100
0010
,
0001
0000
0110
0000
0100
0000
0001
0000
,
1000
0001
0010
0001
1000
1000
0100
0000
,
0001
1000
0000
0000
0000
0000
0000
0000
,
0200
0000
0000
0000
1000
0000
0000
0000
,
0301
0000
0010
0001
0010
0100
0001
0100
,
0000
0001
0001
1000
0100
0010
0100
0010
,
0001
0000
1000
1000
1000
0100
0010
0000
,
0001
0000
1000
1000
0002
0000
0100
0000
,
1000
0000
0001
0000
0001
0000
0013
0000
,
0001
0000
1000
1000
1000
0010
0100
0000
,
0000
0001
0001
1000
0100
0010
0100
0010
,
0002
0000
0010
0000
1000
0000
0100
0000
,
0001
0000
0013
0001
0100
0001
0000
0010
,
1000
0000
0110
0000
0100
0001
0100
0001
,
1000
0001
0010
0001
1000
1000
2000
0000
,
1000
0000
0000
0000
1000
0000
3000
0010
,
0001
0000
0000
0000
0001
0000
0000
0000
,
1010
0000
1000
0100
0010
0010
0100
0010
,
0001
1000
0100
0000
1000
0000
0001
0000
,
0001
0010
0000
0100
0100
0010
0100
0000
,
1000
0100
0001
0100
1000
0000
0100
0000
,
0101
0000
0000
0010
0001
1000
0000
0000
,
0001
0000
0110
0000
0100
0000
0001
0000
,
0001
0000
0100
0010
0100
0000
1001
0000
,
1000
0100
0100
0010
0010
0010
0100
0010
,
0001
0000
0010
0001
0010
0100
0001
0100
,
0001
0001
0010
0001
0100
0001
0000
0010
,
1000
0100
0100
0010
0010
0010
0100
0010
,
0001
0000
1000
1000
1000
0100
0010
0000
,
0001
0000
0010
0001
0010
0100
0001
0100
,
0001
0000
0100
0001
0100
0010
0001
0000
,
1001
0000
0010
0001
1000
0001
0010
0000
,
0001
0000
0010
0001
0010
0100
0001
0100
,
1000
0000
0100
1000
0100
0010
1000
0010
,
0001
0001
0010
0001
0100
0001
2000
0000
,
1000
0000
0100
0000
0010
0000
3100
0010
,
1000
0001
0010
0001
1000
1000
0100
0000
,
1010
0000
1000
0001
1000
0001
0001
0100
,
0001
0000
0010
0001
0010
0100
0001
0000
,
1001
0000
0010
0001
1000
0001
0010
0000
,
0011
0000
0000
1000
0010
0100
0010
0100
,
0001
0000
0110
0000
0100
0000
0001
0000
,
1000
0100
0001
0100
1000
0000
0100
1000
,
1000
0010
1000
0000
1010
0000
0100
0000
,
0001
1000
0000
0000
0000
0000
0000
0000
,
0002
0000
0000
0000
1000
0000
0000
0000
,
0003
0001
0001
1000
0100
0000
1100
0000
,
0000
0001
0001
1000
0100
0010
0100
0010
,
0001
0000
1000
1000
1000
0100
0010
0000
,
0000
0001
0001
1000
0100
0010
0100
0010
,
1000
0100
1000
0100
0010
0000
0001
0000
,
0000
0001
0001
1000
0100
0010
0100
0010
,
0001
0000
1000
1000
1000
0100
0010
0000
,
0000
0001
0001
1000
0100
0010
0100
0010
,
1000
0100
1000
0100
0010
0000
0001
0000
,
0001
1000
0100
0000
1000
0000
0001
0000
,
0001
1000
0100
0000
1000
0000
0001
0000
,
1000
0001
0100
0000
0010
0000
0000
0000
,
;
