#TITLE:The Pride of the Tyrant;
#SUBTITLE:;
#ARTIST:Rhapsody;
#TITLETRANSLIT:;
#SUBTITLETRANSLIT:;
#ARTISTTRANSLIT:;
#CREDIT:Arvin;
#BANNER:../bn-Rhapsody.png;
#BACKGROUND:../Rhapsody-bg.png;
#LYRICSPATH:;
#CDTITLE:;
#MUSIC:09 - Rhapsody - The Pride Of The Tyrant.ogg;
#OFFSET:-0.227;
#SAMPLESTART:33.293;
#SAMPLELENGTH:12.000;
#SELECTABLE:YES;
#BPMS:0.000=180.020;
#STOPS:;
#BGCHANGES:;
// cache tags:
#FIRSTBEAT:0.000;
#LASTBEAT:853.333;
#SONGFILENAME:Songs/Rhapsody of Fire/The Pride of the Tyrant - [Arvin]/tyrant.sm;
#HASMUSIC:1;
#HASBANNER:1;
#MUSICLENGTH:293.537;
// end cache tags

//---------------dance-single - ----------------
#NOTES:
     dance-single:
     :
     Challenge:
     15:
     1.000,1.000,0.194,0.344,1.000,2543.000,57.000,101.000,165.000,0.000:

1MM1
0000
0000
0000
,
1MM1
0000
0000
0000
,
1MM1
MM11
M1M1
1MM1
,
2M2M
0000
0000
0000
0000
3030
1MM1
0000
,
0001
0010
0001
1000
0001
0100
0001
1000
0001
0010
0001
1000
0001
0100
0001
1000
,
0001
1000
0010
1000
0001
1000
0100
1000
0001
1000
0010
1000
0001
1000
0100
1000
,
0001
0010
0001
1000
0100
1000
0001
0100
0001
1000
0010
1000
0001
0010
0001
1000
,
0001
0010
0100
1000
0100
0010
0001
1000
0001
0100
0010
0100
0001
0000
MMMM
0000
,
1000
0100
0010
0001
0010
0100
1000
0010
0100
0010
1000
0001
1000
0000
MMMM
0000
,
0001
0010
0100
1000
0100
0010
0001
0100
0010
1000
0001
1000
0010
0100
0001
0010
,
0100
1000
0100
0010
0001
1000
0001
0100
0010
1000
0001
1000
0010
0100
0001
1000
,
0010
0100
0010
1000
0001
0010
0100
1000
0010
0100
0001
0010
0100
1000
0001
1000
,
0001
0100
0010
0100
0001
0010
0100
0010
0001
1000
0100
0010
0100
1000
0010
0100
,
0001
0100
0010
1000
0010
0100
0001
0010
0100
1000
0001
1000
0100
0010
0001
0100
,
0010
1000
0010
0100
0001
1000
0001
0010
0100
1000
0001
1000
0100
0010
0001
1000
,
0100
0010
0100
1000
0001
0100
0010
1000
0100
0010
0001
0100
0010
1000
0001
1000
,
0001
0010
0100
0010
0001
0100
0010
0100
0001
1000
0010
0100
0010
1000
0100
0010
,
0001
0010
0100
0010
0001
0100
0010
0100
0001
1000
0010
0100
0010
1000
0100
0010
,
0001
0000
0000
0000
0010
0000
0000
0000
0100
0000
0000
0000
1000
0000
0000
0001
0000
0000
0100
0000
0000
0010
0000
0000
2000
0000
0000
0000
0000
0000
3001
0000
0000
0010
0000
0000
0100
0000
0000
1000
0000
0000
0100
0000
0000
0010
0000
0000
,
0001
0000
0000
0000
0100
0000
0000
0000
0010
0000
0000
0000
1000
0000
0000
0001
0000
0000
0010
0000
0000
0100
0000
0000
2000
0000
0000
0000
0000
0000
3001
0000
0000
0100
0000
0000
0010
0000
0000
1000
0000
0000
0010
0000
0000
0100
0000
0000
,
0001
0000
0000
0000
1000
0000
0000
0000
0010
0000
0000
0000
1000
0000
0000
0100
0000
0000
0010
0000
0000
0001
0000
0000
2000
0000
0000
0000
0000
0000
3100
0000
0000
0010
0000
0000
0100
0000
0000
1000
0000
0000
0010
0000
0000
0100
0000
0000
,
0001
0000
0000
0000
0010
0000
0000
0000
0001
0000
0000
0000
1000
0000
0000
0000
0010
0000
0000
0000
1000
0000
0000
0000
0001
0000
0000
0100
0000
0000
0010
0000
0000
0100
0000
0000
0001
0000
0000
0010
0000
0000
0100
0000
0000
1000
0000
0000
,
0002
0000
0103
0010
0100
0001
0010
0100
2000
0000
3100
0010
0100
1000
0010
0100
,
0002
0000
0000
0000
0000
0000
0000
0000
0000
0003
0000
0000
1000
0000
0000
0000
0100
0000
0000
0000
0010
0000
0000
0000
,
0002
0000
0000
0000
0000
0000
0000
0000
1003
0100
1000
0010
0100
0001
0010
0001
,
1MM0
0100
0010
0001
0010
0000
0100
0000
,
1M0M
0010
0100
0010
1000
0000
0000
0001
,
2MMM
0000
0000
3001
0200
0000
0000
0301
,
MM10
0100
1000
0010
M2MM
0000
0000
0000
,
03M1
0010
0100
1000
0100
0000
0010
0001
,
1M0M
0010
0100
0010
1000
0000
0000
1000
,
MMM2
0000
0000
1003
0020
0000
1030
0100
,
M01M
0000
0001
0000
0100
0000
0010
0000
2M0M
0000
0000
0000
3010
0100
0010
0100
,
0001
1000
0010
0100
0001
0000
1000
0000
0000
0000
1010
0000
0010
0000
0000
0000
,
1000
0100
0010
0001
0100
0000
0010
0000
0000
0000
1010
0000
1000
0000
0000
0000
,
0001
0010
0100
1000
0010
0000
0100
0000
0000
0000
0101
0000
0001
0000
0000
0000
,
2000
3200
0320
0000
,
0031
1000
0100
0010
0001
0000
1000
0000
0000
0000
1100
0000
0100
0000
0000
0000
,
1000
0010
0100
0001
0010
0100
1000
0000
0000
0000
1100
0000
1000
0000
0000
0000
,
0001
0100
0010
1000
0100
0000
0010
0000
0011
0000
0001
0000
1001
0000
1000
0000
,
2000
3200
0320
0000
,
0130
1000
0100
1000
0010
0100
0010
0100
0001
0010
0001
0100
0010
1000
0100
0010
,
0001
1000
0010
1000
0100
0010
0001
0100
0010
1000
0001
1000
0001
0010
0100
1000
,
0001
0010
0001
0010
0100
1000
0100
1000
0001
0100
0001
0100
0010
1000
0100
0010
,
0001
0100
0010
1000
0001
0010
0100
1000
0001
1000
0100
0010
0001
0100
0010
0100
,
0010
1000
0010
1000
0100
0010
0100
0010
0001
0100
0001
0010
0100
1000
0010
0100
,
0001
1000
0100
1000
0010
0100
0001
0010
0100
1000
0001
1000
0001
0100
0010
1000
,
0001
0100
0001
0100
0010
1000
0010
1000
0001
0010
0001
0010
0100
1000
0010
0100
,
0001
0010
0100
1000
0001
0100
0010
1000
0001
1000
0010
0100
0001
0010
0100
1000
,
0001
0010
0001
1000
0001
0100
0001
1000
0001
0010
0100
1000
0100
0010
0001
1000
,
00M1
0100
0010
0100
0001
0010
0100
1000
0010
0100
0001
1000
0001
0100
0010
0100
,
M001
0010
0001
1000
0010
1000
0100
0010
M001
0100
0010
1000
0001
0010
0100
1000
,
0100
0010
0001
1000
0010
1000
0010
0100
0001
0010
0100
1000
0001
0000
0100
0000
,
0001
0000
0010
0000
0100
0000
1000
0000
0001
0000
1000
0000
0001
0010
0001
0010
,
0002
0000
0000
0000
0013
0001
0100
0001
1000
0010
1000
0010
1M0M
0000
0010
0000
,
0100
0001
0100
0000
0010
0000
10MM
0100
,
0010
0100
1000
0000
0000
0001
2MM0
0000
,
0000
3001
0020
0000
0000
0031
M10M
0010
,
1000
0100
M02M
0000
0000
0000
M031
0100
,
0010
1000
0010
0000
0100
0000
MM01
0010
,
0100
0010
0001
0000
0000
1000
0MM2
0000
,
0000
1003
0200
0000
0300
1000
M01M
0100
,
0001
0000
0010
0000
M20M
0000
0000
0000
1300
0100
1000
0001
1000
0001
0010
0100
,
1000
0000
0001
0000
0000
0000
0011
0000
0010
0000
0000
0000
0001
0100
0010
1000
,
0100
0000
0010
0000
0000
0000
0011
0000
0001
0000
0000
0000
0001
0010
0100
1000
,
0010
0100
0001
0000
0000
0000
0101
0000
0001
0000
0000
0000
2000
0000
0000
0000
,
3200
0000
0000
0000
0320
0000
0000
0000
0000
0000
0000
0000
0031
1000
0100
0010
,
0001
0000
1000
0000
0000
0000
1100
0000
0100
0000
0000
0000
1000
0010
0100
0001
,
0010
0100
1000
0000
0000
0000
1100
0000
1000
0000
0000
0000
0001
0100
0010
1000
,
0100
0010
0011
0001
1001
1000
2000
0000
,
3200
0000
0000
0000
0320
0000
0000
0000
0000
0000
0000
0000
0130
1000
0100
1000
,
0010
0100
0010
0100
0001
0010
0001
0100
0010
1000
0100
0010
0001
1000
0010
1000
,
0100
0010
0001
0100
0010
1000
0001
1000
0001
0010
0100
1000
0001
0010
0001
0010
,
0100
1000
0100
1000
0001
0100
0001
0100
0010
1000
0100
0010
0001
0100
0010
1000
,
0001
0010
0100
1000
0001
1000
0100
0010
0001
0100
0010
0100
0010
1000
0010
1000
,
0100
0010
0100
0010
0001
0100
0001
0010
0100
1000
0010
0100
0001
1000
0100
1000
,
0010
0100
0001
0010
0100
1000
0001
1000
0001
0100
0010
1000
0001
0100
0001
0100
,
0010
1000
0010
1000
0001
0010
0001
0010
0100
1000
0010
0100
0001
0010
0100
1000
,
0001
0100
0010
1000
0001
1000
0010
0100
0001
0010
0100
1000
0001
0000
0000
0000
,
MMMM
0000
0000
0000
0002
0000
0000
0000
2003
0000
0000
0000
3001
0100
0010
0100
,
0001
1000
0100
0010
0001
0010
0100
0010
0001
1000
0100
0010
0001
0100
0010
0100
,
0001
1000
0100
0010
0100
1000
0010
0100
0001
0010
0100
1000
0010
0100
0001
1000
,
0010
0100
0010
1000
0001
0010
0100
1000
0001
1000
0100
0010
0001
1000
0010
1000
,
0001
0010
0100
1000
0002
0000
0000
0000
2003
0000
0000
0000
3001
0010
0100
0010
,
0001
1000
0010
0100
0001
0100
0010
0100
0001
1000
0010
0100
0001
0010
0100
0010
,
0001
1000
0010
0100
0010
1000
0100
0010
0001
0100
0010
1000
0100
0010
0001
1000
,
0100
0010
0100
1000
0001
0100
0010
1000
0001
1000
0010
0100
0001
1000
0100
1000
,
0001
0100
0010
1000
0002
0000
0000
0000
0203
0000
0000
0000
0310
1000
0010
1000
,
0001
0010
0100
1000
0100
0010
0001
1000
0001
0100
0010
0100
0001
0010
0100
1000
,
0010
0100
0001
0010
0100
0010
0001
1000
0100
0010
0001
0100
0010
1000
0100
0010
,
0001
1000
0001
0100
0010
0100
0001
0010
0100
1000
0010
1000
0010
0100
0001
0010
,
0100
1000
0001
1000
0002
0000
0000
0000
0023
0000
0000
0000
0130
1000
0100
1000
,
0001
0100
0010
1000
0010
0100
0001
1000
0001
0010
0100
0010
0001
0100
0010
1000
,
0100
0010
0001
0100
0010
0100
0001
1000
0010
0100
0001
0010
0100
1000
0010
0100
,
0001
1000
0001
0010
0100
0010
0001
0100
0010
1000
0100
1000
0100
0010
0001
0100
,
0010
0000
0000
1000
0000
0000
0001
0000
0000
1000
0000
0000
0001
0000
0000
0010
0000
0000
0001
0000
0000
0010
0000
0000
0001
0000
0000
1000
0000
0000
0100
0000
0000
1000
0000
0000
0010
0000
0000
0000
1000
0000
0000
0000
0001
0000
0000
0000
,
1000
0010
1000
0001
1000
0010
1000
0100
1000
0001
0100
0001
,
1000
0001
0010
0001
1000
0001
0100
0001
1000
0001
0100
0010
,
0100
0001
0010
0100
0010
0001
0100
0010
0100
0001
0000
1000
,
0000
0010
0000
0220
0330
0000
0202
0000
0303
1000
0010
1000
,
0001
1000
0010
1000
0001
1000
0010
1000
0100
1000
0001
0100
,
0001
1000
0001
0010
0001
1000
0001
0100
0001
1000
0001
0100
,
0010
0100
0001
0010
0100
0010
0001
0100
0010
0100
0000
M1M1
,
0000
0000
0000
0000
1MM1
0000
0000
0000
0000
0000
0000
0000
10MM
0000
0000
0100
0000
0000
0010
0000
0000
0100
0000
0000
1000
0000
0000
0010
0000
0000
0100
0000
0000
0001
0000
0000
0100
0000
0000
0001
0000
0000
0100
0000
0000
0010
0000
0000
,
1000
0100
0010
0001
0100
0001
0100
0010
0100
0001
0010
0100
1000
0010
0100
0010
,
1000
0010
0100
0001
0010
0100
1000
0001
1000
0010
1000
0100
0010
0001
0100
0001
,
1000
0001
0010
0100
1000
0100
0010
0001
1000
0010
1000
0001
1000
0010
0100
0001
,
0010
0100
0010
0001
0010
0100
1000
0010
0100
0001
1000
0001
1MM0
0000
0000
0000
,
2M2M
0000
3030
0000
1M0M
0010
0100
0010
1000
0100
0010
0001
0010
0001
0010
0100
,
1000
0010
0100
0001
0010
0001
0010
0100
0010
0001
0100
0010
1000
0100
0010
0100
,
1000
0100
0010
0001
0100
0010
1000
0001
1000
0100
1000
0010
0100
0001
0010
0100
,
1000
0000
0000
0001
0000
0000
0010
0000
0000
0001
0000
0000
1MM0
0000
0000
0000
0000
0000
0000
0000
1M1M
0000
0000
0000
0000
0000
0000
0000
1MM1
0000
0000
0000
0000
0000
0000
0000
MM01
0000
0000
0010
0000
0000
0001
0000
0000
0010
0000
0000
,
0001
0010
0001
0010
0100
1000
0100
1000
0010
0100
0010
0100
M001
0000
0000
0000
,
1000
1001
0001
0101
,
0100
0000
0110
0000
0010
0100
0101
0000
,
0001
0011
0010
0220
,
0000
033M
0000
2000
,
0000
0000
0000
0000
3002
0000
0000
0000
1003
0100
1000
0001
1000
0100
0010
0001
,
0010
0100
1000
0001
1000
0010
0100
0001
0010
0100
1000
0010
0100
0001
0010
0100
,
1000
0100
0010
0001
0100
0010
1000
0100
0010
0001
0100
0010
1000
0001
1000
0010
,
0100
0010
1000
0100
0010
0001
1000
0010
1000
0001
0010
0100
1000
0001
0100
0001
,
1000
0100
0010
0001
0010
0100
1000
0001
1000
0010
0100
0001
0010
0100
1000
0010
,
0100
0001
0010
0100
1000
0100
0010
0001
0100
0010
1000
0001
1MM0
0000
0000
0000
,
1M1M
M1M1
MM11
11MM
,
1MM1
M1M1
1MM1
1M1M
,
M1M1
MM11
11MM
1MM1
,
M1M1
0000
0000
0000
1MM1
0000
0000
000M
M000
000M
M000
000M
0000
0000
1000
0100
,
1000
0100
1000
0001
1000
0100
0010
0001
0010
0100
1000
0001
0100
0010
0100
0001
,
0010
0100
0010
0001
1000
0100
0010
0001
1000
0010
1000
0001
0010
0100
1000
0010
,
0100
0010
1000
0001
0010
0001
1000
0100
1000
0010
0100
0001
1000
0100
0010
0001
,
0010
0100
1000
0001
2000
0000
0000
0000
0000
0000
0000
0000
3010
0100
0010
1000
,
0010
0100
0010
1000
0001
0010
0001
1000
0001
0010
0001
1000
0100
0010
0100
1000
,
0100
0010
0100
0010
0001
0010
0100
1000
0100
0010
0001
1000
0010
0100
0010
1000
,
0100
0010
0100
1000
0001
0010
0100
1000
0001
0100
0001
1000
0100
0010
0001
0100
,
0010
0100
0001
1000
0100
1000
0001
0010
0001
0100
0010
1000
0001
0010
0100
1000
,
0100
0010
0001
1000
0001
0010
0100
1000
0001
1000
0010
1000
0100
0010
0100
1000
,
0100
0010
0100
1000
0001
0010
0001
1000
0001
0010
0001
1000
0100
0010
0100
1000
,
0100
0010
0100
0010
M001
0000
0010
0000
0100
0000
1000
0000
0100
0000
0000
0000
,
0010
0000
M0M1
0100
0010
0100
0001
0000
,
0000
1000
0MM2
0000
0000
1003
0020
0000
,
0000
1030
M10M
0010
0001
0100
M02M
0000
,
0000
0000
103M
0100
0010
0001
0010
0000
,
0100
0000
1M0M
0010
0100
0010
1000
0000
,
0000
0001
2MM0
0000
0000
3001
0200
0000
,
0300
0010
M10M
0001
0010
0100
20MM
0000
,
3004
0000
0013
0000
0100
0000
1000
0010
1000
0000
0001
0100
0001
0000
1000
0100
,
1000
0000
0001
0010
0001
0000
1000
0100
0010
0000
0001
0100
0010
0000
1000
0010
,
0100
0000
0001
0100
0010
0000
1000
0100
0010
0000
0001
0100
0010
0000
1000
0100
,
1000
0000
0001
0010
0002
0000
0000
0000
2003
0000
0000
0000
3020
0000
0000
0000
,
0000
0000
0000
0000
0130
0000
0001
0100
0001
0000
1000
0010
1000
0000
0001
0010
,
0001
0000
1000
0100
1000
0000
0001
0010
0100
0000
1000
0010
0100
0000
0001
0100
,
0010
0000
1000
0010
0100
0000
0001
0010
0100
0000
1000
0010
0100
0000
0001
0010
,
0001
0000
1000
0100
2000
0000
0000
0000
3002
0000
0000
0000
0203
0000
0000
0000
,
0000
0000
0000
0000
0310
1000
0010
1000
0100
0010
0100
0010
0001
0100
0001
0010
,
0100
1000
0010
0100
0001
1000
0100
1000
0010
0100
0001
0010
0100
1000
0001
1000
,
0001
0100
0010
1000
0001
0100
0001
0100
0010
1000
0010
1000
0001
0010
0001
0010
,
0100
1000
0010
0100
0001
0010
0100
1000
0001
0100
0010
1000
0001
1000
0010
0100
,
0001
0010
0100
0010
0100
1000
0100
1000
0010
0100
0010
0100
0001
0010
0001
0100
,
0010
1000
0100
0010
0001
1000
0010
1000
0100
0010
0001
0100
0010
1000
0001
1000
,
0001
0010
0100
1000
0001
0010
0001
0010
0100
1000
0100
1000
0001
0100
0001
0100
,
0010
1000
0100
0010
0001
0100
0010
1000
0001
0010
0100
1000
0001
1000
0100
0010
,
0001
0100
0010
1000
0001
0000
0000
0000
MMMM
0000
0000
0000
0002
0000
0000
0000
,
2003
0000
0000
0000
3001
0100
0010
0100
0001
1000
0100
0010
0001
0010
0100
0010
,
0001
1000
0100
0010
0001
0100
0010
0100
0001
1000
0100
0010
0100
1000
0010
0100
,
0001
0010
0100
1000
0010
0100
0001
1000
0010
0100
0010
1000
0001
0010
0100
1000
,
0001
1000
0100
0010
0001
1000
0010
1000
0001
0010
0100
1000
0002
0000
0000
0000
,
2003
0000
0000
0000
3001
0010
0100
0010
0001
1000
0010
0100
0001
0100
0010
0100
,
0001
1000
0010
0100
0001
0010
0100
0010
0001
1000
0010
0100
0010
1000
0100
0010
,
0001
0100
0010
1000
0100
0010
0001
1000
0100
0010
0100
1000
0001
0100
0010
1000
,
0001
1000
0010
0100
0001
1000
0100
1000
0001
0100
0010
1000
0002
0000
0000
0000
,
0203
0000
0000
0000
0310
1000
0010
1000
0001
0010
0100
1000
0100
0010
0001
1000
,
0001
0100
0010
0100
0001
0010
0100
1000
0010
0100
0001
0010
0100
0010
0001
1000
,
0100
0010
0001
0100
0010
1000
0100
0010
0001
1000
0001
0100
0010
0100
0001
0010
,
0100
1000
0010
1000
0010
0100
0001
0010
0100
1000
0001
1000
0002
0000
0000
0000
,
0023
0000
0000
0000
0130
1000
0100
1000
0001
0100
0010
1000
0010
0100
0001
1000
,
0001
0010
0100
0010
0001
0100
0010
1000
0100
0010
0001
0100
0010
0100
0001
1000
,
0010
0100
0001
0010
0100
1000
0010
0100
0001
1000
0001
0010
0100
0010
0001
0100
,
0010
1000
0100
1000
0100
0010
0001
0100
0010
1000
0001
1000
0002
0000
0000
0000
,
2003
0000
0000
0000
3001
0100
0010
0100
0001
1000
0100
0010
0001
0010
0100
0010
,
0001
1000
0100
0010
0001
0100
0010
0100
0001
1000
0100
0010
0100
1000
0010
0100
,
0001
0010
0100
1000
0010
0100
0001
1000
0010
0100
0010
1000
0001
0010
0100
1000
,
0001
1000
0100
0010
0001
1000
0010
1000
0001
0010
0100
1000
0002
0000
0000
0000
,
2003
0000
0000
0000
3001
0010
0100
0010
0001
1000
0010
0100
0001
0100
0010
0100
,
0001
1000
0010
0100
0001
0010
0100
0010
0001
1000
0010
0100
0010
1000
0100
0010
,
0001
0100
0010
1000
0100
0010
0001
1000
0100
0010
0100
1000
0001
0100
0010
1000
,
0001
1000
0010
0100
0001
1000
0100
1000
0001
0100
0010
1000
0002
0000
0000
0000
,
0203
0000
0000
0000
0310
1000
0010
1000
0001
0010
0100
1000
0100
0010
0001
1000
,
0001
0100
0010
0100
0001
0010
0100
1000
0010
0100
0001
0010
0100
0010
0001
1000
,
0100
0010
0001
0100
0010
1000
0100
0010
0001
1000
0001
0100
0010
0100
0001
0010
,
0100
1000
0010
1000
0010
0100
0001
0010
0100
1000
0001
1000
0002
0000
0000
0000
,
0023
0000
0000
0000
0130
1000
0100
1000
0001
0100
0010
1000
0010
0100
0001
1000
,
0001
0010
0100
0010
0001
0100
0010
1000
0100
0010
0001
0100
0010
0100
0001
1000
,
0010
0100
0001
0010
0100
1000
0010
0100
0001
1000
0001
0010
0100
0010
0001
0100
,
0010
1000
0100
1000
0100
0010
0001
0100
0010
1000
0001
1000
0002
0000
0000
0000
,
0203
0300
M2M2
0000
0000
0303
2MM2
0000
,
3003
0000
22MM
0000
0000
3300
2M2M
0000
,
0000
3030
2MM2
0000
0000
0000
0000
0000
,
0000
0000
3003
0000
1MM1
0000
0000
0000
0000
0000
0000
0000
0001
0010
0100
1000
,
0001
1000
0010
0100
0001
0010
0100
1000
0100
0010
0001
0100
0010
1000
0001
1000
,
0010
0100
0001
0010
0100
1000
0100
0010
0001
1000
0001
0100
0010
1000
0001
1000
,
0010
0100
0001
1000
0010
0100
0010
1000
0001
0010
0100
1000
0010
0100
0001
0010
,
0100
1000
0001
1000
0001
0100
0010
0100
0001
0010
0100
0010
0001
1000
0100
0010
,
0100
1000
0010
0100
0001
0100
0010
1000
0010
0100
0001
0010
0100
1000
0001
1000
,
0100
0010
0001
0100
0010
1000
0010
0100
0001
1000
0001
0010
0100
1000
0001
1000
,
0100
0010
0001
1000
0100
0010
0100
1000
0001
0100
0010
1000
0100
0010
0001
0100
,
0010
1000
0001
1000
0001
0010
0100
0010
0001
0100
0010
0100
0001
1000
0010
0100
,
0010
1000
0100
0010
0001
0010
0100
0010
0001
0100
0010
0100
0001
1000
0010
0100
,
0010
0000
0000
1000
0000
0000
0100
0000
0000
0010
0000
0000
0001
0000
0000
0000
0010
0000
0000
0000
0100
0000
0000
0000
1000
0000
0000
0001
0000
0000
0100
0000
0000
0010
0000
0000
2000
0000
0000
0000
0000
0000
3001
0000
0000
0010
0000
0000
,
0100
0000
0000
1000
0000
0000
0100
0000
0000
0010
0000
0000
0001
0000
0000
0000
0100
0000
0000
0000
0010
0000
0000
0000
1000
0000
0000
0001
0000
0000
0010
0000
0000
0100
0000
0000
2000
0000
0000
0000
0000
0000
3001
0000
0000
0100
0000
0000
,
0010
0000
0000
1000
0000
0000
0010
0000
0000
0100
0000
0000
0001
0000
0000
0000
1000
0000
0000
0000
0010
0000
0000
0000
1000
0000
0000
0100
0000
0000
0010
0000
0000
0001
0000
0000
2000
0000
0000
0000
0000
0000
3100
0000
0000
0010
0000
0000
,
0100
0000
0000
1000
0000
0000
0010
0000
0000
0100
0000
0000
0001
0000
0000
0000
0010
0000
0000
0000
0001
0000
0000
0000
1000
0000
0000
0000
0010
0000
0000
0000
1000
0000
0000
0000
0001
0000
0000
0100
0000
0000
0010
0000
0000
0100
0000
0000
,
0001
0010
0100
1000
0002
0000
0103
0010
0100
0001
0010
0100
2000
0000
3100
0010
,
0100
0000
0000
1000
0000
0000
0010
0000
0000
0100
0000
0000
0002
0000
0000
0000
0000
0000
0000
0000
0000
0000
0000
0000
0000
0000
0000
0000
0000
0000
0003
0000
0000
0000
0000
0000
1000
0000
0000
0000
0100
0000
0000
0000
1000
0000
0000
0000
,
0010
0100
0001
2MM2
3003
0000
0000
0000
0000
0000
0000
0000
;
