#TITLE:Shin-Nihon;
#SUBTITLE:;
#ARTIST:pianoid;
#TITLETRANSLIT:;
#SUBTITLETRANSLIT:;
#ARTISTTRANSLIT:;
#CREDIT:;
#BANNER:shin-nihon bn.png;
#BACKGROUND:shin-nihon bg.png;
#LYRICSPATH:;
#CDTITLE:;
#MUSIC:Shin-Nihon.ogg;
#OFFSET:0.009;
#SAMPLESTART:87.842;
#SAMPLELENGTH:12.000;
#SELECTABLE:YES;
#BPMS:0.000=249.999;
#STOPS:;
#BGCHANGES:;
// cache tags:
#FIRSTBEAT:28.000;
#LASTBEAT:597.750;
#SONGFILENAME:Songs/SPEEEDCOOOORE 4/Shin-Nihon - [Aoreo]/Shin-Nihon.sm;
#HASMUSIC:1;
#HASBANNER:1;
#MUSICLENGTH:144.960;
// end cache tags

//---------------dance-single - J. Nero----------------
#NOTES:
     dance-single:
     J. Nero:
     Challenge:
     16:
     1.000,1.000,0.331,0.807,0.679,931.000,48.000,117.000,1.000,0.000:
0000
0000
0000
0000
,
0000
0000
0000
0000
,
0000
0000
0000
0000
,
0000
0000
0000
0000
,
0000
0000
0000
0000
,
0000
0000
0000
0000
,
0000
0000
0000
0000
,
00M0
0000
0000
0000
,
0000
0000
0000
0000
,
0001
0100
0001
1000
0010
0100
0001
1000
0100
0010
0001
1000
0001
0100
0010
1000
,
0001
0000
0100
0000
0001
1000
0100
1000
0001
0100
0001
1000
0010
1000
0001
0010
,
0100
1000
0001
1000
0010
0100
0001
0100
0010
1000
0001
1000
0100
0010
0001
1000
,
0001
0000
0010
0000
0100
1000
0001
0100
0010
0100
0001
1000
0100
0010
0001
1000
,
0001
0100
0010
0100
0001
1000
0100
0010
0100
1000
0001
0100
0001
1000
0010
0100
,
0001
0000
1000
0000
0001
0010
0100
1000
0001
0100
0010
0100
0001
1000
0100
0010
,
0001
1000
0100
1000
0001
0100
0010
0100
0001
1000
0100
0010
0001
1000
0001
0100
,
0001
0000
1000
0000
0100
0010
0001
1000
0001
0100
0010
0100
0001
1000
0001
0010
,
0200
0000
0000
0000
0000
0300
0000
0000
,
1000
0000
0100
0000
1000
0001
1000
0100
0010
0001
1000
0100
1000
0001
0100
0010
,
0200
0000
0300
0100
0000
0000
0001
0000
,
0000
0001
0000
0000
0100
0000
0000
0000
,
0001
0000
0000
0001
0000
0000
1000
0000
,
0000
1000
0000
0000
0010
0000
0000
0000
,
0100
0000
0000
0100
0000
0000
0001
0000
,
0000
0001
0000
0000
0010
0000
0000
0000
,
0100
0000
0000
0100
0000
0000
1000
0000
,
0000
1000
0000
0000
0010
0000
0000
0000
,
0101
0000
0100
0000
0001
0000
0010
0100
,
1000
0001
0100
0010
0100
0000
0001
0000
,
1000
0000
1000
0000
0100
0000
0010
0100
,
1000
0001
0100
0001
1000
0000
0010
0000
,
0100
0000
0100
0000
0001
0000
1000
0100
,
1000
0001
0010
0100
1000
0000
0001
0000
,
0100
0000
0000
0100
0001
0000
0000
0010
,
0100
0000
1000
0000
0000
0000
0001
0000
1000
0001
0010
0100
1000
0000
0000
0000
,
2002
0000
0000
3003
0000
0000
0000
0000
,
0000
0000
0000
0000
0000
0000
2200
3300
,
2002
0000
3003
2002
0000
3003
0000
0000
,
0000
0000
0000
0000
,
0202
0303
0100
0001
0000
0010
0100
0000
,
1000
0000
0010
0100
0010
0000
2020
3030
,
2002
0000
3003
0202
0000
0303
0100
0000
,
0001
0000
0010
0100
1000
0000
0000
0000
,
2002
0000
0000
3003
0000
0000
0000
0000
,
0202
0000
0000
0303
0000
0000
0000
0000
,
2020
0000
0000
3030
0000
0000
0000
0000
,
2200
0000
0000
3300
0000
0000
0000
0000
,
0220
0330
0022
0033
,
2002
3003
2020
3030
,
0020
0230
0302
0023
,
0130
0000
1000
0000
0001
0000
0100
0000
0001
1000
0100
0010
0100
1000
0001
0100
,
0001
0100
0001
0010
0000
0100
1000
0000
,
0001
0000
0001
0100
0010
0000
0000
0000
,
0100
0001
1000
0001
0010
0100
1000
0001
,
0100
0000
0010
0000
1000
0000
0100
0000
0010
0000
0001
0000
1000
0001
1000
0100
,
0010
0001
1000
0010
1000
0100
0010
0001
,
1000
0000
0010
0000
1000
0000
0001
0000
0100
0000
0001
0000
0010
0100
1000
0001
,
0100
0010
0100
0001
1000
0100
0010
0100
,
1000
0000
0001
0000
0100
0000
0010
0000
0100
0000
0001
0000
1000
0001
1000
0100
,
0010
0001
1000
0001
0100
0010
0100
0001
1000
0100
1000
0001
0010
0100
1000
0001
,
1000
0100
0010
0001
1000
0010
0100
0001
2000
3000
0000
0000
0002
0003
0000
0000
,
1000
0100
1000
0001
0010
0100
1000
0001
,
0100
0000
0001
0000
0010
0000
0100
0000
2000
3000
0000
0000
0002
0003
0000
0000
,
0100
0001
0010
0001
1000
0010
0100
0010
,
1000
0000
0100
0000
0010
0000
0001
0000
2000
3000
0000
0000
0020
0030
0100
0000
,
0010
1000
0001
0010
0100
1000
0001
0100
,
0001
0000
0010
0000
0100
0000
1000
0000
0020
0030
0100
0000
0020
0030
0100
0000
,
0001
1000
0001
0100
0010
0100
0001
1000
0001
0010
0100
1000
0001
1000
0010
0100
,
0001
1000
0100
0010
0001
1000
0001
0100
0010
1000
0001
0010
0100
1000
0001
1000
,
0010
0000
0000
0100
0000
0000
0010
0000
0000
0000
1000
0000
0100
0000
0010
0000
,
0100
0000
0000
1000
0000
0000
0001
0000
0100
0000
0000
0000
0100
0000
0000
0000
,
0001
0000
0000
0100
0000
0000
0001
0000
0000
0000
0010
0000
0100
0000
1000
0000
,
0001
0000
0000
0100
0000
0000
0010
0000
1000
0000
0000
0000
1000
0000
0000
0000
,
0100
0000
0000
0010
0000
0000
0001
0000
0000
0000
1000
0000
0010
0000
0100
0000
,
0010
0000
0000
1000
0000
0000
0001
0000
0010
0000
0000
0000
0010
0000
0000
0000
,
0100
0000
0000
1000
0000
0000
0001
0000
0000
0000
0100
0000
0001
0000
0010
0000
,
0100
0000
0000
1000
0000
0000
0001
0000
1000
0001
0100
0010
0100
0000
0001
0000
,
0010
0000
0000
0100
0000
0000
1000
0000
0000
0000
0001
0000
0100
0000
0001
0000
,
0010
0000
0000
0100
0000
0000
1000
0000
0001
0000
0000
0000
0001
0000
0000
0000
,
1000
0000
0000
0100
0000
0000
1000
0000
0000
0000
0010
0000
0100
0000
0001
0000
,
1000
0000
0000
0100
0000
0000
1000
0000
0010
0000
0000
0000
0010
0000
0000
0000
,
0100
0000
0000
0001
0000
0000
0010
0000
0000
0000
0100
0000
1000
0000
0010
0000
,
0100
0000
0000
0001
0000
0000
0010
0000
0100
0000
0000
0000
0100
0000
0000
0000
,
1000
0000
0000
0010
0000
0000
0100
0000
0000
0000
0010
0000
1000
0000
0100
0000
,
0010
0000
0000
0001
0000
0000
1000
0000
0100
0000
1000
0000
0001
0000
0000
0000
,
2002
3003
0000
0000
0000
0000
0000
0000
,
0000
0000
0000
0000
,
0000
0000
0000
0000
,
0000
0000
0000
0000
,
0000
0000
0000
0000
,
0000
0000
0000
0000
,
0000
0000
0000
0000
2002
3003
0000
2200
,
3300
0000
0220
0330
0000
0022
0033
0000
,
2002
3003
0220
0330
0202
0303
0000
2002
,
3003
0000
2200
3300
0000
0220
0330
0000
,
0022
0033
2002
3003
2020
3030
0000
0220
,
0330
0000
0202
0303
0000
2002
3003
0000
,
2200
3300
0220
0330
0022
0033
0000
2002
,
3003
0000
2020
3030
0000
0220
0330
0000
,
0202
0303
2002
3003
2200
3300
0100
1000
,
0000
0001
0100
0000
0001
0010
0000
0100
,
1000
0000
0001
0000
0100
0000
0010
1000
,
0000
0010
0100
0000
0001
0010
0000
0100
,
1000
0000
0001
0000
1000
0000
0100
1000
,
0000
0001
1000
0000
0010
0100
0000
0001
,
0010
0000
0100
0000
1000
0000
0100
1000
,
0000
0001
0100
0000
0001
1000
0000
0001
,
0100
0010
0100
0010
1000
0100
0010
0100
,
1000
0001
0100
0001
1000
0010
0100
0010
,
1000
0001
0010
0100
1000
0001
0100
0010
,
0100
0001
1000
0001
0010
0100
1000
0001
,
1000
0100
0010
0100
1000
0001
1000
0010
0100
0000
0001
0000
0010
0000
0100
0000
,
1000
0001
0100
0001
1000
0010
0100
0010
,
1000
0001
1000
0100
0010
0001
1000
0001
0100
0010
0100
0001
1000
0001
0010
0100
,
1000
0001
1000
0010
0100
0001
1000
0010
4000
0000
0000
0000
0000
0000
3000
0000
,
0001
0100
0001
0010
0100
1000
0001
0000
1000
0000
0100
0000
1000
0000
0001
0000
,
0100
0010
0100
0001
0010
0100
1000
0001
,
0100
0001
0020
0130
1000
0001
0100
0001
,
1000
0100
0010
0100
1000
0001
0010
0100
,
0010
0001
0200
0310
1000
0001
0010
0100
,
1000
0001
0100
0010
0100
0001
1000
0100
,
0010
0001
0200
0301
1000
0100
1000
0001
,
0100
0000
0010
0000
0100
0000
0001
0000
1000
0001
0010
0100
1000
0001
0100
0010
,
1000
0001
1000
0100
0010
0001
1000
0001
0200
0000
0000
0000
0000
0300
0000
0000
,
0000
0000
0000
0000
,
0000
0000
0000
0000
,
0004
0000
0000
0000
1003
0000
1000
0100
,
0010
0100
1000
0001
0100
0010
0100
0001
,
1000
0001
0010
0100
1000
0010
0100
0001
,
1000
0000
0001
0000
0010
0100
1000
0001
1000
0000
0001
0000
0100
0000
0001
0000
,
0010
0100
1000
0001
0100
0010
0100
0001
,
1000
0000
0100
0000
1000
0001
1000
0100
0010
0000
0001
0000
0100
0000
0010
0000
,
0100
0001
1000
0001
0010
0100
1000
0001
,
0100
0000
0001
0000
1000
0001
1000
0010
0100
0001
0100
0010
1000
0001
1000
0100
,
0010
0001
1000
0100
1000
0001
0100
0001
1000
0010
0100
0001
1000
0100
0010
0001
,
2000
3000
0000
0000
2002
3003
0000
0000
0001
0000
0100
0000
0001
0000
0010
0000
,
0100
1000
0001
0100
0010
1000
0001
1000
,
0200
0300
0000
0000
2200
3300
0000
0000
1000
0000
0001
0000
0100
0000
0010
0000
,
0100
0001
0010
0100
1000
0001
0100
0001
,
0020
0030
0000
0000
0020
0030
0100
0000
1000
0000
0001
0000
0100
0000
0010
0000
,
0100
0001
1000
0100
0010
0001
1000
0001
,
0020
0030
0100
0000
0020
0030
0100
0000
1000
0001
1000
0010
0100
0001
0100
0010
,
1000
0001
1000
0100
0010
0001
1000
0100
1000
0001
0100
0010
0100
0001
1000
0100
,
0010
0001
1000
0001
0100
0010
1000
0001
1000
0100
0010
0001
1000
0001
0100
0010
,
1000
0001
1000
0100
0010
0001
1000
0001
0100
0010
1000
0001
1000
0100
0010
0001
,
1000
0001
0100
0010
1000
0001
0010
0100
0000
0000
0000
0000
0000
0000
0000
0000
,
0000
0000
0000
0000
,
0000
0000
0000
0000
1000
0100
1000
0002
,
0000
0000
0000
0000
1003
0000
0000
0000
0100
0000
0000
0000
0010
0000
0000
0000
0220
0330
0000
0000
0000
0000
0000
0000
0100
0000
0000
0000
1000
0000
0000
0000
,
2002
0000
0000
0000
0000
0000
0000
3003
0000
0000
0000
0000
0000
0000
0000
0000
;
