#TITLE:My Turn Is Your Turn;
#SUBTITLE:;
#ARTIST:DJ Sharpnel;
#TITLETRANSLIT:;
#SUBTITLETRANSLIT:;
#ARTISTTRANSLIT:;
#CREDIT:;
#BANNER:my turn is your turn bn.png;
#BACKGROUND:my turn is your turn bg.png;
#LYRICSPATH:;
#CDTITLE:;
#MUSIC:MY TURN IS YOUR TURN.ogg;
#OFFSET:-0.045;
#SAMPLESTART:206.710;
#SAMPLELENGTH:20.284;
#SELECTABLE:YES;
#BPMS:0.000=189.300;
#STOPS:;
#BGCHANGES:;
// cache tags:
#FIRSTBEAT:32.000;
#LASTBEAT:851.500;
#SONGFILENAME:Songs/SHARPNELSTREAMZ v2/My Turn Is Your Turn/MY TURN IS YOUR TURN.sm;
#HASMUSIC:1;
#HASBANNER:1;
#MUSICLENGTH:273.998;
// end cache tags

//---------------dance-single - 16 (CTalon)----------------
#NOTES:
     dance-single:
     16 (CTalon):
     Challenge:
     16:
     1.000,1.000,0.172,0.029,1.000,2641.000,47.000,8.000,34.000,0.000:
0000
0000
0000
0000
,
0000
0000
0000
0000
,
0000
0000
0000
0000
,
0000
0000
0000
0000
,
0000
0000
0000
0000
,
0000
0000
0000
0000
,
0000
0000
0000
0000
,
0000
0000
0000
0000
,
1001
1100
0101
0110
,
1001
0000
1010
0000
0011
0000
0110
0100
,
1100
1001
1010
0011
,
1001
0000
0000
0000
0101
0000
0000
0000
0011
0000
0010
0000
0100
1000
0001
0100
,
0010
1010
0101
0110
,
1001
0000
1100
0000
0011
0000
0101
0100
,
0001
1000
0010
1000
0001
0010
0100
1000
0100
1000
0001
0100
0010
1000
0001
1000
,
0001
0010
0100
1000
0100
0010
0001
1000
0001
1000
0010
0100
0010
1000
0001
0100
,
0001
0000
1000
0000
0010
0100
0001
0000
1000
0100
0010
0001
1000
0001
0100
0000
,
0001
0000
1000
0000
0010
0100
0001
0000
1000
0100
0010
0100
1000
0001
1000
0000
,
0010
0000
0100
0000
0001
0010
0100
0000
1000
0001
0100
0010
1000
0001
1000
0000
,
0001
0000
0010
0000
0100
0010
0001
0000
1000
0001
0100
0001
2000
0000
3002
0000
,
0103
0000
0010
0000
1000
0100
0010
0000
0100
1000
0001
1000
0001
0100
0010
0000
,
1000
0000
0100
0000
1000
0001
1000
0000
0100
0010
0001
1000
0001
0100
0010
0000
,
1000
0000
0001
0000
0010
0100
1000
0000
0001
0100
0001
0100
0010
1000
0001
0000
,
0010
0000
0100
0000
1000
0001
0100
0000
0010
1000
0001
0010
0200
0000
2300
0000
,
3001
0000
0100
0000
0001
0010
0100
0000
1000
0001
0100
0001
1000
0001
0010
0000
,
0100
0000
1000
0000
0001
0100
0001
0000
0100
0010
1000
0001
1000
0100
0010
0000
,
0001
0000
1000
0000
0010
0100
0001
0000
0010
0100
0010
0100
1000
0001
1000
0000
,
0010
0000
1000
0000
0100
0010
0001
0000
1000
0001
0100
0010
2000
0000
3200
0000
,
0310
0000
0001
0000
1000
0001
0100
0000
0001
0010
0100
1000
0100
1000
0001
0000
,
0100
0000
0010
0000
1000
0001
0100
0000
0001
0100
0010
1000
0001
0010
0100
0000
,
1000
0001
1000
0001
0100
0010
1000
0001
0010
0100
0010
0001
0010
0100
1000
0001
,
0100
00M0
00M0
00M0
,
0001
1000
0100
0010
0100
1000
0001
0100
0010
1000
0001
0010
0001
0010
0100
0010
,
0001
1000
0001
0100
0010
1000
0001
0010
0100
1000
0100
1000
0001
0100
0001
0100
,
0010
1000
0001
0010
0001
1000
0010
0100
0010
1000
0001
0010
0001
1000
0100
0010
,
0001
1000
0001
0010
0100
1000
0001
0100
0010
1000
0010
1000
0001
0010
0001
0100
,
0001
1000
0100
0010
0100
1000
0100
0010
0001
1000
0001
0100
0010
1000
0001
0010
,
0001
1000
0010
1000
0001
0010
0100
1000
0100
1000
0001
0100
0010
0100
0001
1000
,
0001
0010
0001
1000
0100
1000
0001
0100
0001
1000
0100
0010
0001
1000
0010
1000
,
0001
0010
0100
0010
0001
1000
0010
1000
0001
0010
0100
1000
0001
0100
0001
0010
,
0001
1000
0100
0010
0100
1000
0001
0100
0010
1000
0001
0010
0001
0010
0100
0010
,
0001
1000
0001
0100
0010
1000
0001
0010
0100
1000
0100
1000
0001
0100
0001
0100
,
0010
1000
0001
0010
0001
1000
0010
0100
0010
1000
0001
0010
0001
1000
0100
0010
,
0001
1000
0001
0010
0100
1000
0001
0100
0010
1000
0010
1000
0001
0010
0001
0100
,
0001
1000
0100
0010
0100
1000
0100
0010
0001
1000
0001
0100
0010
1000
0001
0010
,
0001
1000
0010
1000
0001
0010
0100
1000
0100
1000
0001
0100
0010
0100
0001
1000
,
0001
0010
0001
1000
0100
1000
0001
0100
0001
1000
0100
0010
0001
1000
0010
1000
,
0001
0010
0100
0010
0001
1000
0010
1000
0001
0010
0100
1000
0001
0100
0001
0010
,
0001
0000
1000
0000
0001
0010
0100
1000
,
0100
0000
0000
1000
0000
0000
0010
0000
0100
0000
0000
0000
0001
0000
0000
0000
,
0010
0000
0000
0000
0100
0000
0000
0000
1000
0000
0000
0001
0000
0000
0100
0000
,
0010
0000
0000
1000
0000
0000
0100
0000
0010
0000
0000
0000
0001
0000
0010
0000
,
0100
0000
1000
0000
0010
0100
0001
0100
,
0010
0000
0000
1000
0000
0000
0001
0000
0010
0000
0000
0000
0100
0000
0000
0000
,
1000
0000
0000
0000
0001
0000
0000
0000
0100
0000
0000
0010
0000
0000
1000
0000
,
0100
0000
0000
0010
0000
0000
0001
0000
1000
0010
0100
0001
1000
0001
0010
0100
,
1000
0001
1000
0010
0100
0001
1000
0001
1000
0100
1000
0010
0100
0001
1000
0001
,
1000
0100
0010
0001
0010
0100
1000
0001
0100
0001
0100
0010
1000
0100
0010
0001
,
1000
0010
1000
0001
0010
0001
1000
0001
1000
0010
1000
0100
0010
0001
1000
0001
,
1000
0010
0100
0010
1000
0001
0010
0100
1000
0001
0010
0001
0100
0010
0100
0010
,
1000
0001
1000
0010
0100
0001
1000
0001
1000
0100
1000
0010
0100
0001
1000
0001
,
1000
0100
0010
0001
0010
0100
1000
0001
0100
0001
0100
0010
1000
0100
0010
0001
,
1000
0010
1000
0001
0010
0001
1000
0001
1000
0010
1000
0100
0010
0001
1000
0001
,
1000
0010
0100
0010
1000
0001
0010
0100
1000
0001
0010
0001
0100
0010
0100
0010
,
1000
0001
1000
0100
0010
0001
1000
0001
1000
0010
1000
0100
0010
0001
1000
0001
,
1000
0010
0100
0001
0100
0010
1000
0001
0010
0001
0010
0100
1000
0010
0100
0001
,
1000
0100
1000
0001
0100
0001
1000
0001
1000
0100
1000
0010
0100
0001
1000
0001
,
1000
0100
0010
0100
1000
0001
0100
0010
1000
0001
0100
0001
0010
0100
0010
0100
,
1000
0001
1000
0100
0010
0001
1000
0001
1000
0010
1000
0100
0010
0001
1000
0001
,
1000
0010
0100
0001
0100
0010
1000
0001
0010
0001
0010
0100
1000
0010
0100
0001
,
1000
0100
1000
0001
0100
0001
1000
0001
1000
0100
1000
0010
0100
0001
1000
0001
,
1000
0100
0010
0100
1000
0001
0100
0010
1000
0001
0100
0001
0010
0100
0010
0100
,
1000
1000
0001
0100
0100
0010
1000
1000
,
0001
0001
0010
0001
0001
0100
0010
0010
,
1000
0000
1000
0000
0001
0000
0100
0000
0100
0000
0010
0000
1000
0001
1000
0001
,
0100
0100
0001
1000
1000
0100
0010
0010
,
0001
0001
1000
0010
0010
1000
0100
0100
,
0010
0010
0001
1000
1000
0010
0100
0100
,
0010
0000
0010
0000
1000
0000
0001
0000
0001
0000
0010
0000
0100
1000
0100
1000
,
0001
0001
0100
0010
0110
0000
0000
0000
,
1001
1100
0101
0110
,
1001
1100
0011
1001
,
1010
0110
1001
1100
,
0101
0011
1010
0101
,
0110
1001
1100
0110
,
1001
1100
1001
0101
,
0001
0100
0010
1000
0001
1000
0100
0010
0100
1000
0001
0100
0001
0100
0010
1000
,
0010
1000
0001
0010
0100
0010
0001
0010
0100
1000
0001
0100
0010
0100
0001
1000
,
0001
0000
0000
0000
0000
0000
0000
0000
0000
0MM0
0000
0000
0000
0000
0000
0000
,
0000
0000
0000
0000
,
0001
0000
0010
0000
0100
0000
0010
0000
0001
1000
0001
1000
0100
0010
0100
1000
,
0001
1000
0001
0100
0010
1000
0001
1000
0001
0010
0001
0100
0010
1000
0001
1000
,
0001
0010
0100
1000
0100
0010
0001
1000
0010
1000
0010
0100
0001
0010
0100
1000
,
0001
0100
0001
1000
0100
1000
0001
1000
0001
0100
0001
0010
0100
1000
0001
1000
,
0001
0100
0010
0100
0001
1000
0100
0010
0001
1000
0100
1000
0010
0100
0010
0100
,
0001
1000
0001
0100
0010
1000
0001
1000
0001
0010
0001
0100
0010
1000
0001
1000
,
0001
0010
0100
1000
0100
0010
0001
1000
0010
1000
0010
0100
0001
0010
0100
1000
,
0001
0100
0001
1000
0100
1000
0001
1000
0001
0100
0001
0010
0100
1000
0001
1000
,
0001
0100
0010
0100
0001
1000
0100
0010
0001
1000
0100
1000
0010
0100
0010
0100
,
0001
1000
0001
0010
0100
1000
0001
1000
0001
0100
0001
0010
0100
1000
0001
1000
,
0001
0100
0010
1000
0010
0100
0001
1000
0100
1000
0100
0010
0001
0100
0010
1000
,
0001
0010
0001
1000
0010
1000
0001
1000
0001
0010
0001
0100
0010
1000
0001
1000
,
0001
0010
0100
0010
0001
1000
0010
0100
0001
1000
0010
1000
0100
0010
0100
0010
,
0001
0000
1000
0000
0010
0000
0100
0000
0001
0000
0000
0010
0000
0000
0100
0000
,
1000
0000
0001
0000
0100
0000
0010
0000
1000
0000
0000
0100
0000
0000
1000
0000
,
0100
0000
0010
0000
0001
0000
1000
0000
0001
0000
0000
0100
0000
0000
0010
0000
,
1000
0000
0001
0000
0100
0000
0001
0000
1000
0100
0010
0001
1000
0100
0010
0001
,
1000
0010
1000
0001
0100
0001
1000
0001
1000
0100
1000
0001
0100
0001
1000
0100
,
1000
0001
0010
0100
1000
0100
0010
0001
1000
0010
1000
0001
0010
0001
1000
0010
,
1000
0001
0010
0100
0010
0001
1000
0001
1000
0100
1000
0001
0100
0001
1000
0100
,
1000
0001
0010
0100
1000
0100
1000
0001
1000
0010
1000
0001
0010
0001
1000
0010
,
1000
0001
1000
0001
0010
0100
0010
0001
1000
0100
1000
0001
0100
0001
1000
0100
,
1000
0100
0010
0001
1000
0100
1000
0001
1000
0010
1000
0001
0010
0001
1000
0010
,
1000
0001
0010
0100
1000
0100
0010
0001
1000
0100
1000
0001
0100
0001
1000
0100
,
1000
0000
0001
0000
0100
0000
0010
0000
1000
0001
1000
0001
0010
0100
1000
0001
,
1000
0001
0100
0010
1000
0001
1000
0100
1000
0010
0100
0001
0010
0100
1000
0010
,
0100
0001
1000
0001
0100
0010
1000
0001
1000
0100
0010
0001
0100
0010
1000
0100
,
0010
0001
1000
0001
0100
0010
1000
0001
1000
0010
0100
0001
0010
0100
1000
0010
,
0100
0001
1000
0001
1000
0100
0010
0100
1000
0100
0010
0001
0100
0010
1000
0100
,
0010
0000
0001
0000
1000
0000
0010
0000
0100
0000
0000
0001
0000
0000
0010
0000
,
0100
0000
1000
0000
0001
0000
0100
0000
0010
0000
0000
1000
0000
0000
0100
0000
,
1000
0001
1000
0001
0010
0100
1000
0001
1000
0001
0100
0010
1000
0001
1000
0001
,
0010
0100
0010
0001
1000
0100
0010
0001
1000
0010
0100
0001
0100
0010
1000
0001
,
1000
0010
1000
0001
0100
0010
1000
0001
1000
0100
1000
0001
0100
0001
1000
0100
,
1000
0001
0100
0010
1000
0001
1000
0100
1000
0010
0100
0001
0010
0100
1000
0010
,
0100
0001
1000
0100
1000
0100
0010
0001
1000
0010
1000
0001
0010
0001
1000
0010
,
1000
0001
1000
0001
0100
0010
1000
0001
1000
0100
0010
0001
0100
0010
1000
0100
,
0010
0001
1000
0001
0100
0010
1000
0001
1000
0100
1000
0001
0100
0001
1000
0100
,
1000
0001
0100
0010
1000
0001
1000
0100
1000
0010
0100
0001
0010
0100
1000
0010
,
0100
0001
1000
0100
1000
0100
0010
0001
1000
0010
1000
0001
0010
0001
1000
0010
,
1000
0001
1000
0001
0100
0010
1000
0001
1000
0100
0010
0001
0100
0010
1000
0100
,
0010
0001
1000
0001
0010
0100
1000
0001
1000
0010
1000
0001
0010
0001
1000
0010
,
1000
0001
0010
0100
1000
0001
1000
0010
1000
0100
0010
0001
0100
0010
1000
0100
,
0010
0001
1000
0010
1000
0010
0100
0001
1000
0100
1000
0001
0100
0001
1000
0100
,
1000
0001
1000
0001
0010
0100
1000
0001
1000
0010
0100
0001
0010
0100
1000
0010
,
0100
0001
1000
0001
0010
0100
1000
0001
1000
0010
1000
0001
0010
0001
1000
0010
,
1000
0001
0010
0100
1000
0001
1000
0010
1000
0100
0010
0001
0100
0010
1000
0100
,
0010
0001
1000
0010
1000
0010
0100
0001
1000
0100
1000
0001
0100
0001
1000
0100
,
1000
0001
1000
0001
0010
0100
1000
0001
1000
0010
0100
0001
0010
0100
1000
0010
,
0100
0000
0001
0000
1000
0000
0001
0000
1000
0000
0100
0010
0000
0001
1000
0000
,
0010
0000
1000
0000
0001
0000
0010
0000
0001
0000
1000
0010
0000
1000
0001
0000
,
0010
0000
0001
0000
1000
0000
0010
0000
0100
0000
0001
0010
0000
0100
0010
0000
,
0001
0000
1000
0000
0010
0000
0100
0000
0001
0000
1000
0001
0000
1000
0100
0000
,
0010
0000
0100
0000
1000
0000
0001
0000
0100
0000
0010
1000
0000
0001
0010
0000
,
0001
0000
0100
0000
0010
0000
1000
0000
0001
0000
0010
0100
0000
0010
0001
0000
,
1000
0001
0100
0010
1000
0001
1000
0100
1000
0001
0010
0001
1000
0010
0100
0001
,
1000
0100
1000
0100
0010
0001
1000
0010
0100
0010
1000
0001
0010
0100
0010
0001
,
0010
0100
1000
0100
1000
0001
0010
0010
,
0100
0000
1000
0000
0001
0000
0100
0000
0010
0000
1000
0000
0001
0000
0001
0010
,
0100
0000
1000
0000
0010
0000
0100
0000
0001
0000
0010
0000
0100
1000
0100
1000
,
0001
0000
1000
0000
0010
0000
1000
0000
0100
1000
0001
0000
0100
0000
0100
0000
,
0010
1000
0100
0010
0001
1000
0001
0001
,
0100
0000
0010
0000
1000
0000
0001
0000
1000
0000
0100
0000
0010
0000
0010
0001
,
1000
0000
0010
0000
0100
0000
0001
0000
1000
0000
0100
0000
0010
0001
0010
0001
,
1000
0000
0010
0000
0100
0000
0010
0000
1000
0001
1000
0000
0010
0000
0010
0000
,
1000
0100
0010
0001
1000
0001
0100
0100
,
0010
0000
1000
0000
0001
0000
0010
0000
0100
0000
0010
0000
0001
0000
0001
1000
,
0010
0000
0100
0000
0001
0000
1000
0000
0100
0000
0010
0000
0001
1000
0001
1000
,
0010
0000
0100
0000
0010
0000
1000
0000
0001
0010
0100
0000
1000
0000
1000
0000
,
0010
0100
0001
0010
0100
1000
0001
0001
,
0100
0000
0010
0000
1000
0000
0100
0000
1000
0000
0001
0000
0010
0000
0010
0100
,
1000
0001
1000
0010
0100
0001
1000
0100
0010
0100
1000
0001
0010
0100
1000
0001
,
1000
0010
0100
0001
1000
0001
0010
0100
0010
0001
1000
0010
0100
0001
1000
0001
,
1000
0100
0010
0001
0010
0100
1000
0001
0100
0010
1000
0001
1000
0001
0100
0010
,
1000
0001
0010
0100
0010
0001
1000
0001
0100
0010
1000
0001
1000
0100
0010
0100
,
1000
0001
0100
0010
1000
0001
0100
0001
0100
0010
1000
0001
0010
0100
1000
0001
,
0100
0001
1000
0010
1000
0001
0010
0001
0010
0100
1000
0001
1000
0001
0100
0010
,
1000
0001
1000
0100
0010
0100
1000
0100
0010
0001
1000
0001
0100
0010
1000
0001
,
0010
0100
1000
0100
0010
0100
1000
0001
0100
0010
1000
0001
1000
0001
0010
0001
,
0010
0100
1000
0001
0100
0010
1000
0001
1000
0100
0010
0001
1000
0001
0100
0010
,
1000
0001
1000
0100
0010
0100
1000
0100
1000
0001
0100
0001
0100
0010
1000
0001
,
1000
0100
0010
0100
1000
0001
0100
0001
1000
0010
0100
0001
1000
0100
0010
0001
,
1000
0010
1000
0100
1000
0010
0100
0001
1000
0100
0010
0001
0010
0100
1000
0001
,
1000
0010
0100
0001
1000
0001
0010
0100
0010
0001
1000
0010
1000
0010
0100
0001
,
1000
0100
1000
0010
1000
0100
1000
0001
1000
0010
0100
0001
1000
0100
1000
0001
,
1000
0010
1000
0001
0100
0001
1000
0100
0010
0001
1000
0100
0010
0100
1000
0001
,
1000
0010
1000
0100
1000
0010
1000
0001
0100
0010
1000
0001
0010
0100
1000
0100
,
1000
0001
0010
0100
1000
0001
0100
0010
1000
0001
1000
0100
1000
0001
0100
0010
,
1000
0001
1000
0001
1000
0100
1000
0001
0100
0001
1000
0100
1000
0100
0010
0001
,
1000
0100
0010
0100
1000
0001
0100
0001
1000
0010
0100
0001
1000
0100
0010
0001
,
1000
0010
1000
0100
1000
0010
0100
0001
1000
0100
0010
0001
0010
0100
1000
0001
,
1000
0010
0100
0001
1000
0001
0010
0100
0010
0001
1000
0010
1000
0010
0100
0001
,
1000
0100
1000
0010
1000
0100
1000
0001
1000
0010
0100
0001
1000
0100
1000
0001
,
1000
0010
1000
0001
0100
0001
1000
0100
0010
0001
1000
0100
0010
0100
1000
0001
,
1000
0010
1000
0100
1000
0010
1000
0001
0100
0010
1000
0001
0010
0100
1000
0100
,
1000
0001
0010
0100
1000
0001
0100
0010
1000
0001
1000
0100
1000
0001
0100
0010
,
1000
0001
1000
0001
1000
0100
1000
0001
0100
0001
1000
0100
1000
0100
0010
0001
,
1000
0100
0010
0100
1000
0001
0100
0001
1000
0010
0100
0001
1000
0100
0010
0001
,
1000
0010
1000
0100
1000
0010
0100
0001
1000
0100
0010
0001
0010
0100
1000
0001
,
1000
0010
0100
0001
1000
0001
0010
0100
0010
0001
1000
0010
1000
0010
0100
0001
,
1000
0100
1000
0010
1000
0100
1000
0001
1000
0010
0100
0001
1000
0100
1000
0001
,
1000
0010
1000
0001
0100
0001
1000
0100
0010
0001
1000
0100
0010
0100
1000
0001
,
1000
0010
1000
0100
1000
0010
1000
0001
0100
0010
1000
0001
0010
0100
1000
0100
,
1000
0001
0010
0100
1000
0001
0100
0010
1000
0001
1000
0100
1000
0001
0100
0010
,
1000
0001
1000
0001
1000
0100
1000
0001
0100
0001
1000
0100
1000
0100
0010
0001
,
1000
0001
0010
0100
0010
0001
1000
0010
0100
0001
1000
0100
1000
0100
0010
0100
,
1000
0001
1000
0010
0100
0001
1000
0100
0010
0001
0010
0001
1000
0010
1000
0010
,
0100
0001
1000
0100
1000
0001
0100
0010
0100
0001
1000
0100
1000
0001
0010
0100
,
1000
0001
1000
0100
0010
0001
1000
0010
0100
0001
0100
0001
1000
0100
1000
0010
,
1000
0001
0010
0100
0010
0001
0010
0100
1000
0001
1000
0010
0100
0001
1000
0100
,
1000
0001
0100
0001
1000
0100
0010
0001
0010
0001
1000
0010
0100
0010
1000
0001
,
1000
0100
1000
0001
0010
0001
1000
0010
1000
0001
0010
0100
1000
0001
0100
0001
,
1000
0100
0010
0100
1000
0001
0100
0001
1000
0100
0010
0001
1000
0010
1000
0100
,
1000
0000
0001
0000
0100
0010
1000
0000
0001
0010
0100
1000
0001
1000
0010
0000
,
1000
0000
0001
0000
0100
0010
1000
0000
0001
0010
0100
0010
0001
1000
0001
0000
,
0100
0000
0010
0000
1000
0100
0010
0000
0001
1000
0010
0100
0001
1000
0001
0000
,
1000
0000
0100
0000
0010
0100
1000
0000
0001
1000
0010
1000
0002
0000
2003
0000
,
3010
0000
0100
0000
0001
0010
0100
0000
0010
0001
1000
0001
1000
0010
0100
0000
,
0001
0000
0010
0000
0001
1000
0001
0000
0010
0100
1000
0001
1000
0010
0100
0000
,
0001
1000
0010
1000
0001
1000
0100
0010
0001
0010
0100
1000
0001
0100
0001
0100
,
0010
1000
0001
1000
0100
0010
0100
1000
0001
0010
0100
1000
0001
0100
0001
1000
,
0001
0000
0M00
0M00
0M00
0M00
0M00
0M00
0M00
0M00
0M00
0M00
0M00
0M00
0M00
0M00
,
0M00
0M00
0M00
0M00
0M00
0M00
0M00
0M00
0M00
0M00
0M00
0M00
0M00
0M00
0M00
0000
;
