#TITLE:Princess;
#SUBTITLE:;
#ARTIST:DJ Sharpnel;
#TITLETRANSLIT:;
#SUBTITLETRANSLIT:;
#ARTISTTRANSLIT:;
#CREDIT:;
#BANNER:princess-bn.png;
#BACKGROUND:princess-bg.png;
#LYRICSPATH:;
#CDTITLE:!cdtitle.png;
#MUSIC:Princess.mp3;
#OFFSET:-0.080;
#SAMPLESTART:117.500;
#SAMPLELENGTH:14.000;
#SELECTABLE:YES;
#BPMS:0.000=190.000;
#STOPS:;
#BGCHANGES:;
// cache tags:
#FIRSTBEAT:0.000;
#LASTBEAT:460.000;
#SONGFILENAME:Songs/Fabulously Fresh Flock of Fantastic Files F5/(Gamepro) Princess/Princess.sm;
#HASMUSIC:1;
#HASBANNER:1;
#MUSICLENGTH:149.838;
// end cache tags

//---------------dance-single - ----------------
#NOTES:
     dance-single:
     :
     Hard:
     11:
     1.000,1.000,1.000,0.160,0.527,991.000,230.000,24.000,0.000,0.000:  // measure 1
0011
0000
0100
0000
0010
0000
1000
0100
0010
0100
1000
0000
0110
0000
1001
0000
,  // measure 2
1100
0000
0000
0000
,  // measure 3
1100
0000
0010
0000
0100
0000
0001
1000
0100
0010
0100
0000
1010
0000
0101
0000
,  // measure 4
1100
0000
0000
0000
0100
0100
0100
0100
,  // measure 5
0110
0000
0001
0000
1000
0000
0010
0100
0001
1000
0100
0000
0011
0000
1100
0000
,  // measure 6
0110
0000
0100
0000
0100
0100
0100
0000
,  // measure 7
1100
0000
0010
0000
0100
0000
0001
0010
0100
1000
0010
0000
0101
0000
0110
0000
,  // measure 8
1100
0000
0000
0000
0100
0000
0000
0000
0100
0000
0100
0000
0100
0000
1000
0100
,  // measure 9
1000
0010
0100
0001
1000
0000
0100
0000
1000
0010
0100
0000
0001
0000
1000
0000
,  // measure 10
1100
0000
0000
0000
0100
0000
0000
0000
0100
0000
0100
0000
0100
0000
0100
1000
,  // measure 11
0010
0100
0001
1000
0100
0000
0010
0000
0001
0010
0100
0000
1010
0000
0101
0000
,  // measure 12
1001
0000
0001
0000
0001
0001
0001
0100
,  // measure 13
0010
0100
0000
0001
0010
0000
1100
0000
0010
0000
0100
0000
1001
0000
0100
0000
,  // measure 14
1001
0000
0000
0000
0100
0000
0000
0000
0100
0000
0100
0000
0100
0000
1000
0001
,  // measure 15
0100
0010
1000
0100
0010
0100
1000
0010
0100
0001
1000
0001
0010
0100
0010
0001
,  // measure 16
1100
0101
1100
0101
,  // measure 17
1001
0000
0100
0000
0001
0000
0010
0000
0100
1000
0010
0000
0100
0000
0001
0000
,  // measure 18
1000
0000
0100
0000
1000
0000
0010
0100
0001
0010
0100
0000
1000
0001
0010
0000
,  // measure 19
0100
0000
1000
0000
0010
0000
0100
0001
1000
0100
0010
0000
0100
0000
0010
0000
,  // measure 20
0001
1000
0010
0100
1100
0110
0011
0110
,  // measure 21
1100
0000
0010
0000
0100
0000
0001
0010
0100
1000
0010
0000
0100
0000
0001
0000
,  // measure 22
1000
0000
0100
0000
0010
0000
0100
1000
0001
0100
0010
0000
1000
0010
0100
0000
,  // measure 23
0001
0000
1000
0000
0100
0000
1000
0010
0100
0001
0010
0000
0001
0000
0100
0000
,  // measure 24
1001
0000
0010
0000
1001
0000
0010
0000
1001
0000
0010
0100
1001
0000
0010
0000
,  // measure 25
1001
0000
0100
0000
0001
0000
1000
0000
0100
1000
0001
0000
0010
0000
0100
0000
,  // measure 26
1000
0000
0010
0000
0100
0000
0001
1000
0100
1000
0010
0000
0100
0001
1000
0000
,  // measure 27
0100
0000
1000
0000
0010
0000
0100
0001
1000
0100
0010
0000
0100
0000
1000
0000
,  // measure 28
0001
0000
1000
0000
0100
0000
1000
0010
0101
0000
0110
0000
1010
0000
0110
0000
,  // measure 29
0101
0000
1000
0000
0100
0000
1000
0010
0100
0001
0010
0000
0001
0000
1000
0000
,  // measure 30
0100
0000
1000
0000
0010
0000
0100
0000
0001
0000
0010
0000
0100
1000
0010
0000
,  // measure 31
0100
0000
0001
0000
1000
0000
0100
0000
0010
0001
0100
0000
0010
0000
1000
0000
,  // measure 32
0110
0001
0110
0001
0110
0001
0110
0001
,  // measure 33
1100
0000
0010
0000
0100
0000
0001
0000
1000
0000
0100
0000
0010
0100
1000
0000
,  // measure 34
0010
0000
0100
0000
0001
0000
1000
0000
0010
0100
0001
0000
1000
0100
0010
0000
,  // measure 35
0100
0000
1000
0000
0010
0000
0100
0000
0001
0010
0100
0000
1000
0000
0010
0000
,  // measure 36
0100
0000
0001
0000
1000
0000
0100
1000
0011
0000
0110
0000
1100
0000
0110
0000
,  // measure 37
0011
0000
1000
0000
0010
0000
0100
0000
0001
0010
0100
0000
1000
0000
0010
0000
,  // measure 38
0100
0000
0001
0000
1000
0000
0100
0000
0010
0100
1000
0000
0010
0100
0001
0000
,  // measure 39
1000
0000
0001
0000
1000
0000
0100
0010
0100
1000
0010
0100
0001
0010
0100
1000
,  // measure 40
0010
0100
0001
1000
0100
1000
0010
0100
0001
1000
0100
1000
0001
0100
0010
0100
,  // measure 41
1001
0000
0000
0000
,  // measure 42
1001
0000
0100
0000
1001
0000
0100
0000
1001
0000
0100
0010
1001
0000
0100
0000
,  // measure 43
0011
0000
0100
0000
0011
0000
0100
0000
0011
0000
0100
1000
0011
0000
0100
0000
,  // measure 44
1010
0000
0100
0000
1010
0000
0100
0000
1010
0000
0100
1000
1010
0000
0100
0000
,  // measure 45
0110
0000
0001
0000
0110
0000
0001
0000
0110
0000
0001
1000
0100
1000
0010
0100
,  // measure 46
0001
0000
1000
0000
0010
0000
0100
0000
0001
0000
1000
0100
0010
0000
0100
0000
,  // measure 47
1000
0000
0010
0000
0100
0000
0001
0000
1000
0000
0100
0010
0001
0000
1000
0000
,  // measure 48
0100
0000
1000
0000
0010
0000
0100
0000
0001
0000
0010
0100
1000
0000
0010
0000
,  // measure 49
0100
0000
0001
0000
0010
0000
0001
0000
0100
0000
0010
1000
0010
0100
0001
1000
,  // measure 50
0101
0000
1000
0000
0100
0000
1000
0000
0010
0000
0100
0001
0010
0000
0100
0000
,  // measure 51
1000
0000
0010
0000
0100
0000
0001
0000
1000
0000
0010
0100
0001
0000
1000
0000
,  // measure 52
0001
0000
0100
0000
0010
0000
1000
0000
0010
0000
1000
0001
0100
0000
0010
0000
,  // measure 53
1000
0000
0100
0000
1000
0000
0001
0000
0010
0000
0100
1000
0010
0100
0001
1000
,  // measure 54
0100
0000
1000
0000
0001
0000
0100
0000
0010
0000
1000
0001
0100
0000
0010
0000
,  // measure 55
1000
0000
0100
0000
1000
0000
0010
0000
0100
0000
0001
0010
0100
0000
1000
0000
,  // measure 56
0001
0000
0100
0000
0010
0000
0100
0000
0001
0000
1000
0100
0010
0000
0100
0000
,  // measure 57
1000
0000
0010
0000
0100
0000
0001
0000
0010
0000
0100
1000
0010
0100
0001
1000
,  // measure 58
0011
0000
0000
0000
0000
0000
0000
0000
0100
1000
0100
1000
0100
0000
1000
0000
,  // measure 59
1001
0000
0010
0100
0001
0000
1000
0000
0100
0010
0002
0000
0003
0000
1000
0010
,  // measure 60
0100
0000
0001
0010
0100
0000
1000
0000
0010
0100
0001
0000
0200
0000
0300
0000
,  // measure 61
0010
0000
1000
0100
0010
0000
0001
0000
1000
0010
0200
0000
0300
0000
0001
1000
,  // measure 62
0100
0000
1000
0010
0100
0000
0001
0000
0010
0100
1000
0000
0002
0000
0003
0000
,  // measure 63
1000
0000
0010
0100
0001
0000
1000
0000
0001
0010
0200
0000
0300
0000
1000
0010
,  // measure 64
0100
0000
0001
1000
0100
0000
1000
0000
0010
0100
0001
0000
2000
0000
3000
0000
,  // measure 65
0100
0000
0010
0001
1000
0000
0010
0000
0100
0001
0020
0000
0030
0000
0001
0100
,  // measure 66
0010
0000
1000
0001
0010
0000
0100
0000
1000
0010
0100
0000
0002
0000
0013
0100
,  // measure 67
1001
0000
0100
0010
0001
0000
1000
0000
0100
0010
0002
0000
0003
0000
1000
0010
,  // measure 68
0100
0000
0001
1000
0100
0000
1000
0000
0010
0100
0001
0000
2200
0000
3300
0000
,  // measure 69
1000
0000
0010
0100
0001
0000
1000
0000
0100
0010
0002
0000
0003
0000
1000
0010
,  // measure 70
0100
0000
0001
1000
0100
0000
1000
0000
0010
0100
0001
0000
2200
0000
3300
0000
,  // measure 71
0010
0000
0100
0001
1000
0000
0100
0000
0010
0001
2000
0000
3000
0000
0001
0100
,  // measure 72
0010
0000
1000
0100
0010
0000
0100
0000
1000
0010
0100
0000
0202
0000
0303
0000
,  // measure 73
0001
0000
1000
0100
0010
0000
0100
0000
1000
0010
0200
0000
0300
0000
0001
0100
,  // measure 74
0010
0000
1000
0100
0010
0000
0100
0000
1000
0010
0100
0001
0200
0000
0300
0000
,  // measure 75
1100
0010
0101
0001
1100
0100
1001
0101
,  // measure 76
0001
1010
0100
0011
0001
1100
0010
0101
,  // measure 77
0001
1000
0100
1001
0110
0001
0101
1010
,  // measure 78
0100
1200
0000
0000
0300
0000
0000
0000
,  // measure 79
0000
0000
1010
0100
0011
0100
1010
0101
,  // measure 80
0001
0100
0010
1010
0110
0010
0101
1100
,  // measure 81
0010
0101
1002
0000
0000
1003
0010
0100
,  // measure 82
0010
0000
0010
0000
0010
0000
0101
1100
,  // measure 83
0110
0100
1010
0101
1100
0110
0100
1010
,  // measure 84
0010
0101
1100
0110
1001
0011
0001
0101
,  // measure 85
1010
1100
0110
1100
0101
1010
0110
1001
,  // measure 86
0010
0010
1010
0110
,  // measure 87
1001
0001
0101
1010
0100
1100
0110
0011
,  // measure 88
0100
0001
0100
0010
1000
0100
1010
0110
,  // measure 89
0101
0001
1100
0110
0100
1001
0101
1010
,  // measure 90
0100
0001
0010
0100
1000
0010
0101
0110
,  // measure 91
1010
0010
0101
1200
0000
0000
0000
0000
,  // measure 92
0300
0101
1001
0110
1001
1100
0011
0220
,  // measure 93
0000
0000
0000
0000
0000
0000
0000
0330
,  // measure 94
1001
0100
0010
1000
0101
0000
1100
0000
,  // measure 95
1010
0110
0101
1100
0100
1010
0101
1100
,  // measure 96
0001
0100
0010
1000
0100
0010
0011
0101
,  // measure 97
1010
0110
1001
0011
0001
0101
1010
0110
,  // measure 98
0010
0000
0100
0001
1000
0000
0010
0000
0100
0000
0001
0000
0110
0000
1010
0000
,  // measure 99
0101
0001
1100
0110
0100
1010
0010
0101
,  // measure 100
0001
1000
0100
1000
0101
1010
0110
1001
,  // measure 101
0100
0001
0011
0110
0010
0101
1100
0110
,  // measure 102
0001
0100
0010
0100
0001
0100
0010
0100
1010
0000
0000
0000
0101
0000
0000
0000
,  // measure 103
1100
0110
0101
1010
0100
0011
1100
0110
,  // measure 104
0100
0000
1000
0001
0010
0000
0001
0000
1000
0000
0100
0000
0110
0000
1001
0000
,  // measure 105
1010
0101
1100
0110
0001
0110
1100
0101
,  // measure 106
0001
0000
1000
0100
1000
0000
0010
0000
0100
0000
0001
0000
0101
0000
1010
0000
,  // measure 107
0110
0001
1100
0110
1000
0011
0010
0110
,  // measure 108
0100
1000
0010
0100
1010
1100
0011
0101
,  // measure 109
0001
1000
0110
1001
0001
0101
1010
0110
,  // measure 110
0001
1000
0010
1000
0001
1000
0010
1000
0001
1000
0010
1000
0001
1000
0010
1000
,  // measure 111
0101
0000
1000
0100
0010
0001
1000
0110
,  // measure 112
0000
1001
0100
0001
1000
0100
1000
0010
,  // measure 113
0100
0001
1000
0010
0100
0010
1000
0101
,  // measure 114
0000
1100
0110
1001
0101
0001
0101
1010
,  // measure 115
0010
0000
0100
0000
0001
0000
1000
0100
1000
0010
0100
0000
0001
0000
0100
0000
,  // measure 116
1001
0000
0000
0000
;
