#TITLE:Apreta En La Disco;
#SUBTITLE:;
#ARTIST:Plan B ft. Trebol Clan;
#TITLETRANSLIT:;
#SUBTITLETRANSLIT:;
#ARTISTTRANSLIT:;
#CREDIT:;
#BANNER:Apreta En La Disco-banner.PNG;
#BACKGROUND:;
#LYRICSPATH:;
#CDTITLE:!tizaTitle.png;
#MUSIC:Plan B Ft.Trebol Clan - Apreta En La Disco.ogg;
#OFFSET:-0.020;
#SAMPLESTART:144.001;
#SAMPLELENGTH:24.080;
#SELECTABLE:YES;
#BPMS:0.000=172.000,64.000=21.500,68.000=43.000,76.000=172.000,326.000=21.500,330.000=172.000,466.000=343.999,482.000=172.000,506.000=343.999,518.000=172.000,684.000=86.000;
#STOPS:226.000=0.360
,249.000=0.340
,278.000=0.340
,279.000=0.360
,308.000=0.360
,309.000=0.340
,550.000=0.340
,559.000=1.080
,561.000=0.360
,575.000=0.360
,576.000=0.340
,583.500=0.340
,584.000=0.360
,585.000=0.360
,586.000=0.180
,586.500=0.160
,587.000=0.180
,587.500=0.160
;
#BGCHANGES:;
// cache tags:
#FIRSTBEAT:4.000;
#LASTBEAT:700.000;
#SONGFILENAME:Songs/Reggaeton and more/Apreta En La Disco/Pollinosis.sm;
#HASMUSIC:1;
#HASBANNER:1;
#MUSICLENGTH:282.775;
// end cache tags

//---------------dance-single - ----------------
#NOTES:
     dance-single:
     :
     Challenge:
     10:
     0.575,1.000,0.686,0.106,0.097,911.000,194.000,30.000,180.000,16.000:


0000
0000
0000
0000
,
0MM0
M00M
M00M
M00M
MMMM
M00M
M00M
M00M
,
0000
M000
M000
M000
M000
M000
M000
MMMM
,
0000
MMMM
M000
M000
MMMM
M000
M000
MMMM
,
0000
M00M
M00M
M00M
0MM0
M00M
M00M
M00M
,
0000
MMMM
0MM0
0MM0
0MM0
0MM0
0MM0
MMMM
,
0000
MMMM
0MM0
0MM0
0MM0
0MM0
0MM0
0000
,
0MM0
M00M
M00M
M00M
M00M
0MM0
1000
0100
,
1100
0000
0000
0000
1000
0100
0010
0001
,
0010
0100
1000
0100
0001
0000
1001
0000
,
1001
0000
0100
0000
0010
0001
0010
0000
0100
0000
0000
0000
1100
0000
0100
0000
,
0010
0001
0010
0100
0010
0000
0011
1000
,
1001
0001
0000
1000
0010
0100
0001
0010
,
1100
1000
1001
0001
0101
0100
0000
0000
,
0000
0000
0000
0000
0000
1111
0000
0000
0000
0000
0000
0000
0000
0000
0000
0000
,
0000
2000
0200
0001
,
3301
0000
0000
0000
0000
1000
0100
0010
0001
0000
1001
0000
0000
0001
0010
0100
1000
0000
1001
0000
0000
1000
0001
0100
0010
0000
0110
0000
0000
0002
0200
0010
,
1303
1100
0010
0101
0000
1100
0001
0011
0000
1001
1000
0101
0000
0011
0100
1010
,
0000
0000
1100
0000
0110
0000
0011
0000
0000
0000
0101
0000
0110
0000
1010
0000
0000
0000
1100
0000
1010
0000
1001
0000
0000
0000
1000
0100
0010
0100
1000
0000
,
1001
0010
1100
0001
,
0110
0000
1000
0010
0100
0001
0010
0000
,
1100
0011
0000
0000
,
0000
0000
1000
0100
0000
0100
1000
0000
,
2200
0000
0011
0000
,
3300
0000
0001
0010
0100
0010
0001
0000
,
0220
0000
1001
0000
,
0330
0000
1000
0001
0010
0100
1000
0000
,
1100
0010
0101
1001
,
1100
0000
1000
0010
0001
0010
1000
0000
,
1100
0000
1001
1000
0100
0010
0100
0000
,
1100
0000
0110
0001
0000
1010
0100
0000
,
2002
0000
0110
0000
,
3003
0000
0110
1100
0000
0110
0011
0000
,
0202
0000
0010
0000
,
M303
0M00
00M0
0000
000M
00M0
0M00
0000
,
1000
1000
0100
0100
0010
0010
0001
0001
,
0010
0010
0100
0100
1000
1000
1001
1001
,
1000
0100
0001
0100
1000
0010
0001
0010
,
1000
0100
0001
1000
0010
0001
0010
1000
,
0001
0100
1000
0100
0010
0001
0010
0100
,
1000
0010
0100
0001
0100
0010
1000
0100
,
0010
0100
1000
0001
0010
0100
0010
0001
,
0010
0100
1000
0100
0010
0100
1000
0010
,
0001
0100
0001
0010
1000
0100
0010
0100
,
1000
0001
0010
1000
0010
1000
0100
0010
,
0001
1000
0010
0100
0001
1000
0001
0100
,
0010
1000
0010
0100
0001
0010
0100
0001
,
0100
1000
0100
0010
1000
0010
0001
0100
,
0010
1000
0100
0010
0100
0100
1000
1000
,
0001
0010
0100
1000
0100
0100
0010
0010
,
0001
0100
0010
1000
0100
0100
0100
0100
,
1001
0000
1001
0000
1000
0100
0010
0001
,
0010
0100
1000
0100
0010
0001
0010
0100
,
1100
0000
0011
0000
1000
1000
1000
1000
,
0110
0110
0000
0000
,
0000
0000
1000
0100
0001
0010
0001
0100
,
1000
0000
0000
0000
0010
0000
0000
0000
0100
0000
0000
0000
0001
0000
0000
0000
2002
3003
0000
0000
0000
0000
0000
0000
1001
0000
0000
0000
0010
0000
0000
0000
,
1000
0100
0010
0100
1000
0001
0010
0100
,
0010
0001
1001
0000
1100
0000
0011
0000
,
0001
0100
1000
0100
0010
0001
0010
0100
,
1000
0010
0100
0001
0100
0010
1000
0100
,
0010
0100
1000
0001
0010
0100
0010
0001
,
0010
0100
1100
0100
0010
0100
1000
0010
,
0001
0100
0001
0010
1000
0100
0010
0100
,
1000
0001
0010
1000
0010
1000
0100
0010
,
0001
1000
0010
0100
0001
1000
0001
0100
,
0010
1000
0010
0100
0001
0000
0101
0000
,
0000
0000
2000
0000
0200
0000
3301
1000
,
0100
1000
0100
0010
0001
0000
1001
0000
,
0000
0000
1100
0000
0011
0000
1001
1000
,
0100
1001
0000
1100
,
0011
0000
0000
0000
1000
0010
0100
0010
,
1000
0100
0010
0100
1000
0001
0100
0001
,
1000
0010
1000
0010
0001
0010
0100
0001
,
1010
1001
0000
0002
,
0200
0000
1303
0001
0100
0001
0100
0001
,
0010
1100
0000
1100
,
0011
0000
1001
0000
1100
0100
0010
0001
,
0010
0100
1000
0001
1001
0000
0000
0000
,
1000
0010
0001
1000
0100
0001
0010
1000
,
0001
0100
1000
0100
0010
0001
0010
0010
,
1001
0000
0000
0000
0000
0000
0000
0000
0000
0000
0000
0000
0000
0000
0000
0000
1001
0000
0000
0000
0000
1001
0110
1001
0110
0000
0110
0000
0000
1000
1000
1000
,
1000
0000
0000
0000
0011
0000
0000
0000
0000
0000
0001
0000
0001
0000
0001
0000
0001
0000
0000
0000
1110
0000
0000
0000
0000
0000
1000
0100
1000
0100
1000
0000
1001
0000
0000
0000
0000
0000
0000
0000
0000
0000
0000
0000
0000
0000
0000
0000
0010
0000
0000
0000
0000
0000
0000
0000
0000
0000
0000
0000
0000
0000
0000
0000
,
1001
0000
0100
0000
1001
0000
1000
0100
,
0010
0100
1000
0000
0011
0000
1100
0000
,
0000
0000
0000
0000
0000
0000
1000
0100
,
0000
1000
0100
0000
2000
0000
0000
0000
,
0020
0000
0000
0000
3030
0000
0100
0001
,
0000
0100
0001
0000
0002
0000
0000
0000
,
0200
0000
0000
0000
0303
0000
1000
0100
,
0010
0100
1000
0000
1001
0000
0011
0000
,
1001
0000
1010
0000
1001
0000
1000
0100
,
0001
0100
1000
0000
0010
0000
1001
0000
,
0000
0000
0000
0000
0000
0000
1001
0100
,
0000
1001
0010
0000
2002
0000
0000
0000
,
3013
0000
0000
0000
0000
0000
0100
0010
,
0000
0110
0100
0000
0220
0000
0000
0000
,
1331
0000
0000
0000
0000
0000
1000
0100
,
0010
0001
0010
0100
1000
0000
1001
0000
,
1000
0010
0100
0001
1000
0010
0100
0001
,
1001
0000
0011
0001
0010
0100
1000
0100
,
1001
0000
0110
1000
0100
1000
0010
0100
,
0001
0000
1010
1000
1001
0000
0101
0000
,
1100
0100
0010
0001
0010
0100
1000
0100
,
0110
0000
1001
0000
1000
0100
0010
0001
,
1001
1000
0010
0100
0001
0100
0101
0010
,
1010
1000
1001
0001
1001
0000
0110
0000
,
0000
1000
0010
0100
0001
1000
0100
0010
,
0001
0000
0000
0000
1001
0000
0000
1000
0100
0000
0010
0000
0001
0000
0010
0000
,
1100
0000
0011
0000
0000
1000
1000
0010
,
0100
0000
1001
0000
0000
1000
0100
0010
,
0001
1000
0100
0010
0001
1000
0010
0100
,
0001
1000
0010
0100
0001
1000
0100
0001
,
0100
1000
1000
0010
0001
0010
1000
0001
,
1001
0010
1010
0100
0101
0000
1001
0000
,
0000
1000
0100
0010
0001
0000
1001
0000
,
0000
1000
0100
0010
0001
0000
0010
0000
,
0100
1000
0100
0010
,
0001
0010
0100
1000
,
0100
0010
0001
0010
,
0100
1000
1001
1010
,
0000
1000
0010
1000
0100
0000
1100
0000
,
0000
0000
0000
0000
,
0000
0000
0000
1001
,
1000
0010
0100
0001
0100
0000
1010
0000
,
0000
1000
1000
1000
0110
0000
0001
0000
,
0000
0001
0001
0001
1000
0000
0100
0000
,
0010
0001
0010
0100
,
1000
0100
0010
0001
,
0010
0000
0100
0000
1000
0100
0010
0001
,
1001
0000
0101
0000
0000
1000
0100
0010
,
1001
0110
0000
0000
,
2000
0200
3301
0000
,
1011
0000
0000
0000
1000
0100
0010
0001
,
0010
1100
0000
1100
,
0011
0000
0110
1000
0001
1000
0100
0010
,
0001
1001
0000
1001
,
1100
0000
0000
0100
0000
0000
0010
0000
0000
0001
0000
0000
0022
0033
0000
0010
0000
0000
0100
0000
0000
0000
0000
0000
,
1001
0000
0000
0000
1000
0100
0010
0100
,
1000
0001
0100
1000
0001
0010
1001
0000
,
1100
0000
0011
0000
1000
0001
1001
0000
,
1001
0000
1000
0110
,
0001
0010
0100
1000
0010
0100
0001
0000
,
1001
0000
0110
1001
,
1001
0000
1100
0000
0011
0000
1000
0010
,
0101
0000
1010
0000
0000
0000
1000
0100
,
1100
0000
0011
0000
1100
0110
0011
1001
,
1001
0000
0000
0000
,
0000
MMM0
M00M
M00M
MMM0
M000
M000
M000
,
0000
M000
M000
M000
M000
M000
M000
MMMM
,
0000
0MM0
M00M
M00M
MMMM
M00M
M00M
M00M
,
0000
M00M
M00M
MM0M
M00M
M0MM
M00M
M00M
,
0000
0000
0000
0000
,
0000
MMM0
M00M
M00M
MMM0
M00M
M00M
MMM0
,
0000
0000
0000
0000
,
1001
0000
1000
0100
1000
0100
0000
0000
,
0011
0000
0001
0100
0001
0100
0000
0000
,
1001
0000
1000
0001
1000
0001
0000
0000
,
1001
0000
1000
0100
0010
0100
1000
0001
,
0010
0100
0100
0010
0010
0001
0001
0100
,
0100
0010
0010
1000
1000
0100
0010
0001
,
0010
0100
1000
0010
0100
0001
0100
1000
,
0001
0010
1000
0010
0001
1000
0100
0001
,
0010
0001
0100
1000
0100
0001
0010
0100
,
0010
1000
0001
0100
1000
0010
0100
0001
,
1000
0100
0010
0001
1000
0100
0010
0001
,
0010
0100
1000
0001
0010
0100
1000
0001
,
1010
0000
0000
0000
,
0000
0000
0000
0000
,
0000
0000
0000
0000
,
0000
0000
0000
0000
,
1001
1100
0000
0110
0000
0011
0000
1001
,
0000
1010
0000
0110
0000
0101
0000
1001
,
0100
1001
0000
1000
0000
0100
0000
0010
,
0000
0000
0001
0000
0000
0000
0010
0000
0100
1000
0001
0000
1000
0100
0010
0000
,
1001
0000
0000
0000
;
