#TITLE:[2-1] HyperioxX;
#SUBTITLE:;
#ARTIST:ParagonX9;
#TITLETRANSLIT:;
#SUBTITLETRANSLIT:;
#ARTISTTRANSLIT:;
#CREDIT:;
#BANNER:../Beast 4 - bn.png;
#BACKGROUND:../Beast 4 - bg.png;
#LYRICSPATH:;
#CDTITLE:;
#MUSIC:HyperioxX.ogg;
#OFFSET:0.010;
#SAMPLESTART:149.965;
#SAMPLELENGTH:30.000;
#SELECTABLE:YES;
#BPMS:0.000=180.000;
#STOPS:;
#BGCHANGES:;
// cache tags:
#FIRSTBEAT:4.000;
#LASTBEAT:584.000;
#SONGFILENAME:Songs/Beast Aoreo BEAST! 4/HyperioxX - [Aoreo]/HyperioxX.sm;
#HASMUSIC:1;
#HASBANNER:1;
#MUSICLENGTH:197.355;
// end cache tags

//---------------dance-single - J. Nero----------------
#NOTES:
     dance-single:
     J. Nero:
     Challenge:
     15:
     1.000,1.000,0.152,0.304,1.000,1775.000,30.000,60.000,76.000,0.000:
0000
0000
0000
0000
,
1000
0001
0100
0001
1000
0001
0010
0100
1000
0001
1000
0001
0100
0010
0100
0001
,
1000
0100
0010
0001
1000
0100
1000
0001
1000
0100
0010
0001
1000
0001
0100
0010
,
0100
0001
1000
0100
1000
0001
0100
0001
1000
0010
0100
0010
1000
0001
0010
0100
,
1000
0100
1000
0001
0100
0001
1000
0010
1000
0001
0100
0001
1000
0100
1000
0001
,
1000
0100
0010
0001
1000
0010
0100
0001
1000
0010
1000
0010
0100
0001
0010
0100
,
1000
0001
0010
0001
1000
0001
0100
0010
1000
0001
1000
0100
0010
0001
1000
0001
,
1000
0010
0100
0010
1000
0001
0100
0001
1000
0100
1000
0100
0010
0001
1000
0010
,
1000
0000
0010
0000
1000
0001
0010
0100
1000
0000
0001
0100
0001
0000
1000
0000
,
0001
1000
0010
0100
0010
1000
0001
0100
0001
1000
0100
0010
0001
1000
0001
0100
,
0010
0100
0001
1000
0001
0010
0100
1000
0001
0100
0001
1000
0010
0100
0010
1000
,
0001
0100
0001
1000
0100
0010
0100
1000
0001
0010
0001
1000
0100
0010
0001
1000
,
0001
0100
0001
1000
0010
1000
0001
1000
0100
0010
0001
1000
0100
1000
0001
0100
,
0010
0100
0001
1000
0001
0010
0100
1000
0001
0100
0001
1000
0010
0100
0010
1000
,
0001
0100
0001
1000
0100
0010
0100
1000
0001
0010
0100
1000
0001
0100
0010
0100
,
0001
1000
0010
0100
0010
1000
0001
1000
0100
0010
0100
1000
0001
1000
0010
0100
,
0001
1000
0100
0010
0001
1000
0001
0100
0010
0000
0000
0000
1000
0000
0001
0100
,
0001
1000
0100
1000
0001
0100
0010
1000
0001
0100
0001
1000
0100
0010
0001
1000
,
0100
1000
0001
0100
0010
0100
0001
0010
0100
0010
0001
0100
0001
0100
0010
1000
,
0100
0010
0001
0010
0100
1000
0100
1000
0001
1000
0100
0010
0100
1000
0010
0100
,
0010
1000
0100
0010
0001
1000
0010
0100
0001
1000
0100
1000
0001
0100
0010
1000
,
0010
0100
0001
1000
0001
0100
0010
0100
0001
0010
0100
1000
0010
1000
0010
0100
,
0001
0100
0010
1000
0100
1000
0001
0010
0100
0010
0001
1000
0100
1000
0100
0010
,
0001
1000
0010
1000
0010
0100
0001
1000
0100
0010
0001
0100
0001
0010
0100
1000
,
0010
0100
0010
1000
0001
0100
0001
0010
0100
1000
0010
0100
0001
0100
0010
1000
,
0001
0100
0001
1000
0100
0010
0001
1000
0001
1000
0100
0010
0001
1000
0100
1000
,
0100
0010
0001
1000
0100
1000
0001
0100
0001
1000
0001
0100
0010
1000
0001
0010
,
0100
1000
0001
1000
0001
0100
0001
0100
0010
1000
0010
0100
0001
1000
0100
1000
,
0001
0100
0001
1000
0001
0010
0100
1000
0001
0100
0010
0100
0001
1000
0001
0100
,
0002
0000
0023
0000
0030
0200
2300
3002
,
0203
0320
0230
0302
0000
2003
3200
0320
,
0032
0000
2003
0000
3000
0020
0230
0320
,
2030
0000
3200
0000
0320
0000
0032
0000
0003
0000
0200
0000
0310
1000
0002
0003
,
2000
3000
0010
0000
0200
0300
0001
0000
0010
0000
0200
0300
0020
0030
0002
0003
,
2000
3000
0020
0030
0200
0300
0002
0003
1000
0000
0200
0300
0020
0030
0002
0003
,
2000
3000
0001
0000
0020
0030
0001
0000
0100
0000
0020
0030
2000
3000
0002
0003
,
0200
0300
0020
0030
0200
0300
0002
0003
0010
0000
0200
0300
2000
3000
0020
0030
,
1000
0010
0100
0001
0010
0100
1000
0001
0010
0001
0100
0010
1000
0010
0100
0001
,
1000
0010
0100
0001
0100
0001
0010
0100
0010
0100
1000
0001
0100
0010
0100
0001
,
1000
0100
0010
0100
0010
0001
1000
0010
0100
0010
1000
0001
0100
0010
0100
0001
,
2000
3000
0200
0300
0020
0030
0002
0003
0100
0010
0200
0300
0002
0000
0003
0000
,
1000
0010
0100
0010
1000
0100
0010
0100
0010
0001
1000
0100
0010
0100
1000
0010
,
0100
0001
1000
0001
1000
0010
0100
0001
0010
0001
0100
0001
1000
0100
0010
0100
,
1000
0010
0100
0010
1000
0001
0100
0001
0010
0100
1000
0010
1000
0100
0010
0100
,
1000
0001
0100
0001
1000
0100
0010
0001
0100
0001
1000
0100
1000
0001
1000
0010
,
0100
0001
1000
0100
1000
0010
0100
0010
1000
0001
0010
0100
0010
0001
1000
0100
,
1000
0001
0100
0010
1000
0100
0010
0100
1000
0001
0100
0001
0010
0100
1000
0001
,
1000
0010
0100
0010
1000
0100
0010
0001
1000
0001
0100
0010
0100
0001
1000
0100
,
0010
0001
0100
0010
1000
0001
1000
0010
0100
0001
0100
0010
1000
0100
1000
0001
,
0010
0100
0010
0001
1000
0001
0100
0010
0100
0001
1000
0001
0100
0010
1000
0010
,
0100
0001
1000
0010
0100
0010
1000
0100
1000
0010
0100
0001
0100
0001
0010
0100
,
1000
0010
0100
0001
0010
0001
1000
0100
1000
0001
0100
0001
1000
0010
1000
0010
,
0100
0001
0010
0001
0100
0010
1000
0100
0010
0001
1000
0001
0100
0001
0010
0100
,
1000
0010
0100
0010
1000
0100
0010
0001
0100
0001
0010
0100
1000
0100
1000
0001
,
0010
0100
0010
0100
1000
0010
1000
0010
0100
0001
0010
0100
0010
0001
1000
0010
,
0100
0010
1000
0001
1000
0100
0010
0100
1000
0010
0100
0001
1000
0001
0100
0010
,
0200
0302
0023
0230
0000
0000
1300
1000
,
0001
0100
0101
0001
0010
0100
1100
1000
,
0001
0001
0100
0010
1000
0010
0110
0100
,
0001
1000
1100
0100
1000
0001
0101
0100
,
0010
0010
1000
0001
0010
0100
1100
1000
,
0001
0100
0101
0001
1000
0010
0110
0100
,
0001
0001
1000
0100
0010
0100
1100
1000
,
0001
0100
0110
0010
1000
0001
0101
0100
,
0001
0000
0001
0000
0001
1000
1100
0100
,
1000
0100
0010
0100
1000
0001
0010
0001
0100
0010
0100
0001
0010
0100
1000
0010
,
0100
0010
1000
0100
0010
0001
0100
0010
0100
0001
0010
0100
0010
0001
0100
0001
,
0010
0100
1000
0010
0100
0001
0010
0100
1000
0010
1000
0001
0100
0010
0100
0001
,
0010
0100
1000
0001
0010
0001
1000
0010
0100
0010
1000
0100
0010
0001
0100
0001
,
0100
0010
1000
0010
0100
0001
1000
0001
0010
0100
1000
0010
1000
0010
0100
0001
,
0100
0010
1000
0100
0010
0001
1000
0010
1000
0001
1000
0010
0100
0001
1000
0001
,
0010
0100
1000
0001
0100
0010
0100
0001
1000
0100
1000
0001
2000
0000
0000
0000
,
0000
0000
0000
0000
,
3001
0010
0100
1000
,
0000
0000
0000
0000
,
0100
0010
0001
0100
,
0010
1000
0001
0100
,
0001
0001
0010
0100
,
0000
1000
0000
0000
,
0001
0010
0100
1000
,
0001
0100
0010
0100
,
0001
0010
0100
1000
,
0000
0000
0000
0000
,
0010
0100
0001
0010
,
0100
0010
0001
0100
,
0010
0010
1000
0100
,
0000
0010
0000
0001
,
1000
0100
0010
0100
,
1000
0001
0100
0001
,
1000
0000
0000
0000
0001
0000
0000
0000
00M0
0000
0000
0000
00M0
0000
0000
00M0
,
0000
0000
0000
00M0
0000
0000
0000
00M0
0000
0000
0000
00M0
0000
0000
0000
00M0
0000
0000
0000
00M0
0000
0000
00M0
0000
,
0000
0000
0000
0000
0000
0000
0000
0000
00M0
0000
0000
0000
0000
0000
0000
0000
0000
0000
0000
0000
0000
0000
0000
0000
0000
0000
0000
0000
0000
0000
0000
0000
00M0
0000
0000
0000
0000
0000
0000
0000
0000
0000
0000
0000
0000
0000
0000
0000
00M0
0000
0000
0000
0000
0000
0000
0000
0000
0000
0000
0000
00M0
0000
0000
0000
0000
0000
0000
0000
0000
0000
0000
0000
00M0
0000
0000
0000
0000
0000
0000
0000
0000
0000
0000
0000
00M0
0000
0000
0000
0000
0000
0000
0000
0000
0000
0000
0000
00M0
0000
0000
0000
0000
0000
0000
0000
0000
00M0
0000
0000
0000
0000
0000
0000
0000
0000
00M0
0000
0000
0000
0000
0000
0000
0000
0000
00M0
0000
0000
0000
0000
0000
0000
0000
0000
00M0
0000
0000
0000
0000
0000
0000
0000
0000
00M0
0000
0000
0000
0000
0000
0000
0000
0000
00M0
0000
0000
0000
0000
0000
0000
0000
0000
00M0
0000
0000
0000
0000
0000
0000
0000
0000
00M0
0000
0000
0000
0000
0000
0000
0000
0000
00M0
0000
0000
0000
0000
0000
0000
0000
0000
00M0
0000
0000
0000
0000
0000
,
00M0
0000
00M0
0000
00M0
0000
00M0
0000
00M0
0000
00M0
0000
00M0
0000
00M0
0000
00M0
0000
00M0
0000
00M0
0000
00M0
0000
00M0
0000
00M0
0000
00M0
00M0
00M0
00M0
00M0
00M0
00M0
00M0
00M0
00M0
00M0
00M0
00M0
00M0
00M0
00M0
00M0
00M0
00M0
00M0
00M0
00M0
00M0
00M0
00M0
00M0
00M0
00M0
00M0
00M0
00M0
00M0
00M0
00M0
00M0
00M0
,
1000
0001
0100
0001
1000
0010
0100
0010
1000
0001
0010
0001
1000
0100
1000
0001
,
0100
0001
1000
0001
0100
0010
0100
0010
1000
0001
0010
0001
1000
0100
0010
0001
,
1000
0100
0010
0100
0010
0001
1000
0010
1000
0001
0010
0001
1000
0100
1000
0001
,
0100
0001
1000
0001
0100
0010
1000
0010
1000
0001
0010
0001
1000
0100
0010
0001
,
0100
0010
1000
0001
0100
0010
1000
0010
0100
0001
1000
0001
0100
0010
1000
0010
,
0100
0001
1000
0001
0010
0100
0010
0001
1000
0100
0010
0001
1000
0010
0100
0001
,
1000
0100
0010
0100
1000
0001
0100
0010
1000
0001
0100
0001
1000
0100
0010
0001
,
1000
0100
1000
0001
0100
0010
1000
0010
0100
0001
1000
0100
1000
0100
0010
0001
,
1000
0010
1000
0001
0100
0010
1000
0010
0100
0001
1000
0001
0010
0100
1000
0001
,
1000
0010
0100
0001
1000
0010
0100
0010
1000
0001
0010
0100
1000
0100
0010
0001
,
1000
0010
0100
0001
0100
0001
1000
0100
1000
0001
0100
0010
1000
0001
1000
0010
,
0100
0010
1000
0001
0100
0001
1000
0100
0010
0100
1000
0001
0100
0010
1000
0010
,
1000
0100
0010
0001
1000
0100
1000
0001
0100
0010
0100
0001
0010
0100
0010
0001
,
1000
0010
0100
0010
1000
0100
0010
0100
1000
0010
0100
0010
1000
0100
1000
0001
,
0100
0010
0100
0001
1000
0001
0100
0010
1000
0001
0100
0010
1000
0010
0100
0001
,
1000
0010
0100
0001
0010
0100
0010
0001
0100
0010
0100
0001
1000
0010
1000
0010
,
0100
0001
0010
0001
0100
0010
0100
0001
0010
0100
0010
0001
1000
0010
0100
0001
,
1000
0100
0010
0001
0100
0001
1000
0100
0010
0001
1000
0001
1000
0100
0010
0001
,
0100
0010
0100
0010
1000
0100
1000
0010
0100
0010
1000
0001
0010
0100
0010
0001
,
1000
0000
0001
0100
0001
0000
1000
0100
0010
0001
1000
0000
0001
0000
1000
0000
,
0001
0100
0010
1000
0001
0100
0010
0100
0010
1000
0100
0010
0001
0010
0100
1000
,
0001
1000
0010
0100
0001
0100
0010
1000
0001
1000
0100
0010
0001
0100
0010
0100
,
0010
1000
0001
0010
0100
0010
0100
1000
0010
0100
0001
1000
0010
1000
0001
0100
,
0001
0010
0100
0010
0001
1000
0100
0010
0100
1000
0001
0100
0010
0100
0001
1000
,
0010
0100
0001
0010
0100
0010
0100
1000
0010
1000
0001
0100
0010
0100
0001
0010
,
0100
0010
0100
1000
0010
1000
0100
0010
0100
1000
0001
0100
0010
0100
0001
1000
,
0100
0010
0100
1000
0010
0100
0010
0100
0001
0010
0100
0010
0001
1000
0100
0010
,
0100
1000
0010
1000
0001
1000
0010
0100
0001
1000
0100
0010
0001
1000
0001
0100
,
0001
1000
0100
1000
0010
0100
0010
1000
0001
0100
0001
0010
0100
0010
0001
0100
,
0010
0100
0001
1000
0010
1000
0001
0100
0001
0010
0100
1000
0010
1000
0100
0010
,
0100
1000
0001
0100
0010
0100
0001
1000
0010
1000
0100
0010
0001
1000
0100
0010
,
0100
1000
0010
0100
0001
0100
0010
1000
0100
0010
0100
1000
0001
0010
0100
0010
,
0001
1000
0010
0100
0010
1000
0001
0100
0001
0010
0100
0010
0001
1000
0100
1000
,
0010
0100
0001
1000
0100
1000
0010
0100
0010
1000
0100
0010
0100
1000
0010
0100
,
0001
1000
0010
0100
0001
0010
0100
1000
0001
0100
0010
0100
0001
0010
0100
1000
,
0001
0100
0001
1000
0100
1000
0100
0010
0001
1000
0010
0100
0010
1000
0001
1000
,
0010
0100
0101
0001
0010
0100
1100
1000
,
0001
0001
1000
1010
0010
0100
0101
0001
,
1000
0010
0110
0100
0001
0010
0110
0100
,
1000
1000
0001
0101
0100
0010
1010
1000
,
0100
0010
0011
0001
1000
0010
0110
0100
,
0001
0001
1000
1100
0100
1000
1010
0010
,
0100
0001
0011
0010
0100
1000
1001
0001
,
1000
0000
1000
0000
1000
0001
0101
0100
,
0001
0010
0100
0010
0001
0100
0010
1000
0001
0100
0010
1000
0100
1000
0001
0010
,
0100
0010
0100
1000
0010
0100
0010
1000
0001
0100
0010
0100
0001
0010
0100
1000
,
0010
1000
0001
0100
0001
0010
0100
1000
0010
0100
0010
1000
0001
1000
0100
0010
,
0100
1000
0001
0100
0010
0100
0001
1000
0100
0010
0001
0100
0001
0010
0100
0010
,
0001
1000
0001
0010
0100
1000
0001
0100
0010
0100
0010
1000
0100
1000
0010
0100
,
0001
0010
0001
0100
0010
1000
0010
0100
0001
0010
0100
0010
0001
0100
0010
1000
,
0100
0010
0100
0010
0001
0100
0001
0010
0100
1000
0010
0100
0010
1000
0001
0100
,
0001
0010
0100
1100
1000
0001
0101
0000
,
2002
0000
0000
0000
,
3003
0000
0000
0000
;
