#TITLE:Twincore Maid-gic;
#SUBTITLE:Beastiality Violation;
#ARTIST:odaxelagnia feat. Kreton;
#TITLETRANSLIT:;
#SUBTITLETRANSLIT:;
#ARTISTTRANSLIT:;
#CREDIT:Aoreo;
#BANNER:../BV - ban.png;
#BACKGROUND:../BV - bg.png;
#LYRICSPATH:;
#CDTITLE:;
#MUSIC:Twincore Maid-gic (Loffciamcore Remix).ogg;
#OFFSET:0.004;
#SAMPLESTART:12.014;
#SAMPLELENGTH:12.000;
#SELECTABLE:YES;
#DISPLAYBPM:240.000;
#BPMS:0.000=240.000;
#STOPS:;
#BGCHANGES:;
// cache tags:
#FIRSTBEAT:16.000;
#LASTBEAT:499.000;
#SONGFILENAME:Songs/Beastiality Violation/Twincore Maid-gic (Loffciamcore Remix) - [Aoreo]/Twincore Maid-gic (Loffciamcore Remix).sm;
#HASMUSIC:1;
#HASBANNER:1;
#MUSICLENGTH:125.250;
// end cache tags

//---------------dance-single - J. Nero----------------
#NOTES:
     dance-single:
     J. Nero:
     Challenge:
     18:
     1.000,1.000,0.072,0.208,1.000,1443.000,9.000,26.000,0.000,0.000:
0000
0000
0000
0000
,
0000
0000
0000
0000
,
0000
0000
0000
0000
,
0000
0000
0000
0000
,
0001
1000
0100
1000
0010
0100
0001
0010
,
0100
0000
1000
0000
0001
0000
0100
0000
0001
1000
0100
1000
0001
0000
1000
0000
,
0100
0010
0100
1000
0001
0100
0010
1000
,
0100
0000
0010
0000
0100
0000
0010
0000
0001
1000
0001
1000
0100
0000
1000
0000
,
0020
0030
0000
0000
0100
0000
0101
0000
,
0001
0010
0100
0000
1000
0010
1000
0010
,
0200
0300
0001
0000
2002
3003
1000
0010
,
0200
0000
0300
0000
0001
0100
0001
1000
0010
0100
0001
1000
0001
0100
0010
1000
,
0001
1000
0100
0010
0100
1000
0001
0010
0100
1000
0001
1000
0100
0010
0001
1000
,
0001
1000
0100
1000
0001
0010
0100
1000
0001
0010
0001
1000
0100
0010
0100
1000
,
0001
1000
0010
0100
0001
1000
0001
1000
0010
0100
0001
1000
0010
0100
0010
1000
,
0001
1000
0010
0100
0001
1000
0001
0100
0001
1000
0010
0100
0001
1000
0010
1000
,
0001
0100
0001
0100
0010
0000
1000
0100
1000
0001
0010
0100
1000
0000
0001
0100
,
0001
1000
0100
1000
0001
0000
1000
0010
0100
0010
1000
0001
0010
0100
1000
0001
,
1000
0001
0000
1000
0100
0000
1000
1000
,
0001
0100
0010
0000
1000
0000
0001
1000
,
2002
0000
0000
3003
,
0001
0100
0001
0100
0010
0000
1000
0010
1000
0001
0010
0100
1000
0000
0001
0100
,
0001
1000
0100
0010
0001
0000
1000
0100
1000
0001
0100
0001
1000
0000
0001
0100
,
0010
0100
0001
1000
0001
0000
1000
0100
1000
0001
0010
0100
1000
0000
0001
1000
,
0001
0100
0010
0100
0001
0000
1000
0100
1000
0001
0100
0001
1000
0000
0010
0100
,
0001
0100
0001
1000
0001
0000
1000
0100
0010
0100
1000
0001
1000
0000
0001
0000
,
0100
0100
0001
0001
,
0010
0100
1000
0001
0100
0010
0100
0001
,
1000
0000
1000
0000
0001
0000
0000
0000
1000
0001
1000
0010
0100
0010
1000
0001
,
1000
0010
0100
0001
1000
0010
0100
0001
1000
0001
0100
0001
0010
0100
0010
0100
,
1000
0001
1000
0100
0010
0001
1000
0001
0010
0100
0010
0001
1000
0100
0010
0001
,
1000
0100
0010
0100
0010
0001
1000
0001
1000
0010
0100
0001
1000
0000
0004
0003
,
0100
0010
1000
0001
1000
0001
0100
0010
0100
0001
1000
0010
0100
0010
1000
0001
,
0100
0010
0100
0001
1000
0001
0100
0001
2000
0000
3000
0000
0000
0000
0000
0000
,
0001
1000
0001
0100
0010
1000
0001
0010
0100
1000
0001
1000
0010
0100
0001
1000
,
0001
1000
0001
1000
0010
0100
0001
1000
,
0100
0000
0100
0000
1000
0000
0000
0000
0001
0100
0001
1000
0010
1000
0010
0100
,
0001
1000
0001
0100
0010
0100
0010
1000
0001
1000
0100
0010
0100
1000
0001
1000
,
0001
0100
0010
0100
0001
1000
0010
1000
0001
0100
0010
0100
0010
1000
0001
1000
,
0001
0010
0100
1000
0010
0100
0001
1000
0100
0010
0001
1000
0001
0000
0000
0000
,
1000
0010
1000
0010
0100
0001
0100
0001
1000
0001
1000
0001
1000
0001
1000
0001
,
1000
0000
0001
0100
0010
0000
0100
0000
,
0001
0100
0001
0100
0010
1000
0010
1000
0001
1000
0010
0100
0001
1000
0001
1000
,
0100
0000
0000
0000
1000
0010
0100
0001
1000
0001
0100
0010
1000
0001
0100
0001
,
1000
0001
0010
0100
1000
0001
0010
0001
1000
0100
0010
0100
1000
0001
0010
0100
,
1000
0001
1000
0001
0100
0010
0100
0001
1000
0001
1000
0010
0100
0001
1000
0001
,
1000
0100
1000
0001
0010
0100
1000
0001
1000
0100
1000
0001
0010
0100
1000
0001
,
1000
0001
0100
0100
0010
1000
0100
0100
,
1000
0010
1000
0001
0100
0001
1000
0010
0100
0001
1000
0100
0010
0001
0100
0010
,
1000
0001
1000
0001
0100
0010
0100
0001
1000
0010
1000
0001
0100
0001
1000
0010
,
1000
0001
0010
0001
1000
0100
1000
0001
1000
0001
0010
0100
1000
0001
1000
0001
,
0100
0001
0010
0010
0200
0300
1000
0000
,
0001
0000
0001
0000
0100
0000
0000
0000
0001
0100
0001
1000
0010
0100
0010
1000
,
0001
0100
0001
1000
0001
0010
0100
1000
0001
1000
0100
0010
0001
1000
0100
1000
,
0001
0010
0100
1000
0001
1000
0010
0100
0001
1000
0001
0100
0010
1000
0001
1000
,
0001
0000
0000
0000
1001
0000
0000
0000
1000
0100
0010
0100
1000
0001
0010
0100
,
1000
0001
1000
0010
0100
0001
1000
0010
0100
0010
1000
0001
1000
0010
1000
0001
,
0100
0001
1000
0100
1000
0100
0010
0001
1000
0001
0010
0100
0010
0001
1000
0100
,
0010
0001
1000
0100
1000
0001
0010
0100
,
1000
0000
0001
0100
0010
0000
1000
0100
,
0010
0000
0010
0000
0001
0000
0000
0000
0100
0001
0100
0001
1000
0100
0010
0001
,
1000
0001
1000
0010
0100
0010
1000
0001
0100
0001
1000
0010
1000
0010
0100
0001
,
1000
0001
0010
0100
1000
0001
0010
0100
1000
0100
1000
0001
0010
0001
1000
0001
,
1000
0100
0010
0100
1000
0001
0100
0010
,
1000
0100
1000
0001
0010
0001
1000
0100
0010
0100
0010
0001
1000
0001
1000
0001
,
1000
0100
0010
0100
1000
0001
0010
0100
1000
0001
0010
0001
1000
0100
0010
0001
,
1000
0001
0100
0010
1000
0001
1000
0010
0100
0010
1000
0001
0100
0001
1000
0010
,
0100
0001
0100
0001
1000
0100
1000
0100
,
0010
0000
0001
0000
0100
0000
0000
0000
0001
0100
0001
1000
0010
1000
0001
0100
,
0001
1000
0100
1000
0001
0010
0100
1000
0001
0010
0100
0010
0001
1000
0100
0010
,
0001
1000
0001
0100
0010
0100
0001
1000
0001
1000
0010
0100
0001
1000
0001
1000
,
0010
0000
0100
0000
0001
0000
1000
0000
0001
0100
0001
1000
0100
0010
0001
1000
,
0001
0010
0100
1000
0001
0100
0010
1000
0001
1000
0100
0010
0001
1000
0001
1000
,
0002
0000
0000
0000
,
1003
0000
0100
1000
0000
0000
0001
0100
,
0010
0000
0000
0000
1000
0000
1000
0001
,
4000
0000
0000
0000
3001
0100
0001
1000
0010
0100
0001
1000
0001
1000
0010
0100
,
0010
1000
0001
1000
0001
0100
0010
1000
0001
1000
0001
0100
0010
0100
0001
1000
,
0100
1000
0001
0100
0001
0010
0100
1000
0001
0010
0001
1000
0100
0010
0001
1000
,
0001
1000
0100
0010
0100
0010
0001
1000
0001
0010
0100
1000
0010
0100
0001
1000
,
0010
1000
0010
0100
0001
0100
0010
1000
0001
1000
0001
0100
0010
0100
0001
1000
,
0010
0100
0001
1000
0001
1000
0010
0100
0001
1000
0001
0100
0010
1000
0010
0100
,
0001
0010
0100
0010
0001
1000
0100
0010
0001
1000
0100
1000
0001
0010
0100
1000
,
0001
1000
0001
0100
0010
0100
0001
1000
0010
1000
0010
0100
0001
0100
0001
1000
,
0002
0000
0000
0000
0003
0000
0000
0000
1000
0010
1000
0001
0100
0010
1000
0001
,
1000
0001
0100
0001
1000
0010
0100
0010
1000
0001
1000
0001
0100
0010
1000
0001
,
1000
0001
0100
0010
1000
0001
1000
0001
0010
0100
0010
0001
1000
0100
0010
0001
,
1000
0001
0010
0100
1000
0100
0010
0001
0100
0010
1000
0010
0100
0001
0100
0001
,
1000
0000
0001
0000
0100
0000
0000
0000
0001
0100
0001
0100
0010
1000
0001
1000
,
0001
1000
0010
0100
0010
1000
0001
1000
0001
0100
0010
1000
0001
1000
0010
0100
,
0001
0100
0000
0001
1000
0000
0001
0100
,
0000
0001
2000
0000
0000
0000
0000
3000
,
2002
0000
0000
3003
,
1000
0100
1000
0001
0100
0000
0001
0010
0001
1000
0100
1000
0001
0000
1000
0100
,
1000
0001
0100
0001
1000
0000
0001
0100
0001
1000
0100
0010
0001
0000
1000
0100
,
1000
0001
0010
0100
1000
0000
0001
0000
0100
0001
0100
0001
1000
0010
0100
0001
,
0100
0000
0100
0001
1000
0000
0001
0000
,
0200
0000
0300
0000
0001
1000
0100
0000
,
2200
0000
0000
0000
0000
3300
0000
0000
,
1000
0001
0100
0001
0010
0100
1000
0001
,
2000
0000
3000
0000
0001
0000
1000
0000
0001
1000
0001
0100
0010
0100
0001
1000
,
0001
0100
0010
1000
0001
0100
0010
1000
0001
0010
0100
1000
0010
0100
0001
1000
,
0001
0010
0100
0010
0001
1000
0100
0010
0001
1000
0100
1000
0001
0010
0100
1000
,
0001
0010
0100
0010
0100
1000
0001
1000
0002
0003
0000
0000
4000
0000
0000
3000
,
0001
0100
0001
1000
0010
1000
0010
0100
0001
1000
0001
0100
0010
0100
0001
1000
,
0001
1000
0010
0100
0001
1000
0010
0100
0001
1000
0001
1000
0010
0100
0001
0100
,
0001
1000
0001
0010
0100
0010
0001
1000
0100
1000
0001
0010
0001
1000
0100
0010
,
0001
1000
0100
1000
0010
0100
0001
1000
,
0001
0100
0001
1000
0010
0000
1000
0100
1000
0001
0010
0100
1000
0000
0001
0100
,
0010
0100
0001
1000
0001
0000
1000
0000
0001
0010
0100
1000
0001
0010
0001
1000
,
0100
0010
0001
1000
0001
0000
0100
0010
0100
0001
1000
0001
0100
0000
0001
0010
,
0001
1000
0100
0010
0001
0000
1000
0000
0010
0100
0010
1000
0001
1000
0010
0100
,
0001
1000
0100
1000
0001
0000
0100
0001
1000
0001
0100
0010
0100
0000
0001
0010
,
0100
1000
0001
1000
0010
0000
1000
0100
1000
0001
0010
0100
1000
0000
0001
0000
,
2002
3003
0000
0000
0202
0303
0000
0000
,
0200
0000
0300
0000
0001
0010
0100
1000
0001
0100
0010
1000
0001
1000
0100
0010
,
0001
0000
0000
0000
1000
0000
0001
0000
1000
0001
0100
0001
0100
0010
1000
0001
,
0100
0001
1000
0010
1000
0010
0100
0001
1000
0100
0010
0100
1000
0001
0010
0001
,
0010
0100
1000
0001
0010
0001
1000
0100
0010
0001
1000
0001
0100
0010
0100
0001
,
1000
0010
1000
0010
0100
0001
1000
0010
2000
3000
0000
0000
0001
0000
0000
0000
,
1000
0000
0010
0000
1000
0100
0010
0001
1000
0001
0010
0100
1000
0001
0100
0001
,
1000
0010
0100
0001
1000
0100
0010
0001
1000
0010
1000
0001
0100
0010
0100
0001
,
1000
0000
0001
0000
0000
0000
1000
0010
,
0100
0000
0000
0000
0001
0010
0001
1000
0100
0010
0001
1000
0100
1000
0001
0100
,
0020
0000
0000
0030
;
