#TITLE:Merry Fucking Christmas;
#SUBTITLE:;
#ARTIST:Mr. Garrison;
#TITLETRANSLIT:;
#SUBTITLETRANSLIT:;
#ARTISTTRANSLIT:;
#CREDIT:jammitch!;
#BANNER:Merry Fucking Christmas.png;
#BACKGROUND:Merry Fucking Christmas-bg.png;
#LYRICSPATH:Merry Fucking Christmas.lrc;
#CDTITLE:jammitch! SP.png;
#MUSIC:Merry Fucking Christmas.mp3;
#OFFSET:-1.134;
#SAMPLESTART:19.714;
#SAMPLELENGTH:15.000;
#SELECTABLE:YES;
#BPMS:0.000=114.700,29.000=72.000,29.500=66.500,32.000=150.000,76.000=130.500,92.000=120.000,100.000=110.000,106.000=92.700,109.000=154.000,153.000=145.000,169.000=140.000,180.000=130.000,180.500=115.000,181.000=100.000,181.500=95.000,182.000=85.000,182.500=41.000,183.000=44.600,184.000=161.500,227.000=144.000,229.000=152.000,246.500=130.000,248.000=150.000;
#STOPS:184.000=0.970
,227.500=2.300
,228.000=2.200
;
#BGCHANGES:;
// cache tags:
#FIRSTBEAT:16.000;
#LASTBEAT:256.000;
#SONGFILENAME:Songs/DDRExtreme.co.uk presents ChristmasMix/Merry Fucking Christmas/Merry Fucking Christmas.sm;
#HASMUSIC:1;
#HASBANNER:1;
#MUSICLENGTH:123.929;
// end cache tags

//---------------dance-single - Heavy----------------
#NOTES:
     dance-single:
     Heavy:
     Hard:
     8:
     0.476,0.491,0.355,0.097,0.081,357.000,44.000,12.000,0.000,0.000:
0000
0000
0000
0000
,
0000
0000
0000
0000
,
0000
0000
0000
0000
,
0000
0000
0000
0000
,
1000
0100
1000
0010
,
0100
0001
0100
0010
,
1000
0100
0010
0001
0100
0010
1000
0001
,
0100
0010
1000
0001
0220
0000
0000
0000
,
0000
0000
0330
0000
1000
0100
0010
0001
,
0100
0010
1000
0000
0001
0010
0100
1000
,
0110
0000
1001
0000
1000
0010
0100
0001
,
0010
0100
1000
0000
0010
0100
0001
1000
,
0110
0000
0000
0000
1001
0000
0000
0000
0010
0000
1000
0000
0010
1000
0010
0000
,
0100
0001
1000
0000
0001
0100
0010
0100
,
0001
1000
0010
0000
0001
0100
0010
1000
,
0101
0000
1010
0000
1000
0010
0100
0010
,
1000
0001
0100
0000
1000
0100
0010
0001
,
1100
0000
0000
0000
0010
0000
0000
0010
0001
0000
0001
0000
1000
0000
0000
1000
,
0100
0100
0010
0001
1000
0010
0100
0000
,
1001
0100
1001
0010
,
1100
0001
0101
1000
,
1010
0100
0011
0100
,
0011
1000
1010
0001
,
1000
0100
0010
0001
0100
0010
0100
0001
,
1000
0010
0100
0001
0010
0000
1001
0000
,
0010
1000
0100
1000
0010
1000
0001
0100
,
0001
0000
0010
0000
0000
0100
0000
0000
2002
0000
0000
0000
0000
0000
0000
0000
,
0000
0000
3003
0000
0000
0000
1000
0001
,
0100
1000
0100
0001
1000
0000
0010
1000
,
0001
0100
1001
0000
0110
0000
0001
1000
,
0100
1000
0010
0100
0010
0001
0010
1000
,
0100
0000
0010
0000
1001
0000
0000
0000
0110
0000
0000
0000
0010
0000
0001
1000
,
0001
0010
0100
1000
0010
0000
1000
0010
,
0100
1000
0100
0010
1000
0000
0001
0010
,
0001
0100
1010
0000
1001
0000
0001
0100
,
0010
0001
0010
0100
0001
0000
1000
0100
,
1000
0000
0010
0000
1100
0000
0000
0000
1000
0000
0000
1000
0001
0000
0010
0000
,
0100
0000
0000
0100
1000
0000
0010
0000
0100
0000
0001
0000
0010
0000
0000
0000
,
0001
1010
0100
0011
,
0100
1001
0010
1100
,
0001
1010
0100
0011
,
1000
0110
0001
1100
,
0001
0000
1000
0100
1000
0010
1000
0001
,
0100
0001
0010
0001
0100
1000
0100
0010
,
0100
0000
0010
1000
0001
1000
0100
0010
,
0001
1000
0001
0100
0010
1000
0002
0000
,
0000
0003
0000
0000
0000
0000
0000
0000
1000
0000
0100
0000
1000
0000
0010
0000
,
0100
0001
0010
0000
0100
1000
0010
1000
,
0001
0000
0000
0000
1010
0000
0000
0000
0001
0000
0100
0000
0010
1000
0000
0000
,
0100
0000
1000
0000
0010
0000
0100
0000
0001
0010
0000
0100
0000
1000
0000
0000
,
0010
0100
0000
0001
0000
0000
0000
0000
1000
0000
0010
0000
0100
0000
0010
0000
,
1000
0001
1000
0000
0010
0000
0100
0000
0001
0000
0010
0000
0001
0000
0100
0000
,
0010
1000
0100
0010
0001
0100
0010
0100
,
0001
0000
0000
0000
0000
1000
0100
0000
1000
0000
0010
0000
0100
0000
0001
0000
,
0010
0100
0000
1000
0001
0000
0000
0010
0100
0000
0010
0000
0001
0000
0100
0010
,
0000
2000
0000
3002
0000
0203
0000
0310
,
1000
0000
0001
0010
0001
0000
0100
0000
0010
0000
1000
0000
0000
0000
0020
0000
,
0200
0330
0000
0000
0000
0000
0000
0000
1001
0000
0000
0000
0000
0000
0000
0000
0110
0000
0000
0000
0000
0000
0000
0000
1001
0000
0000
0000
0000
0000
0000
0000
,
0110
1001
1001
1001
,
0110
0000
1000
0100
1000
0010
0100
0001
,
0010
0100
1000
0010
0100
0010
1000
0001
,
0010
0100
1000
0000
0000
1010
0000
0000
,
0202
0000
0000
0000
,
0000
0000
0000
0000
,
0303
0000
0000
0000
;

//---------------dance-single - Standard----------------
#NOTES:
     dance-single:
     Standard:
     Medium:
     5:
     0.330,0.336,0.186,0.097,0.000,251.000,23.000,12.000,0.000,0.000:
0000
0000
0000
0000
,
0000
0000
0000
0000
,
0000
0000
0000
0000
,
0000
0000
0000
0000
,
1000
0001
1000
0001
,
0100
0010
0100
0010
,
1000
0001
0100
0010
,
1000
0001
0220
0000
,
0000
0000
0330
0000
1000
0100
0010
0000
,
0001
0100
0010
0000
1000
0001
0100
0000
,
0010
0000
1001
0000
1000
0001
0100
0000
,
0010
1000
0001
0000
0010
0100
1000
0000
,
0010
1001
0000
0000
,
0000
0000
0000
0000
0001
0100
0010
0000
,
1000
0001
0010
0000
0100
1000
0001
0000
,
0100
0000
1001
0000
1000
0010
0100
0000
,
0001
1000
0100
0000
0010
0001
0100
0000
,
0010
0000
1000
0000
0001
0010
0100
0000
,
1000
0010
0100
0000
0001
1000
0100
0000
,
1000
0100
0001
0100
,
1000
0100
0001
0100
,
1000
0010
0100
0010
,
0001
0010
0100
0010
,
1000
0001
1100
0010
,
0001
1000
0101
1000
,
0010
0001
1010
0001
,
0100
1000
0022
0000
,
0000
0000
0033
0000
0000
0000
1000
0010
,
0100
0000
0001
1000
0100
0000
0010
0001
,
0100
0000
0010
0000
1001
0000
0010
1000
,
0100
0000
0010
0001
1000
0000
0010
0100
,
0001
0010
1001
0000
,
0000
0000
0000
0000
0000
0000
1000
0001
,
0010
0000
0001
1000
0010
0000
0100
0001
,
0010
0000
0100
0000
1001
0000
0010
1000
,
0001
0000
0100
0001
1000
0000
0010
0100
,
0001
0000
0010
0000
1001
0000
0010
1000
,
0001
0000
1000
0010
0100
0001
0010
0000
,
0000
1000
0100
0001
,
0100
0010
1000
0010
,
0001
1000
0010
0001
,
0010
0100
1000
0100
,
0001
1000
0100
1001
,
0010
0001
0100
1010
,
0001
0100
0010
1100
,
0010
0001
0100
2002
,
3003
0000
0000
0000
1000
0010
1000
0000
,
0001
0010
0001
0000
1000
0010
0100
0000
,
0001
0000
1100
0000
0001
0100
0001
0000
,
1000
0100
1000
0000
0001
0010
0100
0000
,
1000
0101
0000
0000
,
0000
0000
0000
0000
0010
1000
0010
0000
,
0100
0001
0100
0000
0010
1000
0001
0000
,
0100
0000
1001
0000
0010
0001
0010
0000
,
0100
1000
0100
0000
0010
0001
1000
0000
,
0010
0000
0000
0000
,
0000
0000
0000
0000
0000
0000
0000
1001
,
0110
2000
3200
0320
,
0032
0100
0100
0103
,
0100
0000
0001
0010
0001
0000
1000
0010
,
1000
0000
0001
0100
0001
0000
1000
0100
,
1000
0100
1000
0000
0000
1010
0000
0000
,
0202
0000
0000
0000
,
0000
0000
0000
0000
,
0303
0000
0000
0000
;

//---------------dance-single - Light----------------
#NOTES:
     dance-single:
     Light:
     Easy:
     3:
     0.204,0.258,0.048,0.081,0.000,161.000,6.000,10.000,0.000,0.000:
0000
0000
0000
0000
,
0000
0000
0000
0000
,
0000
0000
0000
0000
,
0000
0000
0000
0000
,
1000
0000
0001
0000
,
0100
0000
0010
0000
,
1000
0000
0001
0000
,
0100
0000
0220
0000
,
0000
0330
1000
0010
,
1000
0010
0001
0100
,
0001
0100
1000
0100
,
1000
0100
0001
0010
,
0001
0010
0000
0000
,
0000
0000
0001
0010
,
0100
1000
0001
0100
,
0010
1000
0001
0100
,
0001
0010
1000
0100
,
1000
0000
0000
0000
,
0000
0000
0000
0000
,
1000
0000
0001
0000
,
0010
0000
0100
0000
,
0001
0000
1000
0000
,
0100
0000
0010
0000
,
1000
0001
1000
0000
,
0001
1000
0001
0000
,
0010
0100
0010
0000
,
0100
0010
0220
0000
,
0330
0000
0000
1000
,
0010
0100
0001
0010
,
0100
1000
0010
0100
,
0010
1000
0100
0010
,
0001
0100
0010
0000
,
0000
0000
0000
0010
,
1000
0010
1000
0001
,
0100
0001
0100
0010
,
0001
0010
0001
1000
,
0100
1000
0000
0000
,
0000
0000
0000
0000
,
0000
1000
0000
0010
,
0000
0001
0000
0100
,
0000
1000
0000
0010
,
0000
0001
0000
0100
,
0000
0010
1000
0100
,
0000
0010
0001
0100
,
0000
0010
1000
0001
,
0000
1000
0001
2002
,
3003
0000
1000
0010
,
1000
0100
1000
0010
,
1000
0100
0001
0010
,
0001
0100
0001
0010
,
0001
0100
0000
0000
,
0000
0000
0010
1000
,
0100
1000
0010
0100
,
0001
0010
0001
0100
,
0010
0100
0001
1000
,
0100
0000
0000
0000
,
0000
0000
0000
0000
0000
0000
0000
2002
,
3003
1000
1000
1000
,
1000
0001
0001
0001
,
0001
1000
0100
1000
,
0100
0010
0001
0010
,
0001
0000
0100
0000
0000
1001
0000
0000
,
2002
0000
0000
0000
,
0000
0000
0000
0000
,
3003
0000
0000
0000
;
