#TITLE:Devil's Dancecore;
#SUBTITLE:;
#ARTIST:Annoying Ringtone;
#TITLETRANSLIT:;
#SUBTITLETRANSLIT:;
#ARTISTTRANSLIT:;
#CREDIT:;
#BANNER:../_bn-1.png;
#BACKGROUND:../bg-1.png;
#LYRICSPATH:;
#CDTITLE:;
#MUSIC:Devil's Dance Core.ogg;
#OFFSET:-0.064;
#SAMPLESTART:33.661;
#SAMPLELENGTH:11.000;
#SELECTABLE:YES;
#DISPLAYBPM:200.000;
#BPMS:0.000=200.000;
#STOPS:;
#BGCHANGES:;
// cache tags:
#FIRSTBEAT:0.000;
#LASTBEAT:404.000;
#SONGFILENAME:Songs/Index Tournament 1/Devil's Dancecore/Devil's Dance Core.sm;
#HASMUSIC:1;
#HASBANNER:1;
#MUSICLENGTH:121.338;
// end cache tags

//---------------dance-single - Happy Feet----------------
#NOTES:
     dance-single:
     Happy Feet:
     Challenge:
     15:
     1.000,1.000,0.049,0.181,1.000,1191.000,6.000,22.000,4.000,0.000:

1000
0001
0100
0001
,
1000
0000
0000
0000
0100
0000
0000
0000
0010
0000
0001
1000
0010
0000
0100
0010
,
1000
0100
0010
0100
,
1000
0000
0000
0000
0001
0000
0000
0000
0100
0000
0001
0100
0010
0000
1000
0001
,
0010
0100
0010
0001
,
1000
0000
0000
0000
0001
0000
0000
0000
0100
0000
0010
1000
0001
0000
0010
0100
,
1000
0001
0010
0001
,
1000
0000
0000
0000
0010
0000
0000
0000
0100
0000
0010
1000
0001
0000
1000
0100
,
0010
0100
1000
0001
,
0010
0000
0000
0000
0001
0000
0000
0000
1000
0000
0001
0010
0100
0000
0010
0001
,
2000
0000
0000
0000
3004
0003
0200
0000
0000
0000
0340
0030
2000
0000
0000
0000
3004
0003
0020
0000
0000
0000
0034
0003
,
2000
0000
0100
0000
3100
0000
0010
0001
1000
0001
1000
0001
1000
0001
1000
0001
,
0010
0100
1000
0001
0100
0001
1000
0001
0010
0100
1000
0001
0010
0001
1000
0010
,
0100
0001
1000
0100
1000
0001
0010
0001
1000
0010
0100
0001
1000
0100
1000
0001
,
1000
0010
0100
0001
1000
0001
0010
0100
1000
0001
0010
0001
1000
0001
0100
0010
,
1000
0001
1000
0100
1000
0001
0100
0010
1000
0001
1000
0100
0010
0001
1000
0001
,
0100
0010
1000
0001
1000
0001
0100
0010
1000
0001
0010
0001
1000
0010
0100
0001
,
1000
0100
1000
0001
0100
0001
1000
0100
0010
0001
1000
0010
1000
0001
0100
0001
,
1000
0001
0010
0100
1000
0001
0010
0001
1000
0001
0100
0010
0100
0001
1000
0100
,
1000
0001
0100
0010
1000
0001
1000
0100
0010
0001
1000
0001
0100
0001
1000
0100
,
0010
0001
1000
0010
0400
0000
0310
1000
,
0001
0000
1000
0000
0100
0000
1000
0000
0001
0000
1000
0100
0010
0000
0001
1000
,
0010
0100
0001
0000
1000
0000
0010
0000
4000
0000
0000
0000
3001
0000
0010
0000
,
0100
1000
0001
0000
1000
0000
0010
0000
0100
0000
0010
1000
0001
0000
0100
0001
,
1000
0001
0010
0100
4000
0000
3001
0100
,
0010
0000
0100
0000
0001
0000
1000
0000
0100
0000
0010
0100
1000
0000
0001
0010
,
0200
0000
0000
0000
2300
0000
0000
0000
3002
0000
0000
0000
0203
0000
0310
1000
,
0001
0000
1000
0000
0100
0000
0000
1000
0001
1000
0001
1000
0001
1000
0001
1000
,
0010
0100
0001
1000
0001
0010
0100
1000
0001
0100
0001
1000
0010
0100
0001
1000
,
0100
1000
0001
0010
0100
1000
0001
0010
0100
0010
0001
1000
0100
0010
0001
1000
,
0010
0100
0001
1000
0001
0100
0010
1000
0001
1000
0001
0100
0010
1000
0001
0010
,
0100
1000
0001
0010
0001
1000
0010
0100
0001
1000
0001
0010
0100
1000
0001
0010
,
0001
1000
0010
0100
0001
1000
0100
0010
0001
1000
0001
1000
0010
0100
0001
1000
,
0001
0010
0100
1000
0001
0010
0001
1000
0010
0100
0001
1000
0100
1000
0001
1000
,
0010
0100
0001
1000
0100
1000
0001
0010
0100
1000
0001
0100
0001
1000
0010
1000
,
0001
1000
0100
0010
0001
1000
0001
0100
0010
1000
0001
0010
0100
1000
0001
0100
,
0001
0100
0001
1000
0040
0000
0130
0001
,
1000
0000
0100
0000
1000
0000
0010
0000
0100
0000
0001
1000
0100
0000
1000
0100
,
0010
0100
1000
0001
0040
0000
0130
1000
,
0001
0000
0100
0000
0010
0000
1000
0000
0001
0000
1000
0010
0100
0000
0001
0100
,
0010
0100
0010
1000
0400
0000
0310
0001
,
1000
0000
0100
0000
1000
0000
0001
0000
0100
0000
0010
0100
0001
0000
1000
0100
,
0020
0032
0203
0320
,
2030
0000
0000
0000
3002
0000
0000
0000
0013
0000
0100
0000
1000
0000
0001
0100
,
0001
1000
0100
1000
0001
1000
0010
0100
0001
1000
0001
0010
0100
1000
0001
0010
,
0001
1000
0010
0100
0001
1000
0100
1000
0001
0000
1000
0010
1000
0000
0001
0010
,
0100
1000
0001
0100
0010
0100
0001
1000
0001
1000
0100
0010
0001
1000
0010
0100
,
0001
0100
0010
1000
0001
1000
0100
0010
0001
0000
1000
0000
0100
0000
1000
0000
,
0001
0100
0001
1000
0010
0100
0001
1000
0001
0010
0100
1000
0001
0010
0001
1000
,
0001
0100
0010
0100
0001
1000
0001
0010
0001
0000
1000
0010
1000
0000
0001
0100
,
0020
0000
0000
0000
2030
0000
0000
0000
3002
0000
0000
0000
0023
0000
0000
0130
,
1000
0000
0001
0000
0100
0000
0000
0001
1000
0001
1000
0001
1000
0001
1000
0001
,
0100
0010
1000
0001
1000
0100
0010
0001
1000
0010
1000
0001
0100
0010
1000
0001
,
0010
0001
1000
0100
0010
0001
1000
0100
0010
0100
1000
0001
0010
0100
1000
0001
,
0100
0010
1000
0001
1000
0010
0100
0001
1000
0001
1000
0010
0100
0001
1000
0100
,
0010
0001
1000
0100
1000
0001
0100
0010
1000
0001
1000
0100
0010
0001
1000
0100
,
1000
0001
0100
0010
1000
0001
0010
0100
1000
0001
1000
0001
0100
0010
1000
0001
,
1000
0100
0010
0001
1000
0100
1000
0001
0100
0010
1000
0001
0010
0001
1000
0001
,
0100
0010
1000
0001
0010
0001
1000
0100
0010
0001
1000
0010
1000
0001
0100
0001
,
1000
0001
0010
0100
1000
0001
1000
0010
0100
0001
1000
0100
0010
0001
1000
0010
,
1000
0000
0001
0000
0010
0000
0000
0100
1000
0000
0001
0000
0100
0000
0000
0000
,
0001
0000
0001
0000
0100
0000
0000
0010
1000
0000
0001
0000
0000
0000
1000
0000
,
0100
0000
0010
0000
0001
0000
0000
1000
0100
0000
1000
0000
0001
0000
0000
0000
,
1000
0000
1000
0000
0001
0000
0100
0000
0010
1000
0001
0000
1000
0000
0100
0000
,
0010
0000
0001
0000
0100
0000
0000
0010
1000
0000
0001
0000
0010
0000
0100
0000
,
1000
0000
1000
0000
0001
0000
0100
0001
1000
0100
1000
0000
0000
0000
0001
0000
,
0010
0000
0001
0000
0100
0000
0000
0010
1000
0000
0001
0000
1000
0000
0100
0000
,
0010
0000
0001
0000
1000
0100
0010
0001
1000
0000
0000
0000
0001
0000
0000
0000
,
1000
0100
0010
0001
1000
0100
0010
0001
1000
0100
0010
0001
1000
0100
1000
0001
,
0100
0010
0100
0001
1000
0100
0010
0001
1000
0010
0100
0001
1000
0001
0010
0100
,
1000
0010
1000
0010
0100
0001
1000
0100
0010
0001
0010
0001
1000
0010
0100
0001
,
1000
0100
1000
0001
1000
0010
1000
0001
1000
0010
0100
0001
0010
0001
0100
0010
,
1000
0100
0010
0001
1000
0100
0010
0001
1000
0100
0010
0001
1000
0100
1000
0001
,
0100
0010
0100
0001
1000
0100
0010
0001
1000
0010
0100
0001
1000
0001
0010
0100
,
1000
0010
1000
0010
0100
0001
1000
0100
0010
0001
0010
0001
1000
0010
0100
0001
,
1000
0100
1000
0001
1000
0010
1000
0001
1000
0010
0100
0001
0010
0001
0100
0010
,
1000
0001
0010
0100
1000
0001
0100
0001
,
1000
0000
0100
0000
1000
0000
0010
0000
0100
0000
0001
0100
0010
0000
0100
0001
,
1000
0100
1000
0001
0100
0010
1000
0001
,
0010
0100
1000
0001
0100
0100
0001
0001
,
1000
0100
1000
0001
0010
0100
1000
0001
,
0100
0000
0001
0000
1000
0000
0100
0000
0010
0000
0100
0010
0001
0000
1000
0001
,
0100
0010
0100
0001
1000
0100
1000
0010
,
0100
0001
0010
0100
1000
0001
0100
0010
,
1000
0100
1000
0001
1000
0100
0010
0001
1000
0010
1000
0001
0100
0010
1000
0001
,
0010
0001
1000
0100
0010
0001
1000
0100
0010
0100
1000
0001
0010
0100
1000
0001
,
0100
0010
1000
0001
1000
0010
0100
0001
1000
0001
1000
0010
0100
0001
1000
0100
,
0010
0001
1000
0100
1000
0001
0100
0010
1000
0001
1000
0100
0010
0001
1000
0100
,
1000
0001
0100
0010
1000
0001
0010
0100
1000
0001
1000
0001
0100
0010
1000
0001
,
1000
0100
0010
0001
1000
0100
1000
0001
0100
0010
1000
0001
0010
0001
1000
0001
,
0100
0010
1000
0001
0010
0001
1000
0100
0010
0001
1000
0010
1000
0001
0100
0001
,
1000
0001
0010
0100
1000
0001
1000
0010
0100
0001
1000
0100
0010
0001
1000
0010
,
0100
0001
1000
0100
1000
0001
1000
0010
0100
0001
1000
0001
1000
0100
0010
0001
,
1000
0001
0100
0001
1000
0100
1000
0001
1000
0010
0100
0001
1000
0001
0010
0001
,
1000
0010
0100
0001
1000
0100
1000
0001
0100
0010
1000
0001
1000
0100
1000
0001
,
0010
0001
1000
0010
0100
0001
1000
0100
1000
0001
0100
0010
0100
0001
1000
0100
,
0010
0001
1000
0100
1000
0001
1000
0010
0100
0001
1000
0001
1000
0010
0100
0001
,
0100
0010
1000
0001
0010
0100
1000
0001
0010
0001
1000
0100
1000
0001
0100
0010
,
1000
0001
0010
0100
2000
0000
3001
0200
,
0000
0000
0000
0000
0302
0000
0000
0000
1003
0000
0001
0010
0001
0000
1000
0001
,
0100
0000
0000
0000
,
MMMM
0000
0000
0000
;
