#TITLE:Concertino In Blue;
#SUBTITLE:;
#ARTIST:Hirofumi Sasaki;
#TITLETRANSLIT:;
#SUBTITLETRANSLIT:;
#ARTISTTRANSLIT:;
#CREDIT:;
#BANNER:concertino.png;
#BACKGROUND:;
#LYRICSPATH:;
#CDTITLE:;
#MUSIC:Concertino In Blue.mp3;
#OFFSET:-0.600;
#SAMPLESTART:44.380;
#SAMPLELENGTH:12.500;
#SELECTABLE:YES;
#BPMS:0.000=140.000,20.000=155.000,45.000=151.000,48.000=151.000,53.500=155.000,73.000=151.000,82.000=155.000,146.000=152.000,155.000=155.000,157.000=155.000,210.000=140.560,210.500=145.180,211.000=130.520,211.500=124.880,213.000=120.460,218.000=114.820,219.000=107.820,221.000=105.000,224.000=70.000,225.000=64.780,226.000=54.500,226.333=45.300,226.667=44.000,227.000=48.000,227.167=41.000,228.000=40.020;
#STOPS:;
#BGCHANGES:0.000=concertino.avi=1.000=1=1=0,
99999=-nosongbg-=1.000=0=0=0 // don't automatically add -songbackground-
;
// cache tags:
#FIRSTBEAT:0.000;
#LASTBEAT:230.375;
#SONGFILENAME:Songs/new cc/concertino blue/concertino.sm;
#HASMUSIC:1;
#HASBANNER:1;
#MUSICLENGTH:103.790;
// end cache tags

//---------------dance-single - ----------------
#NOTES:
     dance-single:
     :
     Hard:
     12:
     1.000,1.000,1.000,0.135,1.000,592.000,246.000,14.000,0.000,70.000:

1110
0001
0001
0110
1000
1000
0101
0010
0010
1100
0001
0001
,
1011
0100
0100
0110
1000
1000
0101
0010
0010
1010
0001
0001
,
1101
0100
0100
0011
1000
1000
0110
0001
0001
1001
0100
0100
,
0111
0000
1000
0000
1000
0000
0110
0000
0001
0000
0001
0000
1010
0000
0100
0100
0100
0000
0011
0000
1000
0000
1000
0000
,
0011
0011
0011
0011
0011
0011
0011
0011
0011
0011
0011
0011
,
0011
0011
0000
0011
0000
0011
0011
0000
0011
0000
0011
0000
1011
0000
0000
0000
,
1011
0000
0000
0000
0000
0000
0000
0000
0001
0000
0100
0000
0010
0000
0000
1000
0000
0000
0010
0000
0000
0100
0000
0000
1011
0000
0000
0000
0000
0000
0000
0000
0000
0000
0000
0000
1011
0000
0000
0000
0000
0000
0010
0000
0000
0100
0000
0000
,
0001
1110
0000
0011
0000
1000
0010
0000
0010
0000
1101
0000
1010
0000
0111
0000
,
1001
0000
0101
1000
0000
0010
1101
0000
0101
0000
0101
0000
0101
0010
0000
1000
,
0000
0001
0011
0000
2010
3000
0101
0010
1000
0001
0010
0100
1011
0000
0000
0000
,
1011
0000
0010
0100
0001
1110
0000
0101
0000
0010
0100
0000
0100
0000
1011
0000
,
1001
0000
1101
0000
1010
0101
1010
0001
0000
1010
0101
0010
0000
0011
1100
0010
,
1000
0100
1000
0100
1000
0100
1000
0100
1000
0100
1000
0100
1011
0000
0000
0000
,
1011
0000
0000
0000
0000
0000
0000
0000
1000
0000
0010
0000
0100
0000
0000
0001
0000
0000
1010
0000
0000
0100
0000
0000
1011
0000
0000
0000
0000
0000
0000
0000
0000
0000
0000
0000
1011
0000
0000
0000
0000
0000
1000
0000
0000
0100
0000
0000
,
1000
0111
0000
1001
0000
0000
0001
0100
0010
1000
0111
0000
0110
0000
1101
0000
,
0101
0000
0110
1000
0000
0001
1101
0000
0101
0000
0101
0000
0101
0010
0000
1000
,
0000
0001
0110
0000
0012
0003
1100
0000
0010
0001
1000
0010
1101
0000
0000
0000
,
1101
0000
0010
0100
0001
1010
0000
0101
0000
0000
1000
0010
0100
0001
1110
0000
,
0110
0000
1011
0000
1010
0101
1010
0001
0000
0110
1001
0010
0000
1001
0110
1000
,
0001
0010
0001
0010
0001
0010
0001
0010
0001
0010
0001
0010
1101
0000
0000
0000
,
1101
0000
0000
0010
1001
0000
0100
0000
0012
0003
0000
0100
0000
0100
0011
0000
,
0000
0100
0000
0100
1000
0000
0000
0010
0000
0010
0101
0000
0000
0010
0000
0010
,
1001
0000
0000
0000
0000
0000
0000
0000
0000
0000
0000
0000
0000
0000
0000
0000
0000
0000
0000
0000
0000
0000
0000
0000
0000
0000
0000
0000
0000
0000
0000
0000
0000
0000
0000
0000
0000
0000
0000
0000
0000
0000
0000
0000
0000
0000
0000
0000
0000
0000
0000
0000
0000
0000
0000
0000
0000
0000
0000
0000
0000
0000
0000
0000
0001
0000
0000
0000
0000
0000
0000
0000
0000
0000
0000
0000
0000
0000
0010
0000
0000
0000
0000
0000
0000
0000
0000
0000
0100
0000
0000
0000
0000
0000
0000
0000
0000
0000
0000
0000
0000
0000
1000
0000
0000
0000
0000
0000
0000
0000
0000
0000
0000
0000
0000
0000
0000
0000
0000
0000
0010
0000
0000
0000
0000
0000
0000
0000
0000
0000
0000
0000
0000
0000
0000
0000
0000
0000
0000
0000
0000
0000
0000
0000
0000
0000
0000
0000
0000
0000
0000
0000
0000
0000
0000
0000
0000
0000
0000
0000
0000
0000
0000
0000
0000
0000
0000
0000
0000
0000
0000
0000
0000
0000
0000
0000
0000
0000
0000
0000
0000
0000
0000
0000
0000
0000
0000
0000
0000
0000
0000
0000
,
2000
0000
0000
0000
0000
0000
0000
0000
0000
0000
0000
0000
0000
0000
0000
0000
0000
0000
0000
0000
0000
0000
0000
0000
0000
0000
0000
0000
0000
0000
0000
0000
0000
0000
0000
0000
0000
0000
0000
0000
0000
0000
0000
0000
0000
0000
0000
0000
0000
0000
0000
0000
0000
0000
0000
0000
0000
0000
0000
0000
0000
0000
0000
0000
0000
0000
0000
0000
0000
0000
0000
0000
0000
0000
0000
0000
0000
0000
0000
0000
0000
0000
0000
0000
0001
0000
0000
0000
0000
0000
0000
0000
0000
0000
0000
0000
3000
0000
0000
0000
0100
0000
0000
0000
0000
0000
0000
0000
0000
0000
0000
0000
0010
0000
0000
0000
0000
0000
0000
0000
0000
0000
0000
0000
0000
0000
0000
0000
0000
0000
0000
0000
0000
0000
0000
0000
0000
0000
1000
0000
0000
0000
0000
0000
0000
0000
0000
0000
0000
0000
0000
0000
0000
0000
0000
0000
0000
0000
0000
0000
0000
0000
0010
0000
0000
0000
0000
0000
0000
0000
0000
0000
0000
0000
0100
0000
0000
0000
0000
0000
0000
0000
0000
0000
0000
0000
0001
0000
0000
0000
0000
0000
,
0000
0000
1000
0010
0100
0001
1000
0100
0010
0001
0100
0000
1000
0000
0010
0000
0100
0000
0001
0000
1100
0000
0000
0000
0010
0000
0100
0000
0001
0000
1000
0000
,
0110
0001
0010
0001
0000
0100
0011
1000
0100
0010
0000
0001
1000
0010
0100
0001
,
2000
0000
0000
0000
0000
0000
0000
0000
0000
0000
0000
0000
0000
0000
0000
0000
0000
0000
0000
0000
0000
0000
0000
0000
0000
0000
0000
0000
0000
0000
0000
0000
0000
0000
0000
0000
0000
0000
0000
0000
0000
0000
0000
0000
0000
0000
0000
0000
3000
0000
0000
0000
0000
0000
0000
0000
0000
0000
0000
0000
0000
0000
0000
0000
0000
0000
0000
0000
0000
0000
0000
0000
1000
0000
0000
0000
0000
0000
0000
0000
0000
0000
0000
0000
0100
0000
0000
0000
0000
0000
0000
0000
0000
0000
0000
0000
0010
0000
0000
0000
0000
0000
0000
0000
0000
0000
0000
0000
0100
0000
0000
0000
0001
0000
0000
0000
0000
0000
0000
0000
1000
0000
0000
0000
0000
0000
0000
0000
0010
0000
0000
0000
0100
0000
0000
0000
0000
0000
0000
0000
0000
0000
0000
0000
0001
0000
0000
0000
0000
0000
0010
0000
0000
0000
0000
0000
0100
0000
0000
0000
0000
0000
0000
0000
0000
0000
0000
0000
1000
0000
0000
0000
0000
0000
0000
0000
0000
0000
0000
0000
0010
0000
0000
0000
0000
0000
0000
0000
0000
0000
0000
0000
,
0100
0000
0000
0000
0000
0000
0000
0000
0000
0000
0000
0000
0001
0000
0000
0000
0000
0000
0000
0000
0000
0000
0000
0000
0010
0000
0000
0000
0000
0000
0000
0000
0000
0000
0000
0000
0100
0000
0000
0000
0000
0000
0000
0000
0000
0000
0000
0000
1000
0000
0000
0000
0000
0000
0000
0000
0000
0000
0000
0000
0010
0000
0000
0000
0000
0000
0100
0000
0000
0000
0000
0000
0001
0000
0000
0000
0000
0000
0000
0000
1000
0000
0000
0000
0000
0000
0000
0000
0010
0000
0000
0000
0000
0000
0000
0000
0200
0000
0000
0000
0000
0000
0000
0000
0000
0000
0000
0000
0000
0000
0000
0000
0000
0000
0000
0000
0000
0000
0000
0000
0000
0000
0000
0000
0000
0000
0000
0000
0000
0000
0000
0000
0000
0000
0000
0000
0000
0000
0000
0000
0000
0000
0000
0000
0000
0000
0000
0000
0000
0000
0000
0000
0000
0000
0000
0000
0000
0000
0000
0000
0000
0000
0000
0000
0000
0000
0000
0000
0000
0000
0000
0000
0000
0000
0000
0000
0000
0000
0000
0000
0000
0000
0000
0000
0000
0000
0000
0000
0000
0000
0000
0000
,
1311
0000
1000
1000
0001
0010
1101
0000
0010
0010
0001
1000
0111
0000
1000
1000
,
0001
0010
1110
0000
0001
0001
0010
0100
1001
0000
0100
0100
0001
0010
0101
0100
,
0001
0000
0000
0000
0101
1000
0001
0001
0001
0001
1100
0001
1000
0011
0100
0010
,
1101
0010
1000
0101
0000
0000
1011
0100
0001
1100
0000
0000
0111
0001
0001
0110
,
1000
0010
1101
0100
0100
0011
1000
0001
0111
1000
0001
0110
1000
0100
1011
1000
,
0001
0110
0000
0000
2100
0000
0000
0000
0000
0000
0021
0000
3000
0000
0000
0000
,
1031
0000
0100
0010
0001
0010
1000
0000
1010
0000
0101
0000
1001
0000
0010
0100
,
0001
0010
1100
0000
1100
0000
0011
0000
1101
0000
0110
0000
0101
0000
1110
0000
,
0111
0000
0111
0000
1000
0100
0010
0001
0010
0100
1001
0010
0100
0001
0010
0100
,
1001
0000
0000
0000
1101
0000
0000
0000
0010
0100
0001
1000
0100
0000
0000
1001
,
0000
0000
0110
0000
0000
1001
0000
0000
0101
0000
0000
0000
1011
0000
0000
0000
,
0100
1000
0001
1000
0010
0000
0101
0000
0110
0000
1010
0000
0110
0000
1001
0000
,
1010
0000
0000
0000
1101
0000
0010
0100
0001
1000
0100
0010
0001
0000
1100
0000
,
0011
0000
0000
1100
0000
0000
0110
0000
0000
0011
0000
0000
1110
0000
0101
0000
1010
0000
0011
0000
1100
0000
0110
0000
,
1100
0101
1010
0111
1100
0110
1101
0011
0110
1110
0011
0101
,
1101
0110
0101
1110
0011
0110
1101
0011
1100
0110
0011
1010
,
0110
0101
1100
0110
0011
1010
2102
0000
0000
0000
0000
0000
,
0000
0000
0000
0000
0000
0003
0000
0000
,
0001
0100
0001
0010
3101
0000
0000
0000
0000
0000
0000
0000
1100
1100
0000
1100
,
0000
0000
0000
1100
0000
0000
1100
0000
0000
0000
0000
0000
1100
0000
0000
0000
0000
0000
1100
0000
0000
0000
0000
0000
0111
0000
0000
0000
0000
0000
0000
0000
0000
0000
0000
0000
0111
0000
0000
0000
0000
0000
0000
0000
1000
0000
0001
0000
,
0100
0010
1000
0001
1110
0000
0000
0000
1110
0000
0001
0010
0100
1011
0000
0101
,
0000
0010
1000
0000
1000
0000
0011
0000
1010
0000
0110
0000
1001
0000
0110
0001
,
0000
1000
1101
0000
0101
0000
0101
0000
1010
0001
0000
0100
0000
0010
1100
0000
,
0102
0000
0000
0003
0000
0000
0010
0000
0000
1000
0000
0000
0001
0000
0010
0000
0100
0000
1000
0000
0000
0100
0000
0000
1011
0000
0000
0000
0000
0000
0000
0000
0000
0000
0000
0000
1011
0000
0000
0000
0000
0000
0100
0000
0000
0010
0000
0000
,
1000
0111
0000
1110
0000
0000
0101
0000
0101
0000
1010
0000
0110
0000
1001
0000
,
0110
0001
1000
0100
0000
0010
0001
1000
0000
0010
0100
0001
0010
0001
0010
0001
,
0010
0001
0010
0001
0010
0001
0010
0001
1100
0000
0000
0000
1100
0000
0000
0000
,
1100
0110
0012
0000
0000
0000
0000
0000
,
1103
0000
0000
0000
0010
0000
0000
0000
0100
0000
0000
0000
0011
0000
0000
0000
0100
0000
0000
0000
1000
0000
0000
0000
0110
0000
0000
0000
0001
0000
0000
0000
0100
0000
0000
0000
1000
0010
0100
0000
0000
0000
0000
0000
0000
0000
0000
0000
,
2000
0002
0000
0000
3000
0000
0000
0000
0000
0000
0000
0000
0000
0000
0000
0000
0000
0000
0000
0003
0000
0000
0000
0000
0000
0000
0000
0000
0000
0000
0000
0000
;
