#TITLE:PARANOiA EViL;
#SUBTITLE:Beastiality Violation;
#ARTIST:DJ Sapphire REMiXed.tpa;
#TITLETRANSLIT:;
#SUBTITLETRANSLIT:;
#ARTISTTRANSLIT:;
#CREDIT:;
#BANNER:../BV - ban.png;
#BACKGROUND:../BV - bg.png;
#LYRICSPATH:;
#CDTITLE:;
#MUSIC:Paranoia Evil.ogg;
#OFFSET:-0.039;
#SAMPLESTART:24.240;
#SAMPLELENGTH:12.000;
#SELECTABLE:YES;
#DISPLAYBPM:228.000;
#BPMS:0.000=228.000,203.000=220.000,204.000=228.000,268.000=-2280.004,278.000=228.000;
#STOPS:268.000=0.782
;
#BGCHANGES:;
// cache tags:
#FIRSTBEAT:4.000;
#LASTBEAT:456.000;
#SONGFILENAME:Songs/Beastiality Violation Expansion pack 1/Paranoia Evil 52 DECLiNE - [Aoreo]/Paranoia Evil.sm;
#HASMUSIC:1;
#HASBANNER:0;
#MUSICLENGTH:119.928;
// end cache tags

//---------------dance-single - J. Nero----------------
#NOTES:
     dance-single:
     J. Nero:
     Challenge:
     18:
     1.000,1.000,0.033,0.133,1.000,1284.000,4.000,16.000,16.000,0.000:
0000
0000
0000
0000
,
2000
0000
3100
0000
0010
0000
0100
0000
1000
0100
1000
0000
0001
0010
0100
0000
,
2000
3010
0100
0001
0100
0100
0100
0010
,
1000
0001
0100
0001
1000
0100
0010
0100
1000
0001
0100
0010
0100
0001
0010
0100
,
2000
0000
3010
0000
0100
0000
0001
0000
0010
0000
0100
0000
1000
0000
0001
0100
,
0020
0000
0130
0000
0001
0000
1000
0000
0100
1000
0100
0000
1000
0001
0100
0000
,
0002
0013
0100
1000
0100
0100
0100
1000
,
0001
0100
0001
1000
0010
0100
0010
1000
0001
0010
0100
1000
0001
0100
0001
1000
,
0010
0100
0010
1000
0001
1000
0100
0010
0001
1000
0100
1000
0001
0100
0010
0100
,
0001
1000
0001
0010
0100
1000
0001
0100
0010
0100
0001
1000
0100
0010
0001
1000
,
0001
0000
0100
0000
0010
0000
0100
0000
0001
0000
0010
0000
0100
1000
0001
1000
,
0010
0100
0001
0010
0100
1000
0010
0100
,
0001
1000
0100
0010
0001
0100
0010
0100
,
0001
1000
0001
0010
0001
0100
0001
0010
,
0100
0000
0000
0000
1100
0000
0000
0000
1000
0000
0001
0000
0010
0100
1000
0001
,
1000
0001
0010
0100
0010
0001
0100
0010
,
0100
0001
0010
0100
1000
0010
0100
0001
,
1000
0100
1000
0001
1000
0010
0100
0001
,
0010
0000
0000
0000
0110
0000
0000
0000
0100
0000
1000
0000
0001
0100
0001
1000
,
0010
0100
0001
1000
0100
0010
0100
1000
,
0001
0100
0010
0100
0001
0010
0100
1000
,
0001
0100
0001
1000
0001
0010
0100
1000
,
0100
0000
0000
0000
1100
0000
0000
0000
1000
0000
0100
0000
1000
0001
0010
0100
,
1000
0001
0100
0010
0100
0001
0010
0100
,
1000
0010
0100
0010
1000
0100
0010
0001
,
1000
0100
1000
0001
1000
0010
0100
0001
,
1000
0000
0000
0000
1001
0000
0000
0000
0001
0000
0100
0000
0001
0100
0010
0100
,
0001
0000
1000
0100
1000
0001
0010
0100
1000
0001
0100
0001
1000
0010
0100
0000
,
0001
0100
0001
1000
0010
1000
0100
0010
0001
0000
1000
0000
0001
0000
0100
0000
,
0000
0000
0001
0100
0001
1000
0100
1000
0001
0100
0010
1000
0010
0100
0001
0000
,
1000
0100
1000
0001
0010
0100
1000
0001
0100
0000
0001
0000
1000
0000
0100
0000
,
0000
0000
1000
0100
0010
0001
0100
0010
1000
0100
0010
0001
0100
0010
1000
0000
,
0001
0100
0001
1000
0100
0010
0001
1000
0001
0000
0100
0000
0010
0000
0100
0000
,
0000
0000
0001
0010
0100
1000
0010
0100
0001
0010
0100
1000
0010
0100
0001
0000
,
1000
0100
1000
0001
0010
0100
1000
0001
1000
0000
0010
0000
0100
0000
0001
0000
,
1000
0000
0100
0000
1000
0000
0010
0000
0100
0001
0100
0000
0001
0010
0100
0000
,
1000
0000
0001
0000
0100
0000
0010
0000
1000
0100
1000
0000
0001
1000
0001
0000
,
2000
0000
3010
0000
0100
0000
0001
0000
0010
0100
1000
0000
0001
1000
0001
0000
,
0200
0000
0301
0000
1000
0000
0010
0000
0100
0001
0100
0000
0001
0010
0100
0000
,
1000
0000
0010
0000
0100
0000
0001
0000
0100
0001
0100
0000
0001
0010
0100
0000
,
1000
0000
0010
0000
0100
0000
0010
0000
1000
0001
0100
0000
0001
1000
0001
0000
,
2000
0000
3001
0000
0100
0000
0010
0000
0100
0010
0100
0000
0001
1000
0001
0000
,
0200
0000
0301
0000
1000
0000
0010
0000
1000
0100
1000
0000
0001
0010
0100
0000
,
1000
0000
0010
0000
1000
0000
0100
0000
0010
0001
0010
0000
0001
0100
0010
0000
,
1000
0000
0001
0000
0010
0000
0100
0000
1000
0010
1000
0000
0001
1000
0001
0000
,
0200
0000
0301
0000
1000
0000
0001
0000
0100
0010
1000
0000
0001
1000
0001
0000
,
0020
0000
0031
0000
1000
0000
0100
0000
0010
0001
0100
0000
0001
0100
0010
0000
,
1000
0000
0100
0000
0010
0000
0001
0000
0010
0001
0010
0000
0001
0100
0010
0000
,
1000
0000
0100
0000
0010
0000
0100
0000
1000
0001
0010
0000
0001
1000
0001
0000
,
2000
0000
3001
0000
0100
0000
0010
0000
1000
0100
0010
0000
0001
1000
0001
0000
,
0020
0000
0031
0000
1000
0000
0100
0000
1000
0010
1000
0000
0001
0100
0001
0000
,
1000
0000
0100
0000
0010
0000
0001
0000
0100
0000
0010
0000
1000
0001
1000
0000
,
0001
0000
0010
0000
0100
0000
1000
0000
0010
0000
0100
0000
0001
1000
0100
0000
,
0010
0000
0100
0000
1000
0000
0001
0000
0100
0000
0010
0000
0100
0001
0100
0000
,
0001
0000
1000
0000
0001
0100
0000
0001
2000
0000
3100
0000
0010
0001
0010
0000
,
0001
0000
0100
0000
0010
0000
0100
0000
0001
0000
1000
0000
0100
0010
0001
0000
,
1000
0000
0100
0000
0010
0000
0100
0000
1000
0000
0010
0000
0100
0001
0100
0000
,
0001
0000
0100
0000
0010
0000
0100
0000
0001
0000
0010
0000
0100
1000
0001
0000
,
1000
0100
1000
0001
0010
0100
1000
0001
0100
0001
1000
0010
0100
0001
1000
0010
,
1000
0000
0001
0000
0010
0000
0100
0000
1000
0000
0010
0000
0100
0010
0100
0000
,
0001
0000
0010
0000
0100
0000
1000
0000
0001
0000
0100
0000
0010
1000
0010
0000
,
1000
0000
0100
0000
0010
0000
0100
0000
1000
0000
0001
0000
0100
0010
0100
0000
,
0001
0000
0010
0000
0100
0000
1000
0000
0010
0100
0010
1000
0001
1000
0100
0010
,
0001
0000
0100
0000
0010
0000
0100
0000
0001
0000
0010
0000
0100
1000
0001
0000
,
1000
0000
0100
0000
0010
0000
0100
0000
1000
0000
0001
0000
0100
0010
0100
0000
,
0001
0000
0010
0000
0100
0000
1000
0000
0010
0000
0100
0000
0001
0100
0001
0000
,
1000
0000
0100
0000
0010
0000
0001
0000
1000
0100
0010
0001
1000
0010
0100
0001
,
2000
3000
0000
0000
0000
0000
0000
0000
0MM0
0000
0000
0000
0000
0000
0000
0000
0MM0
0000
0000
0000
0000
0000
0000
0000
0MM0
0000
0000
0000
0000
0000
0000
0000
0MM0
0000
0000
0000
0000
0000
0000
0000
0MM0
0000
0000
0000
0000
0000
0000
0000
0MM0
0000
0000
0000
0000
0000
0000
0000
0MM0
0000
0000
0000
0000
0000
0000
0000
,
0000
0000
0000
0000
,
0000
0000
0000
0000
,
0001
0100
0001
0100
0000
0001
0010
0100
,
1000
0010
0000
0000
1000
0100
0010
0100
,
1000
0001
0100
0010
0000
1000
0100
0010
,
0100
1000
0000
0000
0001
0100
0010
0100
,
0001
0010
0100
1000
0000
0001
0100
0010
,
0100
0001
0000
0000
1000
0100
0010
0100
,
1000
0010
0100
0001
0000
0100
0001
1000
,
0100
0000
1000
0000
0000
0000
0000
0000
0001
0100
0001
1000
0100
0010
0001
1000
,
0001
0100
0010
1000
0010
0100
0001
1000
0001
0010
0100
1000
0001
0100
0001
1000
,
0010
0100
0010
1000
0001
0010
0100
1000
0001
0100
0001
1000
0010
0100
0010
1000
,
0100
0010
0001
0100
0010
1000
0100
0010
0001
1000
0001
0100
0001
1000
0010
0100
,
0001
0010
0100
1000
0010
0100
0001
0010
0100
1000
0001
0100
0001
1000
0010
0100
,
0001
0010
0100
1000
0001
0100
0001
1000
0100
0010
0001
1000
0100
1000
0001
0100
,
0010
0100
0001
1000
0001
0100
0010
0100
0001
1000
0100
1000
0001
0010
0001
1000
,
0100
0010
0001
0100
0010
1000
0100
0010
0001
1000
0100
1000
0001
0100
0010
0100
,
0001
0010
0100
1000
0010
0100
0001
0010
0100
1000
0010
1000
0100
0010
0001
1000
,
0001
0100
0001
1000
0100
0010
0001
1000
0100
1000
0001
0010
0100
1000
0001
0100
,
0010
0100
0001
1000
0100
0010
0001
1000
0001
0100
0010
0100
0001
1000
0100
1000
,
0001
0010
0100
1000
0010
0100
0001
0010
0100
1000
0001
0100
0001
1000
0010
0100
,
0001
1000
0100
0010
0001
0100
0010
1000
0100
0010
0001
1000
0001
0010
0100
1000
,
0001
0100
0001
1000
0010
0100
0010
1000
0001
0100
0001
1000
0100
1000
0001
0010
,
0100
1000
0001
0010
0001
1000
0100
1000
0001
0100
0010
1000
0010
0100
0001
1000
,
0001
0010
0100
1000
0010
0100
0001
0010
0100
1000
0001
0100
0001
1000
0010
1000
,
0001
0010
0100
1000
0010
0100
0001
0010
0100
1000
0010
1000
0100
0010
0001
1000
,
0001
0100
0010
0100
0001
1000
0100
0010
0001
1000
0010
0100
0001
1000
0001
0100
,
0001
1000
0100
1000
0100
0010
0001
1000
0100
1000
0010
0100
0001
0010
0001
0100
,
0010
1000
0010
0100
0001
1000
0001
0010
0100
1000
0100
1000
0001
0100
0010
0100
,
0001
1000
0010
0100
0001
0100
0010
1000
0100
1000
0010
0100
0001
0010
0001
1000
,
0001
0100
0010
0100
0001
1000
0100
0010
0001
1000
0100
1000
0001
0100
0010
0100
,
0001
1000
0001
0100
0010
0100
0001
1000
0100
1000
0010
0100
0001
0010
0001
1000
,
0010
1000
0001
0100
0001
1000
0100
0010
0001
1000
0100
1000
0001
0010
0100
1000
,
0001
0100
0001
1000
0010
0100
0010
1000
0100
0010
0001
0100
0010
1000
0100
0010
,
0001
1000
0100
1000
0001
0010
0001
1000
0100
0010
0001
1000
0001
0100
0010
0100
,
0001
1000
0100
1000
0001
0100
0010
1000
0100
0010
0001
0100
0010
1000
0100
0010
,
0001
0100
0010
0100
0001
1000
0100
1000
0001
0010
0001
1000
0100
0010
0001
1000
,
0010
0100
0001
1000
0001
0100
0001
1000
0100
0010
0001
0100
0010
1000
0100
0010
,
0001
1000
0001
0100
0010
0100
0001
1000
0100
0010
0001
1000
0001
0100
0010
0100
,
0001
1000
0100
1000
0001
0100
0001
1000
0100
0010
0001
0100
0010
1000
0100
0010
,
0001
0100
0001
1000
0010
0100
0010
1000
0001
0100
0001
1000
0100
1000
0001
0100
,
0001
0010
0100
1000
0001
0100
0010
1000
0100
0010
0001
0100
0010
1000
0100
0010
,
0001
0100
0010
1000
0100
1000
0010
0100
0001
0010
0001
0100
0010
1000
0100
1000
,
0010
0100
0001
0010
0001
0100
0010
1000
0100
0010
0001
0100
0010
1000
0100
0010
,
0001
0100
0010
1000
0001
0010
0100
1000
0010
0100
0001
0010
0100
1000
0010
0100
,
0002
0000
0000
M000
0000
0000
M000
0000
,
0003
0000
0000
0000
;

//---------------dance-single - J. Nero----------------
#NOTES:
     dance-single:
     J. Nero:
     Hard:
     17:
     1.000,1.000,0.033,0.167,1.000,1236.000,4.000,20.000,16.000,0.000:
0000
0000
0000
0000
,
2000
0000
3100
0000
0010
0000
0100
0000
1000
0100
1000
0000
0001
0010
0100
0000
,
2000
3010
0100
0001
0100
0100
0100
0010
,
1000
0001
0100
0001
1000
0100
0010
0100
1000
0001
0100
0010
0100
0001
0010
0100
,
2000
0000
3010
0000
0100
0000
0001
0000
0010
0000
0100
0000
1000
0000
0001
0100
,
0020
0000
0130
0000
0001
0000
1000
0000
0100
1000
0100
0000
1000
0001
0100
0000
,
0002
0013
0100
1000
0100
0100
0100
1000
,
0001
0100
0001
1000
0010
0100
0010
1000
0001
0010
0100
1000
0001
0100
0001
1000
,
0010
0100
0010
1000
0001
1000
0100
0010
0001
1000
0100
1000
0001
0100
0010
0100
,
0001
1000
0001
0010
0100
1000
0001
0100
0010
0100
0001
1000
0100
0010
0001
1000
,
0001
0000
0100
0000
0010
0000
0100
0000
0001
0000
0010
0000
0100
1000
0001
1000
,
0010
0100
0001
0010
0100
1000
0010
0100
,
0001
1000
0100
0010
0001
0100
0010
0100
,
0001
1000
0001
0010
0001
0100
0001
0010
,
0100
0000
0000
0000
1100
0000
0000
0000
1000
0000
0001
0000
0010
0100
1000
0001
,
1000
0001
0010
0100
0010
0001
0100
0010
,
0100
0001
0010
0100
1000
0010
0100
0001
,
1000
0100
1000
0001
1000
0010
0100
0001
,
0010
0000
0000
0000
0110
0000
0000
0000
0100
0000
1000
0000
0001
0100
0001
1000
,
0010
0100
0001
1000
0100
0010
0100
1000
,
0001
0100
0010
0100
0001
0010
0100
1000
,
0001
0100
0001
1000
0001
0010
0100
1000
,
0100
0000
0000
0000
1100
0000
0000
0000
1000
0000
0100
0000
1000
0001
0010
0100
,
1000
0001
0100
0010
0100
0001
0010
0100
,
1000
0010
0100
0010
1000
0100
0010
0001
,
1000
0100
1000
0001
1000
0010
0100
0001
,
1000
0000
0000
0000
1001
0000
0000
0000
0001
0000
0100
0000
0001
0100
0010
0100
,
0001
0000
1000
0100
1000
0001
0010
0100
1000
0001
0100
0001
1000
0010
0100
0000
,
0001
0100
0001
1000
0010
1000
0100
0010
0001
0000
1000
0000
0001
0000
0100
0000
,
0000
0000
0001
0100
0001
1000
0100
1000
0001
0100
0010
1000
0010
0100
0001
0000
,
1000
0100
1000
0001
0010
0100
1000
0001
0100
0000
0001
0000
1000
0000
0100
0000
,
0000
0000
1000
0100
0010
0001
0100
0010
1000
0100
0010
0001
0100
0010
1000
0000
,
0001
0100
0001
1000
0100
0010
0001
1000
0001
0000
0100
0000
0010
0000
0100
0000
,
0000
0000
0001
0010
0100
1000
0010
0100
0001
0010
0100
1000
0010
0100
0001
0000
,
1000
0100
1000
0001
0010
0100
1000
0001
1000
0000
0010
0000
0100
0000
0001
0000
,
1000
0000
0100
0000
1000
0000
0010
0000
0100
0001
0100
0000
0001
0010
0100
0000
,
1000
0000
0001
0000
0100
0000
0010
0000
1000
0100
1000
0000
0001
1000
0001
0000
,
2000
0000
3010
0000
0100
0000
0001
0000
0010
0100
1000
0000
0001
1000
0001
0000
,
0200
0000
0301
0000
1000
0000
0010
0000
0100
0001
0100
0000
0001
0010
0100
0000
,
1000
0000
0010
0000
0100
0000
0001
0000
0100
0001
0100
0000
0001
0010
0100
0000
,
1000
0000
0010
0000
0100
0000
0010
0000
1000
0001
0100
0000
0001
1000
0001
0000
,
2000
0000
3001
0000
0100
0000
0010
0000
0100
0010
0100
0000
0001
1000
0001
0000
,
0200
0000
0301
0000
1000
0000
0010
0000
1000
0100
1000
0000
0001
0010
0100
0000
,
1000
0000
0010
0000
1000
0000
0100
0000
0010
0001
0010
0000
0001
0100
0010
0000
,
1000
0000
0001
0000
0010
0000
0100
0000
1000
0010
1000
0000
0001
1000
0001
0000
,
0200
0000
0301
0000
1000
0000
0001
0000
0100
0010
1000
0000
0001
1000
0001
0000
,
0020
0000
0031
0000
1000
0000
0100
0000
0010
0001
0100
0000
0001
0100
0010
0000
,
1000
0000
0100
0000
0010
0000
0001
0000
0010
0001
0010
0000
0001
0100
0010
0000
,
1000
0000
0100
0000
0010
0000
0100
0000
1000
0001
0010
0000
0001
1000
0001
0000
,
2000
0000
3001
0000
0100
0000
0010
0000
1000
0100
0010
0000
0001
1000
0001
0000
,
0020
0000
0031
0000
1000
0000
0100
0000
1000
0010
1000
0000
0001
0100
0001
0000
,
1000
0000
0100
0000
0010
0000
0001
0000
0100
0000
0010
0000
1000
0001
1000
0000
,
0001
0000
0010
0000
0100
0000
1000
0000
0010
0000
0100
0000
0001
1000
0100
0000
,
0010
0000
0100
0000
1000
0000
0001
0000
0100
0000
0010
0000
0100
0001
0100
0000
,
0001
0000
1000
0000
0001
0100
0000
0001
2000
0000
3100
0000
0010
0001
0010
0000
,
0001
0000
0100
0000
0010
0000
0100
0000
0001
0000
1000
0000
0100
0010
0001
0000
,
1000
0000
0100
0000
0010
0000
0100
0000
1000
0000
0010
0000
0100
0001
0100
0000
,
0001
0000
0100
0000
0010
0000
0100
0000
0001
0000
0010
0000
0100
1000
0001
0000
,
1000
0100
1000
0001
0010
0100
1000
0001
0100
0001
1000
0010
0100
0001
1000
0010
,
1000
0000
0001
0000
0010
0000
0100
0000
1000
0000
0010
0000
0100
0010
0100
0000
,
0001
0000
0010
0000
0100
0000
1000
0000
0001
0000
0100
0000
0010
1000
0010
0000
,
1000
0000
0100
0000
0010
0000
0100
0000
1000
0000
0001
0000
0100
0010
0100
0000
,
0001
0000
0010
0000
0100
0000
1000
0000
0010
0100
0010
1000
0001
1000
0100
0010
,
0001
0000
0100
0000
0010
0000
0100
0000
0001
0000
0010
0000
0100
1000
0001
0000
,
1000
0000
0100
0000
0010
0000
0100
0000
1000
0000
0001
0000
0100
0010
0100
0000
,
0001
0000
0010
0000
0100
0000
1000
0000
0010
0000
0100
0000
0001
0100
0001
0000
,
1000
0000
0100
0000
0010
0000
0001
0000
1000
0100
0010
0001
1000
0010
0100
0001
,
2000
3000
0000
0000
0000
0000
0000
0000
0MM0
0000
0000
0000
0000
0000
0000
0000
0MM0
0000
0000
0000
0000
0000
0000
0000
0MM0
0000
0000
0000
0000
0000
0000
0000
0MM0
0000
0000
0000
0000
0000
0000
0000
0MM0
0000
0000
0000
0000
0000
0000
0000
0MM0
0000
0000
0000
0000
0000
0000
0000
0MM0
0000
0000
0000
0000
0000
0000
0000
,
0000
0000
0000
0000
,
0000
0000
0000
0000
,
0001
0100
0001
0100
0000
0001
0010
0100
,
1000
0010
0000
0000
1000
0100
0010
0100
,
1000
0001
0100
0010
0000
1000
0100
0010
,
0100
1000
0000
0000
0001
0100
0010
0100
,
0001
0010
0100
1000
0000
0001
0100
0010
,
0100
0001
0000
0000
1000
0100
0010
0100
,
1000
0010
0100
0001
0000
0100
0001
1000
,
0100
0000
1000
0000
0000
0000
0000
0000
0001
0100
0001
1000
0100
0010
0001
1000
,
0001
0100
0010
1000
0010
0100
0001
1000
0001
0010
0100
1000
0001
0100
0001
1000
,
0010
0100
0010
1000
0001
0010
0100
1000
0001
0100
0001
1000
0010
0100
0010
1000
,
0100
0010
0001
0100
0010
1000
0100
0010
0001
1000
0001
0100
0001
1000
0010
0100
,
0001
0010
0100
1000
0010
0100
0001
0010
0100
1000
0001
0100
0001
1000
0010
0100
,
0001
0010
0100
1000
0001
0100
0001
1000
0100
0010
0001
1000
0100
1000
0001
0100
,
0010
0100
0001
1000
0001
0100
0010
0100
0001
1000
0100
1000
0001
0010
0001
1000
,
0100
0010
0001
0100
0010
1000
0100
0010
0001
1000
0100
1000
0001
0100
0010
0100
,
0001
0010
0100
1000
0010
0100
0001
0010
0100
1000
0010
1000
0100
0010
0001
1000
,
0001
0100
0001
1000
0100
0010
0001
1000
0100
1000
0001
0010
0100
1000
0001
0100
,
0010
0100
0001
1000
0100
0010
0001
1000
0001
0100
0010
0100
0001
1000
0100
1000
,
0001
0010
0100
1000
0010
0100
0001
0010
0100
1000
0001
0100
0001
1000
0010
0100
,
0001
1000
0100
0010
0001
0100
0010
1000
0100
0010
0001
1000
0001
0010
0100
1000
,
0001
0100
0001
1000
0010
0100
0010
1000
0001
0100
0001
1000
0100
1000
0001
0010
,
0100
1000
0001
0010
0001
1000
0100
1000
0001
0100
0010
1000
0010
0100
0001
1000
,
0001
0010
0100
1000
0010
0100
0001
0010
0100
1000
0001
0100
0001
1000
0010
1000
,
0001
0010
0100
1000
0010
0100
0001
0010
0100
1000
0010
1000
0100
0010
0001
1000
,
0001
0000
1000
0000
0100
0000
0010
0000
0100
1000
0100
0000
1000
0001
1000
0000
,
0001
0000
0100
0000
0010
0000
1000
0000
0001
0100
0001
0000
1000
0100
0010
0000
,
0002
0000
0103
0000
0010
0000
0100
0000
0001
1000
0001
0000
1000
0100
1000
0000
,
0200
0000
0310
0000
0001
0000
1000
0000
0010
0100
0010
0000
0100
0001
0100
0000
,
0001
0000
0010
0000
0100
0000
1000
0000
0001
0010
0100
0000
1000
0001
1000
0000
,
0001
0000
0100
0000
0010
0000
0100
0000
0001
1000
0001
0000
1000
0100
0010
0000
,
0200
0000
1300
0000
0010
0000
0100
0000
0001
0100
0001
0000
1000
0010
1000
0000
,
0020
0000
0130
0000
0001
0000
0010
0000
0100
1000
0100
0000
1000
0001
0100
0000
,
0001
1000
0100
1000
0001
0010
0001
1000
0100
0010
0001
1000
0001
0100
0010
0100
,
0001
1000
0100
1000
0001
0100
0010
1000
0100
0010
0001
0100
0010
1000
0100
0010
,
0001
0100
0010
0100
0001
1000
0100
1000
0001
0010
0001
1000
0100
0010
0001
1000
,
0010
0100
0001
1000
0001
0100
0001
1000
0100
0010
0001
0100
0010
1000
0100
0010
,
0001
1000
0001
0100
0010
0100
0001
1000
0100
0010
0001
1000
0001
0100
0010
0100
,
0001
1000
0100
1000
0001
0100
0001
1000
0100
0010
0001
0100
0010
1000
0100
0010
,
0001
0100
0001
1000
0010
0100
0010
1000
0001
0100
0001
1000
0100
1000
0001
0100
,
0001
0010
0100
1000
0001
0100
0010
1000
0100
0010
0001
0100
0010
1000
0100
0010
,
0001
0100
0010
1000
0100
1000
0010
0100
0001
0010
0001
0100
0010
1000
0100
1000
,
0010
0100
0001
0010
0001
0100
0010
1000
0100
0010
0001
0100
0010
1000
0100
0010
,
0001
0100
0010
1000
0001
0010
0100
1000
0010
0100
0001
0010
0100
1000
0010
0100
,
0002
0000
0000
M000
0000
0000
M000
0000
,
0003
0000
0000
0000
;

//---------------dance-single - J. Nero----------------
#NOTES:
     dance-single:
     J. Nero:
     Medium:
     16:
     1.000,1.000,0.033,0.200,1.000,1164.000,4.000,24.000,20.000,0.000:
0000
0000
0000
0000
,
2000
0000
3100
0000
0010
0000
0100
0000
1000
0100
1000
0000
0001
0010
0100
0000
,
2000
3010
0100
0001
0100
0100
0100
0010
,
1000
0001
0100
0001
1000
0100
0010
0100
1000
0001
0100
0010
0100
0001
0010
0100
,
2000
0000
3010
0000
0100
0000
0001
0000
0010
0000
0100
0000
1000
0000
0001
0100
,
0020
0000
0130
0000
0001
0000
1000
0000
0100
1000
0100
0000
1000
0001
0100
0000
,
0002
0013
0100
1000
0100
0100
0100
1000
,
0001
0100
0001
1000
0010
0100
0010
1000
0001
0010
0100
1000
0001
0100
0001
1000
,
0010
0100
0010
1000
0001
1000
0100
0010
0001
1000
0100
1000
0001
0100
0010
0100
,
0001
1000
0001
0010
0100
1000
0001
0100
0010
0100
0001
1000
0100
0010
0001
1000
,
0001
0000
0100
0000
0010
0000
0100
0000
0001
0000
0010
0000
0100
1000
0001
1000
,
0010
0100
0001
0010
0100
1000
0010
0100
,
0001
1000
0100
0010
0001
0100
0010
0100
,
0001
1000
0001
0010
0001
0100
0001
0010
,
0100
0000
0000
0000
1100
0000
0000
0000
1000
0000
0001
0000
0010
0100
1000
0001
,
1000
0001
0010
0100
0010
0001
0100
0010
,
0100
0001
0010
0100
1000
0010
0100
0001
,
1000
0100
1000
0001
1000
0010
0100
0001
,
0010
0000
0000
0000
0110
0000
0000
0000
0100
0000
1000
0000
0001
0100
0001
1000
,
0010
0100
0001
1000
0100
0010
0100
1000
,
0001
0100
0010
0100
0001
0010
0100
1000
,
0001
0100
0001
1000
0001
0010
0100
1000
,
0100
0000
0000
0000
1100
0000
0000
0000
1000
0000
0100
0000
1000
0001
0010
0100
,
1000
0001
0100
0010
0100
0001
0010
0100
,
1000
0010
0100
0010
1000
0100
0010
0001
,
1000
0100
1000
0001
1000
0010
0100
0001
,
1000
0000
0000
0000
1001
0000
0000
0000
0001
0000
0100
0000
0001
0100
0010
0100
,
0001
0000
1000
0100
1000
0001
0010
0100
1000
0001
0100
0001
1000
0010
0100
0000
,
0001
0100
0001
1000
0010
1000
0100
0010
0001
0000
1000
0000
0001
0000
0100
0000
,
0000
0000
0001
0100
0001
1000
0100
1000
0001
0100
0010
1000
0010
0100
0001
0000
,
1000
0100
1000
0001
0010
0100
1000
0001
0100
0000
0001
0000
1000
0000
0100
0000
,
0000
0000
1000
0100
0010
0001
0100
0010
1000
0100
0010
0001
0100
0010
1000
0000
,
0001
0100
0001
1000
0100
0010
0001
1000
0001
0000
0100
0000
0010
0000
0100
0000
,
0000
0000
0001
0010
0100
1000
0010
0100
0001
0010
0100
1000
0010
0100
0001
0000
,
1000
0100
1000
0001
0010
0100
1000
0001
1000
0000
0010
0000
0100
0000
0001
0000
,
1000
0000
0100
0000
1000
0000
0010
0000
0100
0001
0100
0000
0001
0010
0100
0000
,
1000
0000
0001
0000
0100
0000
0010
0000
1000
0100
1000
0000
0001
1000
0001
0000
,
2000
0000
3010
0000
0100
0000
0001
0000
0010
0100
1000
0000
0001
1000
0001
0000
,
0200
0000
0301
0000
1000
0000
0010
0000
0100
0001
0100
0000
0001
0010
0100
0000
,
1000
0000
0010
0000
0100
0000
0001
0000
0100
0001
0100
0000
0001
0010
0100
0000
,
1000
0000
0010
0000
0100
0000
0010
0000
1000
0001
0100
0000
0001
1000
0001
0000
,
2000
0000
3001
0000
0100
0000
0010
0000
0100
0010
0100
0000
0001
1000
0001
0000
,
0200
0000
0301
0000
1000
0000
0010
0000
1000
0100
1000
0000
0001
0010
0100
0000
,
1000
0000
0010
0000
1000
0000
0100
0000
0010
0001
0010
0000
0001
0100
0010
0000
,
1000
0000
0001
0000
0010
0000
0100
0000
1000
0010
1000
0000
0001
1000
0001
0000
,
0200
0000
0301
0000
1000
0000
0001
0000
0100
0010
1000
0000
0001
1000
0001
0000
,
0020
0000
0031
0000
1000
0000
0100
0000
0010
0001
0100
0000
0001
0100
0010
0000
,
1000
0000
0100
0000
0010
0000
0001
0000
0010
0001
0010
0000
0001
0100
0010
0000
,
1000
0000
0100
0000
0010
0000
0100
0000
1000
0001
0010
0000
0001
1000
0001
0000
,
2000
0000
3001
0000
0100
0000
0010
0000
1000
0100
0010
0000
0001
1000
0001
0000
,
0020
0000
0031
0000
1000
0000
0100
0000
1000
0010
1000
0000
0001
0100
0001
0000
,
1000
0000
0100
0000
0010
0000
0001
0000
0100
0000
0010
0000
1000
0001
1000
0000
,
0001
0000
0010
0000
0100
0000
1000
0000
0010
0000
0100
0000
0001
1000
0100
0000
,
0010
0000
0100
0000
1000
0000
0001
0000
0100
0000
0010
0000
0100
0001
0100
0000
,
0001
0000
1000
0000
0001
0100
0000
0001
2000
0000
3100
0000
0010
0001
0010
0000
,
0001
0000
0100
0000
0010
0000
0100
0000
0001
0000
1000
0000
0100
0010
0001
0000
,
1000
0000
0100
0000
0010
0000
0100
0000
1000
0000
0010
0000
0100
0001
0100
0000
,
0001
0000
0100
0000
0010
0000
0100
0000
0001
0000
0010
0000
0100
1000
0001
0000
,
1000
0100
1000
0001
0010
0100
1000
0001
0100
0001
1000
0010
0100
0001
1000
0010
,
1000
0000
0001
0000
0010
0000
0100
0000
1000
0000
0010
0000
0100
0010
0100
0000
,
0001
0000
0010
0000
0100
0000
1000
0000
0001
0000
0100
0000
0010
1000
0010
0000
,
1000
0000
0100
0000
0010
0000
0100
0000
1000
0000
0001
0000
0100
0010
0100
0000
,
0001
0000
0010
0000
0100
0000
1000
0000
0010
0100
0010
1000
0001
1000
0100
0010
,
0001
0000
0100
0000
0010
0000
0100
0000
0001
0000
0010
0000
0100
1000
0001
0000
,
1000
0000
0100
0000
0010
0000
0100
0000
1000
0000
0001
0000
0100
0010
0100
0000
,
0001
0000
0010
0000
0100
0000
1000
0000
0010
0000
0100
0000
0001
0100
0001
0000
,
1000
0000
0100
0000
0010
0000
0001
0000
1000
0100
0010
0001
1000
0010
0100
0001
,
2000
3000
0000
0000
0000
0000
0000
0000
0MM0
0000
0000
0000
0000
0000
0000
0000
0MM0
0000
0000
0000
0000
0000
0000
0000
0MM0
0000
0000
0000
0000
0000
0000
0000
0MM0
0000
0000
0000
0000
0000
0000
0000
0MM0
0000
0000
0000
0000
0000
0000
0000
0MM0
0000
0000
0000
0000
0000
0000
0000
0MM0
0000
0000
0000
0000
0000
0000
0000
,
0000
0000
0000
0000
,
0000
0000
0000
0000
,
0001
0100
0001
0100
0000
0001
0010
0100
,
1000
0010
0000
0000
1000
0100
0010
0100
,
1000
0001
0100
0010
0000
1000
0100
0010
,
0100
1000
0000
0000
0001
0100
0010
0100
,
0001
0010
0100
1000
0000
0001
0100
0010
,
0100
0001
0000
0000
1000
0100
0010
0100
,
1000
0010
0100
0001
0000
0100
0001
1000
,
0100
0000
1000
0000
0000
0000
0000
0000
0001
0100
0001
1000
0100
0010
0001
1000
,
0001
0100
0010
1000
0010
0100
0001
1000
0001
0010
0100
1000
0001
0100
0001
1000
,
0010
0100
0010
1000
0001
0010
0100
1000
0001
0100
0001
1000
0010
0100
0010
1000
,
0100
0010
0001
0100
0010
1000
0100
0010
0001
1000
0001
0100
0001
1000
0010
0100
,
0001
0010
0100
1000
0010
0100
0001
0010
0100
1000
0001
0100
0001
1000
0010
0100
,
0001
0010
0100
1000
0001
0100
0001
1000
0100
0010
0001
1000
0100
1000
0001
0100
,
0010
0100
0001
1000
0001
0100
0010
0100
0001
1000
0100
1000
0001
0010
0001
1000
,
0100
0010
0001
0100
0010
1000
0100
0010
0001
1000
0100
1000
0001
0100
0010
0100
,
0001
0010
0100
1000
0010
0100
0001
0010
0100
1000
0010
1000
0100
0010
0001
1000
,
0001
0100
0001
1000
0100
0010
0001
1000
0100
1000
0001
0010
0100
1000
0001
0100
,
0010
0100
0001
1000
0100
0010
0001
1000
0001
0100
0010
0100
0001
1000
0100
1000
,
0001
0010
0100
1000
0010
0100
0001
0010
0100
1000
0001
0100
0001
1000
0010
0100
,
0001
1000
0100
0010
0001
0100
0010
1000
0100
0010
0001
1000
0001
0010
0100
1000
,
0001
0100
0001
1000
0010
0100
0010
1000
0001
0100
0001
1000
0100
1000
0001
0010
,
0100
1000
0001
0010
0001
1000
0100
1000
0001
0100
0010
1000
0010
0100
0001
1000
,
0001
0010
0100
1000
0010
0100
0001
0010
0100
1000
0001
0100
0001
1000
0010
1000
,
0001
0010
0100
1000
0010
0100
0001
0010
0100
1000
0010
1000
0100
0010
0001
1000
,
0001
1000
0100
0010
0100
1000
0001
0100
,
0010
0000
0000
0000
0000
0000
0000
0000
1000
0000
0100
M000
0100
0000
0001
0000
,
2000
3001
0010
0100
0010
0001
1000
0010
,
0200
0000
0300
0000
0000
0000
0000
0000
0001
0000
0100
000M
0100
0000
1000
0000
,
0001
1000
0100
0010
0100
1000
0001
0100
,
0010
0000
0000
0000
0000
0000
0000
0000
1000
0000
0100
M000
0100
0000
0001
0000
,
2000
3001
0010
0100
0010
0001
1000
0010
,
0200
0000
0300
0000
0000
0000
0000
0000
0001
0000
0100
000M
0100
0000
1000
0000
,
0001
0100
0001
0000
0010
0100
1000
0000
0001
0000
0010
0000
0100
0000
1000
0000
,
0001
0100
0001
0000
1000
0010
0100
0000
0001
0000
0010
0000
0001
0000
1000
0000
,
0200
1000
0301
0000
0100
0010
1000
0000
0001
0000
0010
0000
0100
0000
1000
0000
,
0002
0010
0103
0000
1000
0100
1000
0000
0001
0000
0100
0000
0001
1000
0100
0010
,
0001
1000
0001
0000
0100
0001
0100
0000
0010
0000
1000
0000
0100
0000
0010
0000
,
0001
1000
0001
0000
1000
0100
0010
0000
0001
0000
0100
0000
0010
0000
1000
0000
,
0002
0010
0103
0000
1000
0001
1000
0000
0001
0000
0100
0000
0010
0000
1000
0000
,
0002
0010
0103
0000
1000
0010
1000
0000
0001
0000
0100
0000
0001
1000
0100
1000
,
0001
0100
0010
1000
0100
1000
0010
0100
0001
0010
0001
0100
0010
1000
0100
1000
,
0010
0100
0001
0010
0001
0100
0010
1000
0100
0010
0001
0100
0010
1000
0100
0010
,
0001
0100
0010
1000
0001
0010
0100
1000
0010
0100
0001
0010
0100
1000
0010
0100
,
0002
0000
0000
M000
0000
0000
M000
0000
,
0003
0000
0000
0000
;

//---------------dance-single - J. Nero----------------
#NOTES:
     dance-single:
     J. Nero:
     Easy:
     15:
     1.000,1.000,0.033,0.267,0.976,1068.000,4.000,32.000,20.000,0.000:
0000
0000
0000
0000
,
2000
0000
3100
0000
0010
0000
0100
0000
1000
0100
1000
0000
0001
0010
0100
0000
,
2000
3010
0100
0001
0100
0100
0100
0010
,
1000
0001
0100
0001
1000
0100
0010
0100
1000
0001
0100
0010
0100
0001
0010
0100
,
2000
0000
3010
0000
0100
0000
0001
0000
0010
0000
0100
0000
1000
0000
0001
0100
,
0020
0000
0130
0000
0001
0000
1000
0000
0100
1000
0100
0000
1000
0001
0100
0000
,
0002
0013
0100
1000
0100
0100
0100
1000
,
0001
0100
0001
1000
0010
0100
0010
1000
0001
0010
0100
1000
0001
0100
0001
1000
,
0010
0100
0010
1000
0001
1000
0100
0010
0001
1000
0100
1000
0001
0100
0010
0100
,
0001
1000
0001
0010
0100
1000
0001
0100
0010
0100
0001
1000
0100
0010
0001
1000
,
0001
0000
0100
0000
0010
0000
0100
0000
0001
0000
0010
0000
0100
1000
0001
1000
,
0010
0100
0001
0010
0100
1000
0010
0100
,
0001
1000
0100
0010
0001
0100
0010
0100
,
0001
1000
0001
0010
0001
0100
0001
0010
,
0100
0000
0000
0000
1100
0000
0000
0000
1000
0000
0001
0000
0010
0100
1000
0001
,
1000
0001
0010
0100
0010
0001
0100
0010
,
0100
0001
0010
0100
1000
0010
0100
0001
,
1000
0100
1000
0001
1000
0010
0100
0001
,
0010
0000
0000
0000
0110
0000
0000
0000
0100
0000
1000
0000
0001
0100
0001
1000
,
0010
0100
0001
1000
0100
0010
0100
1000
,
0001
0100
0010
0100
0001
0010
0100
1000
,
0001
0100
0001
1000
0001
0010
0100
1000
,
0100
0000
0000
0000
1100
0000
0000
0000
1000
0000
0100
0000
1000
0001
0010
0100
,
1000
0001
0100
0010
0100
0001
0010
0100
,
1000
0010
0100
0010
1000
0100
0010
0001
,
1000
0100
1000
0001
1000
0010
0100
0001
,
1000
0000
0000
0000
1001
0000
0000
0000
0001
0000
0100
0000
0001
0100
0010
0100
,
0001
0000
1000
0100
1000
0001
0010
0100
1000
0001
0100
0001
1000
0010
0100
0000
,
0001
0100
0001
1000
0010
1000
0100
0010
0001
0000
1000
0000
0001
0000
0100
0000
,
0000
0000
0001
0100
0001
1000
0100
1000
0001
0100
0010
1000
0010
0100
0001
0000
,
1000
0100
1000
0001
0010
0100
1000
0001
0100
0000
0001
0000
1000
0000
0100
0000
,
0000
0000
1000
0100
0010
0001
0100
0010
1000
0100
0010
0001
0100
0010
1000
0000
,
0001
0100
0001
1000
0100
0010
0001
1000
0001
0000
0100
0000
0010
0000
0100
0000
,
0000
0000
0001
0010
0100
1000
0010
0100
0001
0010
0100
1000
0010
0100
0001
0000
,
1000
0100
1000
0001
0010
0100
1000
0001
1000
0000
0010
0000
0100
0000
0001
0000
,
1000
0000
0100
0000
1000
0000
0010
0000
0100
0001
0100
0000
0001
0010
0100
0000
,
1000
0000
0001
0000
0100
0000
0010
0000
1000
0100
1000
0000
0001
1000
0001
0000
,
2000
0000
3010
0000
0100
0000
0001
0000
0010
0100
1000
0000
0001
1000
0001
0000
,
0200
0000
0301
0000
1000
0000
0010
0000
0100
0001
0100
0000
0001
0010
0100
0000
,
1000
0000
0010
0000
0100
0000
0001
0000
0100
0001
0100
0000
0001
0010
0100
0000
,
1000
0000
0010
0000
0100
0000
0010
0000
1000
0001
0100
0000
0001
1000
0001
0000
,
2000
0000
3001
0000
0100
0000
0010
0000
0100
0010
0100
0000
0001
1000
0001
0000
,
0200
0000
0301
0000
1000
0000
0010
0000
1000
0100
1000
0000
0001
0010
0100
0000
,
1000
0000
0010
0000
1000
0000
0100
0000
0010
0001
0010
0000
0001
0100
0010
0000
,
1000
0000
0001
0000
0010
0000
0100
0000
1000
0010
1000
0000
0001
1000
0001
0000
,
0200
0000
0301
0000
1000
0000
0001
0000
0100
0010
1000
0000
0001
1000
0001
0000
,
0020
0000
0031
0000
1000
0000
0100
0000
0010
0001
0100
0000
0001
0100
0010
0000
,
1000
0000
0100
0000
0010
0000
0001
0000
0010
0001
0010
0000
0001
0100
0010
0000
,
1000
0000
0100
0000
0010
0000
0100
0000
1000
0001
0010
0000
0001
1000
0001
0000
,
2000
0000
3001
0000
0100
0000
0010
0000
1000
0100
0010
0000
0001
1000
0001
0000
,
0020
0000
0031
0000
1000
0000
0100
0000
1000
0010
1000
0000
0001
0100
0001
0000
,
1000
0000
0100
0000
0010
0000
0001
0000
0100
0000
0010
0000
1000
0001
1000
0000
,
0001
0000
0010
0000
0100
0000
1000
0000
0010
0000
0100
0000
0001
1000
0100
0000
,
0010
0000
0100
0000
1000
0000
0001
0000
0100
0000
0010
0000
0100
0001
0100
0000
,
0001
0000
1000
0000
0001
0100
0000
0001
2000
0000
3100
0000
0010
0001
0010
0000
,
0001
0000
0100
0000
0010
0000
0100
0000
0001
0000
1000
0000
0100
0010
0001
0000
,
1000
0000
0100
0000
0010
0000
0100
0000
1000
0000
0010
0000
0100
0001
0100
0000
,
0001
0000
0100
0000
0010
0000
0100
0000
0001
0000
0010
0000
0100
1000
0001
0000
,
1000
0100
1000
0001
0010
0100
1000
0001
0100
0001
1000
0010
0100
0001
1000
0010
,
1000
0000
0001
0000
0010
0000
0100
0000
1000
0000
0010
0000
0100
0010
0100
0000
,
0001
0000
0010
0000
0100
0000
1000
0000
0001
0000
0100
0000
0010
1000
0010
0000
,
1000
0000
0100
0000
0010
0000
0100
0000
1000
0000
0001
0000
0100
0010
0100
0000
,
0001
0000
0010
0000
0100
0000
1000
0000
0010
0100
0010
1000
0001
1000
0100
0010
,
0001
0000
0100
0000
0010
0000
0100
0000
0001
0000
0010
0000
0100
1000
0001
0000
,
1000
0000
0100
0000
0010
0000
0100
0000
1000
0000
0001
0000
0100
0010
0100
0000
,
0001
0000
0010
0000
0100
0000
1000
0000
0010
0000
0100
0000
0001
0100
0001
0000
,
1000
0000
0100
0000
0010
0000
0001
0000
1000
0100
0010
0001
1000
0010
0100
0001
,
2000
3000
0000
0000
0000
0000
0000
0000
0MM0
0000
0000
0000
0000
0000
0000
0000
0MM0
0000
0000
0000
0000
0000
0000
0000
0MM0
0000
0000
0000
0000
0000
0000
0000
0MM0
0000
0000
0000
0000
0000
0000
0000
0MM0
0000
0000
0000
0000
0000
0000
0000
0MM0
0000
0000
0000
0000
0000
0000
0000
0MM0
0000
0000
0000
0000
0000
0000
0000
,
0000
0000
0000
0000
,
0000
0000
0000
0000
,
0001
0100
0001
0100
0000
0001
0010
0100
,
1000
0010
0000
0000
1000
0100
0010
0100
,
1000
0001
0100
0010
0000
1000
0100
0010
,
0100
1000
0000
0000
0001
0100
0010
0100
,
0001
0010
0100
1000
0000
0001
0100
0010
,
0100
0001
0000
0000
1000
0100
0010
0100
,
1000
0010
0100
0001
0000
0100
0001
1000
,
0100
0000
1000
0000
0000
0000
0000
0000
0001
0100
0001
1000
0100
0010
0001
1000
,
0001
0000
1000
0000
0001
0000
0100
0000
0010
1000
0010
0000
1000
0100
0010
0000
,
0001
0000
1000
0000
0010
0000
0100
0000
0001
0010
0001
0000
1000
0001
1000
0000
,
0002
0000
0103
0000
0010
0000
1000
0000
0100
0010
0001
0000
1000
0001
1000
0000
,
0020
0000
1030
0000
0001
0000
0100
0000
0010
1000
0010
0000
1000
0100
0010
0000
,
0001
0000
0100
0000
0010
0000
1000
0000
0010
1000
0010
0000
1000
0100
0010
0000
,
0001
0000
0100
0000
0010
0000
0100
0000
0001
1000
0010
0000
1000
0001
1000
0000
,
0002
0000
1003
0000
0010
0000
0100
0000
0010
0100
0010
0000
1000
0001
1000
0000
,
0020
0000
1030
0000
0001
0000
0100
0000
0001
0010
0001
0000
1000
0100
0010
0000
,
0001
0000
0100
0000
0001
0000
0010
0000
0100
1000
0100
0000
1000
0010
0100
0000
,
0001
0000
1000
0000
0100
0000
0010
0000
0001
0100
0001
0000
1000
0001
1000
0000
,
0020
0000
1030
0000
0001
0000
1000
0000
0010
0100
0001
0000
1000
0001
1000
0000
,
0200
0000
1300
0000
0001
0000
0010
0000
0100
1000
0010
0000
1000
0010
0100
0000
,
0001
0000
0010
0000
0100
0000
1000
0000
0100
1000
0100
0000
1000
0010
0100
0000
,
0001
0000
0010
0000
0100
0000
0010
0000
0001
1000
0100
0000
1000
0001
1000
0000
,
0002
0000
1003
0000
0010
0000
0100
0000
0001
0010
0100
0000
1000
0001
1000
0000
,
0200
0000
1300
0000
0001
0000
0010
0000
0001
0100
0001
0000
1000
0010
1000
0000
,
0001
1000
0100
0010
0100
1000
0001
0100
,
0010
0000
0000
0000
0000
0000
0000
0000
1000
0000
0100
M000
0100
0000
0001
0000
,
2000
3001
0010
0100
0010
0001
1000
0010
,
0200
0000
0300
0000
0000
0000
0000
0000
0001
0000
0100
000M
0100
0000
1000
0000
,
0001
1000
0100
0010
0100
1000
0001
0100
,
0010
0000
0000
0000
0000
0000
0000
0000
1000
0000
0100
M000
0100
0000
0001
0000
,
2000
3001
0010
0100
0010
0001
1000
0010
,
0200
0000
0300
0000
0000
0000
0000
0000
0001
0000
0100
000M
0100
0000
1000
0000
,
0001
0100
0001
0000
0010
0100
1000
0000
0001
0000
0010
0000
0100
0000
1000
0000
,
0001
0100
0001
0000
1000
0010
0100
0000
0001
0000
0010
0000
0001
0000
1000
0000
,
0200
1000
0301
0000
0100
0010
1000
0000
0001
0000
0010
0000
0100
0000
1000
0000
,
0002
0010
0103
0000
1000
0100
1000
0000
0001
0000
0100
0000
0001
1000
0100
0010
,
0001
1000
0001
0000
0100
0001
0100
0000
0010
0000
1000
0000
0100
0000
0010
0000
,
0001
1000
0001
0000
1000
0100
0010
0000
0001
0000
0100
0000
0010
0000
1000
0000
,
0002
0010
0103
0000
1000
0001
1000
0000
0001
0000
0100
0000
0010
0000
1000
0000
,
0002
0010
0103
0000
1000
0010
1000
0000
0001
0000
0100
0000
0001
1000
0100
1000
,
0001
0100
0010
1000
0100
1000
0010
0100
0001
0010
0001
0100
0010
1000
0100
1000
,
0010
0100
0001
0010
0001
0100
0010
1000
0100
0010
0001
0100
0010
1000
0100
0010
,
0001
0100
0010
1000
0001
0010
0100
1000
0010
0100
0001
0010
0100
1000
0010
0100
,
0002
0000
0000
M000
0000
0000
M000
0000
,
0003
0000
0000
0000
;
