#TITLE:TURKEY MARCH;
#SUBTITLE:;
#ARTIST:BANYA;
#TITLETRANSLIT:;
#SUBTITLETRANSLIT:;
#ARTISTTRANSLIT:;
#CREDIT:;
#BANNER:Turkey March.png;
#BACKGROUND:Turkey March-bg.png;
#LYRICSPATH:;
#CDTITLE:;
#MUSIC:Turkey March.mp3;
#OFFSET:0.056;
#SAMPLESTART:72.680;
#SAMPLELENGTH:12.000;
#SELECTABLE:YES;
#DISPLAYBPM:150.000;
#BPMS:0.000=150.000,235.500=130.000,235.750=120.000,236.000=110.000,236.250=100.000,236.500=90.000,236.750=80.000,237.000=70.000,237.250=60.000,237.500=50.000,237.750=40.000,238.000=30.000;
#STOPS:;
#BGCHANGES:;
// cache tags:
#FIRSTBEAT:15.000;
#LASTBEAT:238.500;
#SONGFILENAME:Songs/IzzySM Keyboard Mega Pack/Turkey March another/Turkey March.sm;
#HASMUSIC:1;
#HASBANNER:1;
#MUSICLENGTH:101.642;
// end cache tags

//---------------dance-single - ----------------
#NOTES:
     dance-single:
     :
     Easy:
     4:
     0.323,0.376,0.138,0.079,0.000,208.000,14.000,8.000,0.000,0.000:  // measure 1
0000
0000
0000
0000
,  // measure 2
0000
0000
0000
0000
,  // measure 3
0000
0000
0000
0000
,  // measure 4
0000
0000
0000
1100
,  // measure 5
1000
1100
0001
0101
,  // measure 6
0010
0010
1000
1000
,  // measure 7
0011
1010
1000
0100
,  // measure 8
0100
0010
0010
0001
,  // measure 9
1000
0001
1000
0010
,  // measure 10
0100
0001
1000
0001
,  // measure 11
0001
0010
0100
1000
,  // measure 12
1000
0010
0010
0100
,  // measure 13
0100
0100
0001
1000
,  // measure 14
0001
0000
0001
1000
,  // measure 15
0001
0000
1000
0100
,  // measure 16
1000
0000
1000
0100
,  // measure 17
1000
0000
0001
0100
,  // measure 18
0010
1000
0001
0010
,  // measure 19
0010
0100
1000
0010
,  // measure 20
0010
0100
0100
0001
,  // measure 21
1000
0002
0003
0020
,  // measure 22
0000
0200
0330
1000
,  // measure 23
0001
0100
0001
0000
1000
0000
0100
0000
,  // measure 24
0100
0010
0001
1000
,  // measure 25
0010
0010
1000
0001
,  // measure 26
0010
0100
0010
0001
,  // measure 27
1000
0010
1000
0000
0001
0000
0100
0000
,  // measure 28
0100
0010
1000
0001
,  // measure 29
1000
0100
0100
0010
,  // measure 30
0010
0001
0000
1000
,  // measure 31
0000
1000
0000
0001
,  // measure 32
0000
0001
0000
0100
,  // measure 33
0000
0100
0000
0010
,  // measure 34
0000
0010
1000
0001
,  // measure 35
0001
0010
0010
0100
,  // measure 36
0100
1000
1000
0001
,  // measure 37
0001
0100
0100
0010
,  // measure 38
0010
1000
1010
0001
,  // measure 39
0010
0100
1000
0001
,  // measure 40
0010
0100
1000
0001
,  // measure 41
0100
0010
1000
0010
,  // measure 42
0010
0000
1000
0000
0001
1000
0002
0000
,  // measure 43
1000
0000
1003
0000
1000
0001
2000
0000
,  // measure 44
0001
3001
1000
0010
,  // measure 45
0100
0010
0100
0010
,  // measure 46
0100
0000
0001
0000
1000
0001
2000
0000
,  // measure 47
0001
0000
3001
0000
0001
1000
0002
0000
,  // measure 48
1000
1003
0001
0100
,  // measure 49
0010
0100
0010
0100
,  // measure 50
0010
1000
1000
0001
,  // measure 51
1000
0000
1000
0001
,  // measure 52
1000
0000
0001
0100
,  // measure 53
0001
0000
0001
0100
,  // measure 54
0001
0000
1000
1100
,  // measure 55
0001
0101
1000
0011
,  // measure 56
0011
0011
1000
0010
,  // measure 57
0010
0100
0100
0001
,  // measure 58
1000
0200
0310
0011
,  // measure 59
0001
0011
1000
1010
;

//---------------dance-single - ----------------
#NOTES:
     dance-single:
     :
     Medium:
     8:
     0.547,0.499,0.197,0.197,0.074,349.000,20.000,20.000,0.000,0.000:  // measure 1
0000
0000
0000
0000
,  // measure 2
0000
0000
0000
0000
,  // measure 3
0000
0000
0000
0000
,  // measure 4
0000
0000
0000
1100
,  // measure 5
0001
0000
0101
0000
0010
1000
0001
0000
,  // measure 6
0010
0000
0001
0000
1000
0000
0000
0000
0010
0000
1000
0000
0001
0010
0000
0000
,  // measure 7
0001
0010
0000
0000
0011
0000
0000
0000
0100
0000
1000
0000
0001
0000
0100
0000
,  // measure 8
0010
0100
0001
0100
0010
0100
0001
0100
,  // measure 9
0010
1000
0100
0000
0010
0001
1000
0000
,  // measure 10
0010
0000
1000
0000
0001
0000
0000
0000
0010
0000
0001
0000
1000
0010
0000
0000
,  // measure 11
1000
0010
0000
0000
1010
0000
0000
0000
0100
0000
0001
0000
1000
0000
0100
0000
,  // measure 12
0010
0100
1000
0100
0010
0100
1000
0100
,  // measure 13
0010
0001
0100
0000
0001
0010
0100
2000
,  // measure 14
0001
0000
3001
0000
0001
0010
0100
2000
,  // measure 15
0001
0000
3001
0000
1000
0010
0100
0002
,  // measure 16
1000
0000
1003
0000
1000
0010
0100
0002
,  // measure 17
1000
1003
0010
0101
,  // measure 18
0001
0000
0000
0000
1100
0000
0000
0000
0010
0000
0000
0000
0001
1000
0000
0000
,  // measure 19
0001
1000
0000
0000
1001
0000
0000
0000
0100
0000
1000
0000
0001
0000
0100
0000
,  // measure 20
0001
0010
0001
0100
0001
1000
0100
0100
,  // measure 21
0010
0010
0002
0000
0003
0000
2000
0000
,  // measure 22
3000
0202
0303
1010
,  // measure 23
0001
0010
0100
1000
0010
0001
0010
1000
,  // measure 24
0001
0100
0010
0100
0001
1000
0100
0000
,  // measure 25
0010
1000
0010
0001
0100
0001
1000
0010
,  // measure 26
0100
0010
1000
0000
0001
0000
0110
0000
,  // measure 27
0001
1000
0010
0001
0010
1000
0001
0010
,  // measure 28
0100
0001
0100
1000
0001
1000
0010
0000
,  // measure 29
0100
0001
1000
0100
0010
0100
0010
0001
,  // measure 30
1000
0010
0100
1000
0100
0001
1000
0000
,  // measure 31
0011
0100
1000
0001
,  // measure 32
1010
0100
0010
1000
,  // measure 33
0101
0001
0010
0100
,  // measure 34
1100
0000
1000
0000
0010
0000
0100
0001
,  // measure 35
1000
0001
0100
0001
1000
0001
0010
0001
,  // measure 36
1000
0001
0010
0001
1000
0001
0100
0010
,  // measure 37
1000
0010
0100
0010
1000
0001
0020
0000
,  // measure 38
0230
0000
2000
0000
3300
0000
0001
1000
,  // measure 39
0010
0100
0001
1000
0010
0100
0001
1000
,  // measure 40
0010
1000
0001
1000
0010
0100
0001
1000
,  // measure 41
0100
0010
0001
1000
0100
0010
0002
0000
,  // measure 42
2003
0000
3010
0000
0100
0001
1000
0000
,  // measure 43
0100
0000
1000
0000
0001
0000
0000
0000
0100
0000
0001
0000
1000
0100
0000
0000
,  // measure 44
1000
0100
0000
0000
1100
0000
0000
0000
0010
0000
0001
0000
1000
0000
0010
0000
,  // measure 45
0100
0010
1000
0010
0100
0010
1000
0010
,  // measure 46
0100
0001
0010
0000
0100
1000
0001
0000
,  // measure 47
0100
0000
0001
0000
1000
0000
0000
0000
0100
0000
1000
0000
0001
0100
0000
0000
,  // measure 48
0001
0100
0000
0000
0101
0000
0000
0000
0010
0000
1000
0000
0001
0000
0010
0000
,  // measure 49
0100
0010
0001
0010
0100
0010
0001
0010
,  // measure 50
0100
1000
0010
0000
1000
0100
0010
0002
,  // measure 51
1000
0000
1003
0000
1000
0100
0010
0002
,  // measure 52
1000
0000
1003
0000
0001
0100
0010
2000
,  // measure 53
0001
0000
3001
0000
0001
0100
0010
2000
,  // measure 54
0001
0000
0000
0000
3001
0000
0000
0000
1000
0000
0000
0100
1000
0000
0000
0000
,  // measure 55
0001
0000
0000
0100
0001
0000
0000
0000
1000
0000
0000
0001
0010
0000
0000
0010
,  // measure 56
0100
0000
0000
0100
1000
0000
0000
0000
0001
0000
0100
0000
0010
0000
1000
0000
,  // measure 57
0010
0100
0001
0010
0100
1000
0020
0000
,  // measure 58
0130
1001
0000
0101
,  // measure 59
1000
1100
0001
2002
,  // measure 60
0000
0000
0000
0000
0000
3003
0000
0000
;

//---------------dance-single - ----------------
#NOTES:
     dance-single:
     :
     Hard:
     10:
     0.824,0.909,0.472,0.128,0.615,525.000,48.000,13.000,0.000,0.000:  // measure 1
0000
0000
0000
0000
,  // measure 2
0000
0000
0000
0000
,  // measure 3
0000
0000
0000
0000
,  // measure 4
0000
0000
0000
0000
0000
0000
0011
1000
,  // measure 5
0001
0100
0001
0100
0001
0000
1000
0000
0100
0010
0100
0010
0100
0000
0000
0000
,  // measure 6
1000
0100
1000
0100
1000
0000
0000
0000
0001
0100
0001
0100
0001
0010
0100
1000
,  // measure 7
0001
0010
0100
1000
0001
0000
0100
0000
0010
0000
1000
0000
1001
0000
0010
0000
,  // measure 8
0100
0010
1001
0100
0010
0100
1001
0100
,  // measure 9
0011
0000
0100
0000
1001
0000
0000
0000
0001
0100
0010
0100
0001
0000
0000
0000
,  // measure 10
1000
0100
0010
0100
1000
0000
0000
0000
0001
0100
0010
0100
0001
1000
0010
0100
,  // measure 11
0001
0100
0010
1000
0001
0000
1000
0000
0001
0000
0010
0000
1100
0000
0001
0000
,  // measure 12
0010
0000
0001
1000
0100
0000
0010
0000
0001
0000
1000
0010
1000
0000
0001
0000
,  // measure 13
0101
0010
1001
0000
1000
0010
0100
0001
,  // measure 14
0010
0001
0010
0001
1000
0000
0000
0000
1000
0000
0010
0000
0100
0000
0001
0000
,  // measure 15
0010
0001
0010
0001
1000
0000
0000
0000
0001
0000
0010
0000
0100
0000
1000
0000
,  // measure 16
0010
1000
0010
1000
0001
0000
0000
0000
0001
0000
0010
0000
0100
0000
1000
0000
,  // measure 17
0010
1000
0010
1000
0001
0000
0010
0000
0100
1000
0100
1000
0100
0000
1000
0000
,  // measure 18
0001
0100
0001
0100
0001
0000
0010
0000
0100
1000
0001
1000
0100
0010
0001
1000
,  // measure 19
0001
0010
0100
1000
0001
0000
0100
0000
0010
0000
1000
0000
0011
0000
1000
0000
,  // measure 20
0100
1000
0011
1000
0100
1000
0001
0001
,  // measure 21
0100
0100
0020
0000
0030
0000
0202
0000
,  // measure 22
0303
0000
2200
0000
3300
0000
0110
0001
,  // measure 23
1000
0001
0110
1000
0001
1000
1001
0100
,  // measure 24
1010
0100
1001
0100
0010
0100
1001
0000
,  // measure 25
0001
0100
0101
0001
0010
0100
1000
1000
,  // measure 26
1000
0001
0110
0000
0010
0100
1001
0000
,  // measure 27
0001
1000
1010
0010
0100
0001
1001
0010
,  // measure 28
0101
0010
1001
0100
1000
0010
1001
0000
,  // measure 29
0100
0010
1001
0010
0100
0010
1001
0010
,  // measure 30
1100
0000
0010
0000
1001
0000
1000
0000
0001
0100
0001
0100
0001
0000
0010
0000
,  // measure 31
1100
0000
0000
1000
0010
1000
0001
0000
0101
0000
0000
0100
0010
0000
1000
0000
,  // measure 32
1010
0000
0000
0001
0010
0001
1000
0000
1100
0000
0000
0100
0010
0000
0001
0000
,  // measure 33
0011
0000
0000
0001
0100
0001
1000
0000
1010
0000
0000
0001
0010
0000
0100
0000
,  // measure 34
1100
0000
0000
1000
0001
1000
0010
0000
0100
0000
0100
0000
0001
1000
0001
1000
,  // measure 35
0010
1000
0010
1000
0001
0010
0001
0010
0100
1000
0100
1000
0001
0100
0010
1000
,  // measure 36
0100
0010
0001
1000
0010
0100
0001
1000
0100
0010
0001
1000
0001
0000
0100
0000
,  // measure 37
0010
0100
0001
1000
0001
0100
0020
0000
,  // measure 38
2030
0000
0000
0000
0002
0000
0000
0000
3003
0000
0000
0000
1000
0010
0100
0000
,  // measure 39
0001
0000
1000
0000
0001
1000
0010
0000
0100
0000
0001
0000
1000
0100
0010
0000
,  // measure 40
0001
0000
0100
0000
0010
1000
0001
0000
0100
0000
0010
0000
1000
0001
1000
0000
,  // measure 41
0001
1000
0001
0000
1000
0001
0100
0000
0001
1000
0010
0000
0100
0000
0010
0000
,  // measure 42
1000
0000
0001
0000
0110
0000
0000
0000
1000
0100
1000
0100
1000
0000
0000
0000
,  // measure 43
0001
0100
0001
0100
0001
0000
0000
0000
1000
0010
0100
0010
1000
0001
0100
0001
,  // measure 44
1000
0100
0010
0001
1000
0000
0010
0000
0100
0000
0001
0000
1100
0000
0001
0000
,  // measure 45
0010
0001
1100
0001
0010
0001
1100
0001
,  // measure 46
0100
0000
0001
0000
1010
0000
0001
0000
0010
0100
1000
0100
0010
0000
0001
0000
,  // measure 47
1000
0010
0100
0010
1000
0000
0100
0000
0010
0001
0010
0001
1000
0010
0100
0010
,  // measure 48
1000
0001
0010
0100
1000
0000
0001
0000
0100
0000
0010
1000
0001
0000
0100
0000
,  // measure 49
0001
0000
1000
0100
0010
0000
0001
0000
1000
0000
0010
0100
0001
0000
1000
0000
,  // measure 50
0100
0010
0200
0000
1300
0001
0100
0010
,  // measure 51
1000
0010
1000
0010
1000
0000
0001
0000
0100
0000
0001
0000
1000
0000
0100
0000
,  // measure 52
0010
0001
0010
0001
0010
0000
0100
0000
1000
0000
0001
0000
0100
0000
0010
0000
,  // measure 53
1000
0100
1000
0100
1000
0000
0001
0000
0100
0000
0010
0000
1000
0000
0001
0000
,  // measure 54
0010
0001
0010
0001
0010
0000
0100
0000
1000
0001
0100
0001
1000
0000
0010
0000
,  // measure 55
1000
0001
0100
0001
1000
0000
0010
0000
0100
0001
1000
0001
0100
0010
1000
0001
,  // measure 56
1000
0001
0010
0100
1000
0000
0001
0000
0100
0000
0010
0000
0110
0000
0001
0000
,  // measure 57
1000
0001
0110
1000
0001
1000
0110
0001
,  // measure 58
1010
0001
0220
0000
0330
0000
0010
1000
,  // measure 59
0001
0010
0100
0010
0001
0000
1000
0000
0010
0100
0001
1000
0020
0000
0000
0000
,  // measure 60
0000
0000
0000
0000
0000
0200
0000
0000
0000
0000
0330
0000
0000
0000
0000
0000
;
