#TITLE:Clarity;
#SUBTITLE:(Headhunterz Remix);
#ARTIST:Zedd Remixed by Headhunterz feat. Nightcore;
#TITLETRANSLIT:;
#SUBTITLETRANSLIT:;
#ARTISTTRANSLIT:;
#CREDIT:owenviau1;
#BANNER:../owenviau1 Simfiles 5-bn.png;
#BACKGROUND:../owenviau1 Simfiles 5-bg.png;
#LYRICSPATH:;
#CDTITLE:../ov1_title.png;
#MUSIC:Nightcore - Clarity (Headhunterz Remix).mp3;
#OFFSET:-1.455;
#SAMPLESTART:72.003;
#SAMPLELENGTH:29.999;
#SELECTABLE:YES;
#DISPLAYBPM:183.600;
#BPMS:0.000=183.603,55.000=183.592,56.000=183.603,64.000=183.592,65.000=183.603,67.000=183.592,68.000=183.603,69.000=183.592,70.000=183.603,72.000=183.592,73.000=183.603,75.000=183.592,76.000=183.603,77.000=183.592,78.000=183.603,80.000=183.592,81.000=183.603,83.000=183.592,84.000=183.603,85.000=183.592,86.000=183.603,88.000=183.592,89.000=183.603,91.000=183.592,92.000=183.603,93.000=183.592,94.000=183.603,96.000=183.592,97.000=183.603,99.000=183.592,100.000=183.603,101.000=183.592,102.000=183.603,104.000=183.592,105.000=183.603,107.000=183.592,108.000=183.603,109.000=183.592,110.000=183.603,112.000=183.592,113.000=183.603,115.000=183.592,116.000=183.603,117.000=183.592,118.000=183.603,120.000=183.592,121.000=183.603,123.000=183.592,124.000=183.603,125.000=183.592,126.000=183.603,128.000=183.592,129.000=183.603,131.000=183.592,132.000=183.603,135.000=183.592,136.000=183.603,139.000=183.592,140.000=183.603,143.000=183.592,144.000=183.603,147.000=183.592,148.000=183.603,151.000=183.592,152.000=183.603,155.000=183.592,156.000=183.603,159.000=183.592,160.000=183.603,163.000=183.592,164.000=183.603,167.000=183.592,168.000=183.603,171.000=183.592,172.000=183.603,175.000=183.592,176.000=183.603,179.000=183.592,180.000=183.603,183.000=183.592,184.000=183.603,187.000=183.592,188.000=183.603,191.000=183.592,192.000=183.603,195.000=183.592,196.000=183.603,199.000=183.592,200.000=183.603,203.000=183.592,204.000=183.603,207.000=183.592,208.000=183.603,211.000=183.592,212.000=183.603,215.000=183.592,216.000=183.603,219.000=183.592,220.000=183.603,223.000=183.592,224.000=183.603,227.000=183.592,228.000=183.603,231.000=183.592,232.000=183.603,235.000=183.592,236.000=183.603,239.000=183.592,240.000=183.603,243.000=183.592,244.000=183.603,247.000=183.592,248.000=183.603,251.000=183.592,252.000=183.603,255.000=183.592,256.000=183.603,259.000=183.592,260.000=183.603,262.000=183.592,263.000=183.603,264.000=183.592,265.000=183.603,266.000=183.592,267.000=183.603,268.000=183.592,269.000=183.603,270.000=183.592,271.000=183.603,272.000=183.592,273.000=183.603,274.000=183.592,275.000=183.603,276.000=183.592,277.000=183.603,278.000=183.592,279.000=183.603,280.000=183.592,281.000=183.603,282.000=183.592,283.000=183.603,284.000=183.592,285.000=183.603,286.000=183.592,287.000=183.603,288.000=183.592,289.000=183.603,290.000=183.592,291.000=183.603,292.000=183.592,293.000=183.603,294.000=183.592,295.000=183.603,296.000=183.592,297.000=183.603,298.000=183.592,299.000=183.603,300.000=183.592,301.000=183.603,302.000=183.592,303.000=183.603,304.000=183.592,305.000=183.603,306.000=183.592,307.000=183.603,308.000=183.592,309.000=183.603,310.000=183.592,311.000=183.603,312.000=183.592,313.000=183.603,314.000=183.592,315.000=183.603,316.000=183.592,317.000=183.603,318.000=183.592,319.000=183.603,320.000=183.592,321.000=183.603,322.000=183.592,323.000=183.603,324.000=183.592,325.000=183.603,326.000=183.592,327.000=183.603,328.000=183.592,329.000=183.603,330.000=183.592,331.000=183.603,332.000=183.592,333.000=183.603,334.000=183.592,335.000=183.603,336.000=183.592,337.000=183.603,338.000=183.592,339.000=183.603,340.000=183.592,341.000=183.603,342.000=183.592,343.000=183.603,344.000=183.592,345.000=183.603,346.000=183.592,347.000=183.603,348.000=183.592,349.000=183.603,350.000=183.592,351.000=183.603,352.000=183.592,353.000=183.603,354.000=183.592,355.000=183.603,356.000=183.592,357.000=183.603,358.000=183.592,359.000=183.603,360.000=183.592,361.000=183.603,362.000=183.592,363.000=183.603,364.000=183.592,365.000=183.603,366.000=183.592,367.000=183.603,368.000=183.592,369.000=183.603,370.000=183.592,371.000=183.603,372.000=183.592,373.000=183.603,374.000=183.592,375.000=183.603,376.000=183.592,377.000=183.603,378.000=183.592,379.000=183.603,380.000=183.592,381.000=183.603,382.000=183.592,383.000=183.603,384.000=183.592,385.000=183.603,386.000=183.592,387.000=183.603,388.000=183.592,389.000=183.603,390.000=183.592,391.000=183.603,392.000=183.592,393.000=183.603,394.000=183.592,395.000=183.603,396.000=183.592,397.000=183.603,398.000=183.592,399.000=183.603,400.000=183.592,401.000=183.603,402.000=183.592,403.000=183.603,404.000=183.592,405.000=183.603,406.000=183.592,407.000=183.603,408.000=183.592,409.000=183.603,410.000=183.592,411.000=183.603,412.000=183.592,413.000=183.603,414.000=183.592,415.000=183.603,416.000=183.592,417.000=183.603,418.000=183.592,419.000=183.603,420.000=183.592,421.000=183.603,422.000=183.592,423.000=183.603,424.000=183.592,425.000=183.603,426.000=183.592,427.000=183.603,428.000=183.592,429.000=183.603,430.000=183.592,431.000=183.603,432.000=183.592,433.000=183.603,434.000=183.592,435.000=183.603,436.000=183.592,437.000=183.603,438.000=183.592,439.000=183.603,440.000=183.592,441.000=183.603,442.000=183.592,443.000=183.603,444.000=183.592,445.000=183.603,446.000=183.592,447.000=183.603,448.000=183.592,449.000=183.603,450.000=183.592,451.000=183.603,452.000=183.592,453.000=183.603,454.000=183.592,455.000=183.603,456.000=183.592,457.000=183.603,458.000=183.592,459.000=183.603,460.000=183.592,461.000=183.603,462.000=183.592,463.000=183.603,464.000=183.592,465.000=183.603,466.000=183.592,467.000=183.603,468.000=183.592,469.000=183.603,470.000=183.592,471.000=183.603,472.000=183.592,473.000=183.603,474.000=183.592,475.000=183.603,476.000=183.592,477.000=183.603,478.000=183.592,479.000=183.603,480.000=183.592,481.000=183.603,482.000=183.592,483.000=183.603,484.000=183.592,485.000=183.603,486.000=183.592,487.000=183.603,488.000=183.592,489.000=183.603,490.000=183.592,491.000=183.603,492.000=183.592,493.000=183.603,494.000=183.592,495.000=183.603,496.000=183.592,497.000=183.603,498.000=183.592,499.000=183.603,500.000=183.592,501.000=183.603,502.000=183.592,503.000=183.603,504.000=183.592,505.000=183.603,506.000=183.592,507.000=183.603,508.000=183.592,509.000=183.603,510.000=183.592,511.000=183.603,512.000=183.592,513.000=183.603,514.000=183.592,515.000=183.603,516.000=183.592,517.000=183.603,518.000=183.592,519.000=183.603,520.000=183.592,521.000=183.603,522.000=183.592,523.000=183.603,524.000=183.592,525.000=183.603,526.000=183.592,527.000=183.603,528.000=183.592,529.000=183.603,530.000=183.592,531.000=183.603,558.000=183.592,559.000=183.603,586.000=183.592,587.000=183.603;
#STOPS:;
#BGCHANGES:;
// cache tags:
#FIRSTBEAT:24.000;
#LASTBEAT:584.000;
#SONGFILENAME:Songs/owenviau1 Simfiles 5/Clarity (Headhunterz Remix) - [owenviau1] v1.2/Clarity.sm;
#HASMUSIC:1;
#HASBANNER:1;
#MUSICLENGTH:197.309;
// end cache tags

//---------------dance-single - ----------------
#NOTES:
     dance-single:
     :
     Hard:
     10:
     0.788,0.962,0.091,0.887,0.071,895.000,18.000,175.000,49.000,5.000:

0000
0000
0000
0000
,
0000
0000
0000
0000
,
0000
0000
0000
0000
,
0000
0000
0000
0000
,
0000
0000
0000
0000
,
0000
0000
0000
0000
,
MMMM
0000
2000
0000
3200
0000
0320
0032
,
2003
0000
3020
0000
0230
0000
0302
0023
,
0230
0000
2300
0000
3002
0000
0023
0230
,
0000
0300
0000
0000
0000
0000
0000
0000
,
MMMM
0000
0002
0000
2003
0000
3020
0230
,
0302
0000
2003
0000
3020
0000
0230
2300
,
3020
0000
0230
0000
0302
0000
0023
2030
,
0000
0000
3000
0000
0000
0000
0000
0000
0000
0000
0000
0000
0000
0000
M00M
M00M
,
MMMM
M00M
M00M
0000
0020
0000
0000
0000
0230
0000
0000
0000
0320
0000
0032
0000
,
2003
0000
3020
0000
0230
0000
0302
0023
,
0230
0000
2300
0000
3002
0000
0023
0230
,
0000
0000
0300
0000
0000
0000
0000
0000
0000
0000
0000
0000
0000
0000
MMMM
M000
,
MMMM
000M
MMMM
0000
2000
0000
0000
0000
3200
0000
0000
0000
0320
0000
0032
0000
,
2003
0000
3020
0000
0230
0000
0302
0023
,
0230
0000
2300
0000
3002
0000
0023
0230
,
0000
0000
0300
0000
0000
0000
0000
0000
0000
0000
0000
0000
0000
0000
MM00
0M00
,
0MM0
2000
3200
0000
0320
0000
0030
0002
,
0203
0320
2030
0000
,
3000
0000
0200
0000
0320
0000
0030
2000
,
3002
0023
2030
0200
,
3300
0000
0020
0000
0230
0000
0300
2000
,
3020
0230
0302
0000
,
0003
0000
0200
0000
0320
0000
2030
3200
,
0320
2030
3002
0000
,
1003
0100
0010
0001
1000
0010
0100
0001
,
0010
0001
0100
0010
1000
0100
0010
0001
,
0100
0010
1000
0100
0001
0010
0001
1000
,
0100
0010
0001
0010
0100
1000
0010
0100
,
0001
0010
0100
1000
0010
0100
1000
0010
,
0001
0100
1000
0010
0100
0001
1000
0100
,
0010
0001
0100
0001
0010
0100
1000
0010
,
0200
0000
0000
0000
0000
0000
0000
0000
0000
0000
0000
0000
0320
0000
0M00
0M00
,
1M31
0000
1000
0000
0100
0010
0001
2000
,
0000
0000
3100
0010
0001
1000
0010
0200
,
0300
0001
0010
0200
0300
1000
0001
0200
,
0000
0000
0000
0310
1000
0001
0100
0010
,
2000
3000
0000
0000
0200
0300
0000
0000
0010
0000
1000
0000
0001
0000
0200
0000
,
0300
0010
2000
3100
0010
0001
1000
0002
,
0003
0010
0100
2000
3000
0001
0100
0020
,
0000
0000
0000
1030
0001
1000
0001
0100
,
1001
0000
1000
0000
0010
0100
0001
2000
,
0001
0000
0001
0000
0001
0000
3010
0200
,
0301
1000
0002
0013
1000
0001
0100
2000
,
0001
0001
0001
0001
,
3001
0010
0100
1000
0001
0100
0010
1000
,
0001
0100
0001
0010
0100
1000
0001
0100
,
0010
1000
0100
0001
0010
0100
1000
0002
,
0000
0003
0000
1000
0100
0010
1000
0001
,
0101
0010
1000
0001
0100
0001
0010
0100
,
1000
0010
0100
0001
0010
0100
1000
0010
,
0100
0001
1000
0010
1000
0001
1000
0001
,
0100
0010
0100
0001
1000
0001
0100
0010
,
1001
1000
0001
0010
0100
1000
0010
0100
,
0001
1000
0001
0100
0010
1000
0100
1000
,
0010
1000
0001
0100
0001
0010
0100
2000
,
0000
0000
3001
0000
0010
0100
0001
1000
,
1001
0001
1000
0100
0010
0001
0100
0001
,
1000
0010
1000
0001
0100
0001
0010
0100
,
1000
0010
0100
0001
1000
0001
0100
0001
,
1000
0010
0100
1000
0001
0100
0001
1000
,
1010
0001
0100
0010
1000
0100
0010
0001
,
0100
0001
1000
0010
0100
0010
1000
0100
,
0010
0001
0100
0001
1000
0100
0010
0002
,
0000
0200
0000
0313
1000
0100
0010
0001
,
1001
0000
2000
0000
3020
0000
0230
0302
,
0000
0000
0023
0000
0000
0030
2000
0000
,
3200
0320
0032
0000
0023
0000
0230
0000
,
0302
0000
2003
0000
3020
0230
0302
0000
,
MM03
0M00
0M00
0M00
2MM0
0000
0000
0000
3020
0000
0000
0000
0230
0000
0302
0000
,
0000
0000
0000
0000
2003
0000
0000
0000
0000
0000
0000
3000
0020
0000
0000
0000
,
0230
0302
2003
0000
3200
0000
0302
0000
,
2003
3200
0302
2003
,
3101
0001
1000
0100
0010
0001
0100
0010
,
1000
0001
0010
0100
1000
0100
0010
0001
,
0100
0010
1000
0100
1000
0001
0010
0100
,
1000
0100
0001
0100
0010
1000
0010
0100
,
0001
0010
0100
1000
0100
0001
0010
0001
,
0100
0010
1000
0100
0001
0100
1000
0001
,
0100
0010
1000
0100
1000
0001
1000
0200
,
0000
0000
0000
0000
0000
0000
0000
0000
0000
0000
0310
0000
0001
0010
0100
0000
,
1001
0000
0010
0000
1000
0000
0001
2000
,
0000
3000
0010
0001
0010
0100
1000
0020
,
0000
0031
0010
0200
0000
0301
1000
0002
,
0000
0000
0003
0000
1000
0100
0010
1000
,
0001
0000
0010
0100
1000
0000
0001
0100
0010
0000
0001
0000
1000
0000
0002
0000
,
0000
0103
0010
0001
0100
0010
1000
0002
,
0000
0013
1000
0002
0000
0013
1000
0200
,
0000
0000
0000
0310
0100
1000
0001
0100
,
1001
0001
1000
0010
0100
0001
0010
0100
,
1000
0010
0100
0001
0010
0100
1000
0010
,
0100
0001
1000
0010
1000
0001
1000
0001
,
0100
0010
0100
0001
1000
0001
0100
0010
,
1001
1000
0001
0010
0100
1000
0010
0100
,
0001
1000
0001
0100
0010
1000
0100
1000
,
0010
1000
0001
0100
0001
0010
0100
2000
,
0000
0000
3001
0000
0010
0100
0001
1000
,
1001
0001
1000
0100
0010
0001
0100
0001
,
1000
0010
1000
0001
0100
0001
0010
0100
,
1000
0010
0100
0001
1000
0001
0100
0001
,
1000
0010
0100
1000
0001
0100
0001
1000
,
1010
0001
0100
0010
1000
0001
0200
0320
,
0000
2030
3002
0000
0013
0000
0200
2300
,
0000
3002
0203
0320
0000
2030
3002
0203
,
0000
0000
1300
0001
0010
0100
1000
0001
,
1001
0000
0000
0000
,
0000
0000
0000
0000
,
0000
0000
0000
0000
,
0000
0000
0000
0000
,
1000
1000
0001
0001
0010
0010
0100
0100
,
1000
1000
0100
0100
0010
0010
1000
1000
,
0001
0001
0100
0100
0001
0001
1000
1000
,
0100
0100
0010
0010
0001
0001
0040
0000
,
1030
1000
0001
0001
1000
1000
0010
0010
,
0100
0100
1000
1000
0001
0001
0010
0010
,
1000
1000
0001
0001
1000
1000
0100
0100
,
0010
0000
0010
0000
0001
0000
0001
0000
1000
0000
1000
0100
0010
0000
0001
0000
,
1001
0010
1000
0002
0103
0010
0100
0001
,
1000
0100
0010
0001
0100
0001
1000
0100
,
1000
0010
1000
0002
0103
0001
1000
0100
,
0010
0001
0100
0010
1000
0100
0010
0001
,
0010
0100
1000
0020
0130
0001
0010
0100
,
1000
0010
0100
0001
1000
0010
0100
0001
,
0010
0001
0100
0020
1030
0001
0100
0001
,
1000
0100
0010
0001
1000
0100
0010
0001
1000
0000
0020
0000
0230
0000
2300
0000
,
3101
0001
0010
0200
1300
0001
0010
0100
,
1000
0001
0010
0100
0001
1000
0001
0100
,
0001
0010
0100
2000
3010
0100
0001
1000
,
0100
1000
0010
0100
0001
0100
0010
1000
,
0001
0100
0001
0020
0130
1000
0001
0010
,
1000
0001
1000
0100
0001
0010
1000
0001
,
0100
0010
1000
0002
1003
0100
0001
1000
,
0010
0100
0001
1000
0010
0100
0001
1000
0010
0000
0200
0000
0302
0000
0023
0000
,
1031
0000
0010
0000
0100
0000
0001
0000
2000
3000
0001
0000
0100
0000
0010
0000
,
1000
0100
1000
0010
0100
0001
1000
0010
,
0100
0000
0001
0000
0010
0000
0100
0000
2000
3000
0010
0000
1000
0000
0001
0000
,
0100
0001
0010
0100
1000
0010
0100
0001
,
0010
0000
0001
0000
1000
0000
0001
0000
0200
0300
0010
0000
1000
0000
0100
0000
,
1000
0010
0100
0001
1000
0100
0010
0001
,
0100
0001
1000
0010
0100
0001
0010
0100
,
1000
0100
0010
0001
1000
0100
0010
0001
1000
0001
0020
0130
1000
0001
0010
0100
,
1000
0000
0000
0000
;

//---------------dance-single - ----------------
#NOTES:
     dance-single:
     :
     Challenge:
     11:
     0.969,1.000,1.000,0.851,0.073,906.000,263.000,168.000,67.000,24.000:


0000
0000
0000
0000
,
0000
0000
0000
0000
,
0000
0000
0000
0000
,
0000
0000
0000
0000
,
0000
0000
0000
0000
,
0000
0000
0000
0000
,
MMMM
0000
2000
0000
3200
0000
0320
0032
,
2003
0000
3020
0000
0230
0000
0302
0023
,
0230
0000
2300
0000
3002
0000
0023
0230
,
0000
0300
0000
0000
0000
0000
0000
0000
,
MMMM
0000
0002
0000
2003
0000
3020
0230
,
0302
0000
2003
0000
3020
0000
0230
2300
,
3020
0000
0230
0000
0302
0000
0023
2030
,
0000
0000
3000
0000
0000
0000
0000
0000
0000
0000
0000
0000
0000
0000
M00M
M00M
,
MMMM
M00M
M00M
0000
0020
0000
0000
0000
0230
0000
0000
0000
0320
0000
0032
0000
,
2003
0000
3020
0000
0230
0000
0302
0023
,
0230
0000
2300
0000
3002
0000
0023
0230
,
0000
0000
0300
0000
0000
0000
0000
0000
0000
0000
0000
0000
0000
0000
MMMM
M000
,
MMMM
000M
MMMM
0000
2000
0000
0000
0000
3200
0000
0000
0000
0320
0000
0032
0000
,
2003
0000
3020
0000
0230
0000
0302
0023
,
0230
0000
2300
0000
3002
0000
0023
0230
,
0000
0000
0300
0000
0000
0000
0000
0000
0000
0000
0000
0000
0000
0000
MM00
0M00
,
0MM0
2000
3200
0000
0320
0000
0030
0002
,
0203
0320
2030
0000
,
3000
0000
0200
0000
0320
0000
0030
2000
,
3002
0023
2030
0200
,
3300
0000
0020
0000
0230
0000
0300
2000
,
3020
0230
0302
0000
,
0003
0000
0200
0000
0320
0000
2030
3200
,
0320
2030
3002
0000
,
1003
0100
0010
0001
1000
0010
0100
0001
,
0010
0001
0100
0010
1000
0100
0010
0001
,
0100
0010
1000
0100
0001
0010
0001
1000
,
0100
0010
0001
0010
0100
1000
0010
0100
,
0001
0010
0100
1000
0010
0100
1000
0010
,
0001
0100
1000
0010
0100
0001
1000
0100
,
0010
0001
0100
0001
0010
0100
1000
0010
,
0200
0000
0000
0000
0000
0000
0000
0000
0000
0000
0000
0000
0320
0000
0M00
0M00
,
1M31
0000
1100
0000
1001
0001
0110
0002
,
0000
0000
1013
0100
0011
1000
0101
0020
,
0030
1000
0110
0002
0003
0001
0110
2000
,
0000
0000
0000
3010
0101
0100
1010
0001
,
0110
0000
1001
0000
1100
0010
0101
2000
,
0000
3010
0101
0000
1100
0001
1010
0200
,
0000
0310
1100
0002
0003
1000
0011
0200
,
0000
0000
0000
0310
1001
0100
0011
1000
,
0110
0000
1001
0000
1010
0001
0110
0002
,
0100
0000
1013
0100
0011
1000
0101
0020
,
0031
1000
0110
0002
1003
0001
0110
2000
,
0010
0001
0010
0001
,
3101
0010
1001
0010
1100
0001
1100
0010
,
1001
0100
0110
0001
1010
0100
0101
1000
,
0110
0001
1001
0100
0011
1000
1100
0020
,
0000
0030
0000
1000
0100
0010
0001
0100
,
1001
0010
0110
1000
1001
0100
1010
0001
,
1100
0100
0011
1000
0110
0001
1010
0100
,
0011
0100
1010
0001
1001
0100
0011
0100
,
1001
1000
0110
0001
1100
0010
1001
0100
,
0110
0001
1001
0100
0011
1000
0110
0001
,
1010
0100
0011
1000
1001
0010
0110
1000
,
0101
0010
1100
0001
1001
0100
1010
1000
,
0101
0010
0110
0001
1100
0001
0110
0100
,
1001
0010
1100
0001
0110
0100
1001
1000
,
0011
0010
1100
0001
0110
0010
1001
0100
,
0011
1000
1100
0001
0110
0100
1001
1000
,
0011
0001
0110
1000
1010
0100
1001
0001
,
0110
1000
0011
0100
1100
0010
1001
0001
,
0110
1000
0101
1000
0110
0001
1100
1000
,
0011
0100
0110
0001
1001
0010
1100
0002
,
0000
0200
0000
0313
1000
0010
0100
0001
,
1M1M
0000
2000
0000
3020
0000
0230
0302
,
0000
0000
0023
0000
0000
0030
2000
0000
,
3200
0320
0032
0000
0023
0000
0230
0000
,
0302
0000
2003
0000
3020
0230
0302
0000
,
MM03
0M00
0M00
0M00
2MM0
0000
0000
0000
3020
0000
0000
0000
0230
0000
0302
0000
,
0000
0000
0000
0000
2003
0000
0000
0000
0000
0000
0000
3000
0020
0000
0000
0000
,
0230
0302
2003
0000
3200
0000
0302
0000
,
2003
3200
0302
2000
,
3113
0001
1000
0100
0010
0001
0100
0010
,
1000
0001
0010
0100
1000
0100
0010
0001
,
0100
0010
1000
0100
1000
0001
0010
0100
,
1000
0100
0001
0100
0010
1000
0010
0100
,
0001
0010
0100
1000
0100
0001
0010
0001
,
0100
0010
1000
0100
0001
0100
1000
0001
,
0100
0010
1000
0100
1000
0001
1000
0200
,
0000
0000
0000
0000
0000
0000
0000
0000
0000
0000
0310
0000
0001
0010
0100
0000
,
1001
0000
0110
0000
1100
0000
0011
2000
,
0000
3000
0110
0001
1010
0100
1001
0020
,
0000
0130
1001
0200
0000
1300
0011
0002
,
0000
0000
0003
0000
1010
0100
0011
1000
,
0101
0000
0010
0100
1000
0000
0001
0100
0010
0000
1000
0000
0110
0000
0002
0000
,
0000
0103
1010
0001
0101
1000
0110
0002
,
0000
1003
0110
0002
0000
0013
1001
0200
,
0000
0000
0000
0310
0100
1000
0001
0100
,
1001
0010
0110
1000
1001
0100
1010
0001
,
1100
0100
0011
1000
0110
0001
1010
0100
,
0011
0100
1010
0001
1001
0100
0011
0100
,
1001
1000
0110
0001
1100
0010
1001
0100
,
0110
0001
1001
0100
0011
1000
0110
0001
,
1010
0100
0011
1000
1001
0010
0110
1000
,
0101
0010
1100
0001
1001
0100
1010
1000
,
0101
0010
0110
0001
1100
0001
0110
0100
,
1001
0010
1100
0001
0110
0100
1001
1000
,
0011
0010
1100
0001
0110
0010
1001
0100
,
0011
1000
1100
0001
0110
0100
1001
1000
,
0011
0001
0110
1000
1010
0100
1001
0001
,
0110
1000
0011
0100
1100
0010
1001
0101
,
0010
1001
0101
0010
1001
0010
1100
1000
,
0011
1000
0010
0200
1000
0301
1000
0200
,
0000
0000
0000
0310
0001
1000
0010
0100
,
1001
M000
M000
M000
,
M000
M000
M000
M000
,
M000
M000
M000
M000
,
M000
M000
M000
M000
,
M001
0001
0010
0010
0100
0100
1000
1000
,
0001
0001
0100
0100
0010
0010
1000
1000
,
0001
0001
0100
0100
0001
0001
1000
1000
,
0100
0100
1000
1000
0010
0010
0400
0000
,
2302
0000
3010
0010
1000
1000
0010
0010
,
0100
0100
1000
1000
0100
0100
0010
0010
,
1000
1000
0010
0010
1000
1000
0100
0100
,
0013
0000
0010
0000
0001
0000
0001
0000
1000
0000
1000
0100
0010
0000
0001
0000
,
1001
0100
0110
0001
1100
0001
0011
1000
,
0110
0100
1001
0010
0101
1000
1010
0100
,
0110
0001
1001
0200
1310
0001
1001
0010
,
0110
1000
0011
1000
1100
0010
1001
0100
,
0110
0001
1100
0200
0311
1000
0110
0001
,
1001
0100
1010
0001
0110
1000
0011
0100
,
1001
0100
0110
0002
1103
0001
0011
1000
,
1000
0100
0010
0001
0100
0010
1000
0100
2002
0000
3103
0000
0022
0000
1033
0000
,
0220
1330
1001
0020
1130
0001
0110
1000
,
0011
0100
1010
0001
0110
0010
1001
0100
,
0011
1000
0110
2000
3101
0001
0110
0100
,
1001
0001
0110
0001
1100
1000
0011
1000
,
0110
0001
0011
0200
1301
0001
1010
0001
,
0110
0100
1001
0100
0011
1000
0110
0001
,
1100
0010
1001
2000
3110
0001
0101
0010
,
1000
0100
0010
0001
0100
0010
1000
0100
1000
0001
0200
0000
0322
0000
2033
0000
,
3220
1330
1001
0020
1130
0001
0110
1000
,
0011
0100
1010
0001
0110
0010
1001
0100
,
0011
1000
0110
2000
3101
0001
0110
0100
,
1001
0001
0110
0001
1100
1000
0011
1000
,
0110
0001
0011
0200
1301
0001
1010
0001
,
1002
1000
0100
0100
0010
0010
0100
0100
,
0010
0010
1000
1000
0010
0010
0100
0100
,
1003
0100
0010
0001
1000
0010
0100
0001
1000
0100
0020
0031
0100
0001
0010
0100
,
1000
0000
0000
0000
,
0000
0000
0000
0000
,
0000
0000
0000
0000
,
0000
0000
0000
0000
;
