#TITLE:Vertex BETA;
#SUBTITLE:;
#ARTIST:Silvia;
#TITLETRANSLIT:;
#SUBTITLETRANSLIT:;
#ARTISTTRANSLIT:;
#CREDIT:;
#BANNER:../banner.png;
#BACKGROUND:../bg.png;
#LYRICSPATH:;
#CDTITLE:;
#MUSIC:Vertex Beta.ogg;
#OFFSET:-0.194;
#SAMPLESTART:98.566;
#SAMPLELENGTH:19.400;
#SELECTABLE:YES;
#BPMS:0.000=200.000;
#STOPS:;
#BGCHANGES:;
// cache tags:
#FIRSTBEAT:4.000;
#LASTBEAT:600.000;
#SONGFILENAME:Songs/Cirque du Lykan/Vertex BETA - [Zaia]/Vertex Beta.sm;
#HASMUSIC:1;
#HASBANNER:1;
#MUSICLENGTH:184.398;
// end cache tags

//---------------dance-single - Zaia - 16(mid-high)----------------
#NOTES:
     dance-single:
     Zaia - 16(mid-high):
     Challenge:
     16:
     1.000,1.000,0.217,0.011,1.000,1903.000,40.000,2.000,0.000,0.000:
0000
0000
0000
0000
,
1001
0001
0010
0100
0000
0010
0001
0100
,
0001
0010
0100
1000
1010
0010
0100
0001
,
0101
0100
0010
1000
0000
0100
0010
0001
,
0100
0010
0100
0001
0011
0010
0001
1000
,
1100
0100
1000
0001
0000
0010
0100
1000
,
0001
0100
0010
1000
0100
1000
0001
0100
,
0110
0010
1000
0100
0000
0000
0010
0001
,
1000
0000
1010
0000
,
0110
0100
0010
1000
0000
0100
0010
0001
,
0100
0010
1000
0001
0011
0010
0100
1000
,
1100
0100
1000
0001
0000
0100
0010
1000
,
0001
0010
0100
1000
1010
0010
1000
0001
,
0101
0100
0001
1000
0000
0100
0010
0001
,
1000
0010
1000
0100
0010
0001
1000
0010
,
1001
1000
0010
0100
0000
0010
1000
0001
,
0010
0000
0100
0000
0010
0000
0001
0000
1000
0000
0001
0000
0100
0001
0100
0001
,
1000
0010
1000
0001
1000
0100
0010
0001
1000
0010
0100
0001
0010
0001
1000
0100
,
1000
0001
0100
0001
0010
0100
1000
0001
1000
0010
0100
0001
0010
0001
0100
0010
,
1000
0001
1000
0100
0010
0001
1000
0001
0100
0001
1000
0010
1000
0100
1000
0001
,
0100
0001
0010
0100
1000
0001
0100
0001
1000
0100
0010
0001
1000
0010
0100
0001
,
0010
0100
1000
0001
1000
0100
1000
0001
0100
0001
1000
0010
1000
0100
1000
0001
,
0010
0001
0100
0010
1000
0001
0010
0001
1000
0010
0100
0001
1000
0100
0010
0001
,
0100
0010
1000
0001
1000
0001
0010
0100
0010
0001
1000
0010
0100
0001
1000
0001
,
0010
0100
1000
0001
1000
0010
1000
0001
0100
0001
0010
0001
1000
0010
0100
0001
,
1000
0100
1000
0001
1000
0010
0100
0001
1000
0100
0010
0001
0100
0001
1000
0010
,
1000
0001
0010
0001
0100
0010
1000
0001
1000
0100
0010
0001
0100
0001
0010
0100
,
1000
0001
1000
0010
0100
0001
1000
0001
0010
0001
1000
0100
1000
0010
1000
0001
,
0010
0001
0100
0010
1000
0001
0010
0001
1000
0010
0100
0001
1000
0100
0010
0001
,
0100
0010
1000
0001
1000
0010
1000
0001
0010
0001
1000
0100
1000
0010
1000
0001
,
0100
0001
0010
0100
1000
0001
0100
0001
1000
0100
0010
0001
1000
0010
0100
0001
,
0010
0100
1000
0001
1000
0001
0100
0010
0100
0001
1000
0100
0010
0001
1000
0001
,
0100
0010
1000
0001
1000
0100
1000
0001
0010
0001
0100
0001
1000
0100
0010
0001
,
1000
0010
0100
0001
1000
0100
1000
0001
0100
0010
1000
0001
0010
0100
1000
0010
,
1000
0001
0100
0001
0010
0001
1000
0100
1000
0001
0010
0001
0100
0010
1000
0010
,
0100
0001
0010
0100
1000
0010
1000
0001
0010
0100
1000
0001
0100
0010
1000
0100
,
1000
0001
0010
0001
0100
0001
1000
0010
1000
0001
0100
0001
0010
0100
1000
0100
,
0010
0001
0100
0010
1000
0001
0010
0001
1000
0010
0100
0001
1000
0100
0010
0001
,
0100
0001
1000
0010
1000
0100
1000
0001
0010
0001
1000
0100
1000
0010
0100
0001
,
0100
0010
1000
0100
0010
0001
0100
0001
1000
0100
0010
0001
1000
0010
0100
0001
,
0010
0001
1000
0100
1000
0010
1000
0001
0100
0010
0100
0001
0100
0010
0100
0001
,
1000
0100
0010
0001
1000
0010
1000
0001
0010
0100
1000
0001
0100
0010
1000
0100
,
1000
0001
0010
0001
0100
0001
1000
0010
1000
0001
0100
0001
0010
0100
1000
0100
,
0010
0001
0100
0010
1000
0100
1000
0001
0100
0010
1000
0001
0010
0100
1000
0010
,
1000
0001
0100
0001
0010
0001
1000
0100
1000
0001
0010
0001
0100
0010
1000
0010
,
0100
0001
0010
0100
1000
0001
0100
0001
1000
0100
0010
0001
1000
0010
0100
0001
,
0010
0001
1000
0100
1000
0010
1000
0001
0100
0001
1000
0010
1000
0100
0010
0001
,
0010
0100
1000
0010
0100
0001
0010
0001
1000
0010
0100
0001
1000
0100
0010
0001
,
0100
0001
1000
0001
0100
0001
1000
0001
0010
0100
1000
0001
1000
0100
1000
0001
,
0100
0010
1000
0001
0010
0001
1000
0010
0100
0001
1000
0100
0010
0001
0100
0001
,
1000
0010
1000
0100
1000
0001
0010
0001
1000
0100
1000
0010
0100
0001
0100
0010
,
1000
0100
0010
0001
0100
0001
1000
0100
0010
0001
1000
0010
0100
0001
0010
0001
,
1000
0100
1000
0010
1000
0001
0100
0001
1000
0010
1000
0100
0010
0001
0010
0100
,
1000
0010
0100
0001
1000
0100
1000
0001
0100
0010
1000
0001
0010
0100
1000
0010
,
1000
0001
0100
0001
0010
0001
1000
0100
1000
0001
0010
0001
0100
0010
1000
0010
,
0100
0001
0010
0100
1000
0010
1000
0001
0010
0100
1000
0001
0100
0010
1000
0100
,
1000
0001
0010
0001
1000
0001
1000
0001
0100
0010
0100
0001
1000
0010
1000
0100
,
0010
0100
1000
0001
0100
0001
1000
0100
0010
0001
1000
0010
0100
0001
0010
0001
,
1000
0100
1000
0010
1000
0001
0100
0001
1000
0010
1000
0100
0010
0001
0010
0100
,
1000
0010
0100
0001
0010
0001
1000
0010
0100
0001
1000
0100
0010
0001
0100
0001
,
1000
0010
1000
0100
1000
0001
0010
0001
1000
0100
1000
0010
0100
0001
0100
0010
,
1000
0100
0010
0001
1000
0010
1000
0001
0010
0100
1000
0001
0100
0010
1000
0100
,
1000
0001
0010
0001
0100
0001
1000
0010
1000
0001
0100
0001
0010
0100
1000
0100
,
0010
0001
0100
0010
1000
0100
1000
0001
0100
0010
1000
0001
0010
0100
1000
0010
,
1000
0001
1000
0010
1000
0001
1000
0100
0010
0001
1000
0001
0010
0001
1000
0001
,
0010
0100
1000
0001
0100
0010
1000
0100
,
0010
0100
1000
0001
0100
0001
0010
0100
,
1000
0001
1000
0010
0100
0001
0010
0001
,
0100
0010
1000
0100
0010
0100
1000
0010
,
0100
0001
0010
0100
0010
0100
1000
0001
,
0100
0010
0100
0001
0010
0100
1000
0001
,
0100
0010
1000
0001
0010
0001
0100
0001
,
1000
0000
0100
0000
1000
0000
0010
0000
0100
0000
0010
1000
0001
0000
0010
0000
,
0110
0000
0100
0000
1000
0001
0100
0000
,
0010
0000
1000
0001
0000
0010
0001
0000
,
1001
0000
1000
0000
0000
0010
0100
0000
,
1010
0000
1000
0000
0001
0000
0101
0000
0000
0000
0100
0000
0001
0000
0010
0100
,
1000
0000
0001
0000
0000
0100
0001
0000
,
0011
0010
0001
1000
0010
0100
0001
0010
,
0100
1000
0010
0100
0000
0001
1000
0010
,
0100
0000
0001
1000
0001
0000
0010
0000
0100
0000
1000
0000
0001
0000
1000
0000
,
0001
0100
0001
1000
0001
0100
0001
1000
0010
1000
0001
1000
0010
1000
0001
1000
,
0100
0010
0001
1000
0001
0100
0010
1000
0100
1000
0001
0010
0001
1000
0010
0100
,
0001
0010
0100
1000
0001
1000
0010
0100
0010
1000
0001
0010
0001
0100
0010
1000
,
0100
0010
0001
1000
0001
0100
0010
1000
0001
0010
0001
1000
0100
1000
0001
0100
,
0010
1000
0001
1000
0100
0010
0100
1000
0010
0100
0001
0010
0100
1000
0001
1000
,
0010
0100
0001
1000
0001
1000
0100
0010
0100
1000
0001
0100
0010
1000
0100
0010
,
0100
1000
0100
1000
0001
0100
0010
0100
0001
0010
0100
1000
0001
1000
0010
0100
,
0001
0010
0001
0010
0100
1000
0010
0100
0001
0010
0001
1000
0100
1000
0010
1000
,
0001
0100
0010
0100
0001
1000
0100
0010
0100
1000
0001
1000
0010
1000
0001
0100
,
0001
1000
0100
0010
0001
1000
0010
1000
0001
0100
0001
0010
0100
1000
0010
1000
,
0001
0100
0001
0010
0100
1000
0001
1000
0100
0010
0001
0100
0001
1000
0010
1000
,
0100
1000
0001
0010
0001
1000
0100
0010
0100
1000
0001
1000
0010
0100
0001
0010
,
0001
1000
0010
0100
0001
1000
0100
0010
0100
1000
0001
0100
0010
0100
0001
0010
,
0100
1000
0001
1000
0010
0100
0001
0100
0010
1000
0001
0010
0100
0010
0001
0100
,
0010
1000
0001
0010
0001
1000
0100
1000
0010
1000
0001
0100
0001
0010
0001
1000
,
0010
0100
0001
1000
0010
1000
0100
0010
0001
0100
0001
1000
0010
1000
0001
0010
,
0100
1000
0010
1000
0001
1000
0001
0100
0001
0010
0100
1000
0001
1000
0001
0100
,
0010
0100
0001
1000
0001
0010
0100
1000
0010
1000
0001
0100
0001
1000
0100
0010
,
0001
0100
0010
1000
0001
1000
0100
0010
0100
1000
0001
0100
0001
0010
0100
1000
,
0010
0100
0001
1000
0001
0010
0100
1000
0001
0100
0001
1000
0010
1000
0001
0010
,
0100
1000
0001
1000
0010
0100
0010
1000
0100
0010
0001
0100
0010
1000
0001
1000
,
0100
0010
0001
1000
0001
1000
0010
0100
0010
1000
0001
0010
0100
1000
0010
0100
,
0010
1000
0010
1000
0001
0010
0100
0010
0001
0100
0010
1000
0001
1000
0100
0010
,
0001
0100
0001
0100
0010
1000
0100
0010
0001
0100
0001
1000
0010
1000
0100
1000
,
0001
0010
0100
0010
0001
1000
0010
0100
0010
1000
0001
1000
0100
1000
0001
0010
,
0001
1000
0100
1000
0010
1000
0001
0100
0001
1000
0100
1000
0010
1000
0001
0100
,
0001
1000
0100
0010
0001
1000
0001
0100
0001
0010
0100
1000
0010
0100
0010
1000
,
0001
0010
0001
0100
0001
1000
0010
1000
0001
0010
0001
0100
0001
1000
0100
1000
,
0001
1000
0010
0100
0001
1000
0001
0010
0001
0100
0010
1000
0100
0010
0100
1000
,
0001
0100
0001
0010
0001
1000
0100
1000
0001
0100
0010
1000
0001
0010
0100
1000
,
0010
0100
0001
1000
0010
1000
0001
0010
0001
1000
0001
0100
0010
1000
0100
0010
,
0001
1000
0100
1000
0010
1000
0001
0100
0001
1000
0100
0010
0001
1000
0010
0100
,
0001
0010
0001
1000
0001
1000
0010
0100
0001
1000
0100
1000
0001
0100
0001
1000
,
0100
0010
0001
1000
0001
0100
0010
1000
0001
0010
0100
1000
0010
1000
0001
0100
,
0001
1000
0100
1000
0010
0100
0001
1000
0001
0010
0100
1000
0010
1000
0100
0010
,
0001
1000
0001
0100
0010
1000
0001
1000
0100
1000
0001
0010
0001
0100
0001
1000
,
0100
1000
0010
0100
0001
1000
0100
1000
0001
0100
0010
1000
0001
0010
0100
1000
,
0010
0100
0001
1000
0001
0100
0001
1000
0100
1000
0001
0010
0001
0100
0001
1000
,
0010
1000
0100
0010
0001
1000
0010
1000
0001
0010
0100
1000
0001
0100
0010
1000
,
0100
0010
0001
1000
0001
1000
0010
0100
0010
1000
0001
0010
0100
1000
0001
1000
,
0010
0100
0010
1000
0001
1000
0001
0010
0100
1000
0001
1000
0100
1000
0010
1000
,
0001
0100
0001
1000
0001
0010
0100
1000
0001
0100
0010
1000
0100
1000
0001
0010
,
0001
1000
0010
1000
0100
0010
0001
1000
0001
0100
0010
1000
0100
1000
0010
0100
,
0001
1000
0001
0010
0100
1000
0001
1000
0010
1000
0001
0100
0001
0010
0001
1000
,
0010
1000
0100
0010
0001
1000
0010
1000
0001
0010
0100
1000
0001
0100
0010
1000
,
0100
0010
0001
1000
0001
0010
0001
1000
0010
1000
0001
0100
0001
0010
0001
1000
,
0100
1000
0010
0100
0001
1000
0100
1000
0001
0100
0010
1000
0001
0010
0100
1000
,
0010
0100
0001
1000
0001
1000
0100
0010
0100
1000
0001
0100
0010
1000
0001
1000
,
0100
0010
0001
1000
0001
0100
0001
1000
0010
1000
0100
1000
0001
0100
0010
1000
,
0001
0010
0001
1000
0000
0010
0100
0001
,
0011
0010
0100
1000
1100
0100
1000
0010
,
0110
0100
0001
0010
0000
0100
1000
0001
,
0101
0100
0010
1000
1010
0010
0100
0001
,
1001
1000
0100
0010
0000
0100
1000
0010
,
0110
0100
0001
1000
1100
0100
1000
0001
,
0011
0010
0001
1000
0000
0010
0100
0001
,
1001
1000
0100
1000
0010
0100
0001
0010
,
0110
0100
1000
0001
0000
0100
0010
0100
,
0101
0001
0010
0100
1100
1000
0001
0100
,
0101
0001
1000
0100
0000
0010
0001
1000
,
1010
0010
0100
0001
0011
0010
0001
1000
,
1010
0010
0100
0001
0000
0010
0100
1000
,
1001
0001
0100
0010
0110
0100
0001
0010
,
0110
0100
1000
0001
0000
0100
0010
1000
,
1001
0001
0010
0100
1000
0010
0100
0001
,
2002
0000
0000
0000
,
0000
0000
0000
0000
,
0000
0000
0000
0000
,
0000
0000
0000
0000
,
3003
0000
0000
0000
;

//---------------dance-single - Zaia - 15(high)----------------
#NOTES:
     dance-single:
     Zaia - 15(high):
     Hard:
     15:
     1.000,1.000,0.217,0.011,1.000,1701.000,40.000,2.000,0.000,0.000:
0000
0000
0000
0000
,
1001
0001
0010
0100
0000
0010
0001
0100
,
0001
0010
0100
1000
1010
0010
0100
0001
,
0101
0100
0010
1000
0000
0100
0010
0001
,
0100
0010
0100
0001
0011
0010
0001
1000
,
1100
0100
1000
0001
0000
0010
0100
1000
,
0001
0100
0010
1000
0100
1000
0001
0100
,
0110
0010
1000
0100
0000
0000
0010
0001
,
1000
0000
1010
0000
,
0110
0100
0010
1000
0000
0100
0010
0001
,
0100
0010
1000
0001
0011
0010
0100
1000
,
1100
0100
1000
0001
0000
0100
0010
1000
,
0001
0010
0100
1000
1010
0010
1000
0001
,
0101
0100
0001
1000
0000
0100
0010
0001
,
1000
0010
1000
0100
0010
0001
1000
0010
,
1001
1000
0010
0100
0000
0010
1000
0001
,
0010
0000
0100
0000
0010
0000
0001
0000
1000
0000
0001
0000
0100
0001
0100
0001
,
1000
0010
1000
0001
1000
0100
0010
0001
1000
0010
0100
0001
0010
0001
1000
0100
,
1000
0001
0100
0001
0010
0100
1000
0001
1000
0010
0100
0001
0010
0001
0100
0010
,
1000
0001
1000
0100
0010
0001
1000
0001
0100
0001
1000
0010
1000
0100
1000
0001
,
0100
0001
0010
0100
1000
0001
0100
0001
1000
0100
0010
0001
1000
0010
0100
0001
,
0010
0100
1000
0001
1000
0100
1000
0001
0100
0001
1000
0010
1000
0100
1000
0001
,
0010
0001
0100
0010
1000
0001
0010
0001
1000
0010
0100
0001
1000
0100
0010
0001
,
0100
0010
1000
0001
1000
0001
0010
0100
0010
0001
1000
0010
0100
0001
1000
0001
,
0010
0100
1000
0001
1000
0010
1000
0001
0100
0001
0010
0001
1000
0010
0100
0001
,
1000
0100
1000
0001
0000
0100
0001
0010
,
0100
0010
0001
0100
0010
1000
0100
1000
,
0001
0100
0010
1000
0000
0100
0010
0100
,
1000
0010
0100
0001
0010
0001
1000
0010
,
0100
0010
1000
0100
0000
0010
0100
1000
,
0001
0100
0010
1000
0001
0010
0100
0010
,
0001
1000
0000
0001
0000
0010
0100
1000
,
0001
0100
0010
0100
0001
0010
0100
1000
,
0001
0100
0010
1000
0001
0010
0001
1000
0010
0100
0001
1000
0100
0010
0001
0100
,
0001
1000
0010
1000
0100
1000
0001
0010
0001
1000
0100
1000
0010
0100
0001
0100
,
0010
1000
0100
0010
0001
0100
0001
1000
0100
0010
0001
1000
0010
0100
0001
0010
,
0001
1000
0100
1000
0010
1000
0001
0100
0001
1000
0010
1000
0100
0010
0001
0010
,
0100
1000
0010
0100
0001
1000
0100
1000
0001
0100
0010
1000
0001
0010
0100
1000
,
0010
1000
0001
0100
0001
0010
0001
1000
0100
1000
0001
0010
0001
0100
0010
1000
,
0010
0100
0001
0010
0100
1000
0010
1000
0001
0010
0100
1000
0001
0100
0010
1000
,
0100
1000
0001
0010
0001
0100
0001
1000
0010
0100
0010
1000
0010
0100
0010
1000
,
0001
0010
0100
1000
0001
0100
0001
1000
0100
0010
0001
1000
0010
0100
0001
0010
,
0001
1000
0100
1000
0010
1000
0001
0100
0001
1000
0010
1000
0100
0010
0001
0010
,
0100
1000
0010
0100
0001
0010
0001
1000
0010
0100
0001
1000
0100
0010
0001
0100
,
0001
1000
0010
1000
0100
1000
0001
0010
0001
1000
0100
1000
0010
0100
0001
0100
,
0010
1000
0100
0010
0001
1000
0010
1000
0001
0010
0100
1000
0001
0100
0010
1000
,
0100
1000
0001
0010
0001
0100
0001
1000
0010
1000
0001
0100
0001
0010
0100
1000
,
0100
0010
0001
0100
0010
1000
0100
1000
0001
0100
0010
1000
0001
0010
0100
1000
,
0010
1000
0001
1000
0010
1000
0001
1000
0100
0010
0001
1000
0001
0010
0001
1000
,
0001
0100
0001
1000
0000
0100
1000
0010
,
0100
0010
1000
0100
0010
0001
0100
0001
,
1000
0100
0010
0001
0000
0100
0010
0100
,
0001
0010
0100
1000
0010
1000
0001
0010
,
0100
0010
0001
0100
0000
0010
0100
0001
,
1000
0100
0010
0001
1000
0010
0100
0010
,
1000
0001
0000
1000
0000
0010
0100
0001
,
1000
0100
0010
0100
1000
0010
0100
0001
,
0010
0100
1000
0001
0100
0001
1000
0100
0010
0001
1000
0010
0100
0001
0010
0001
,
1000
0100
1000
0010
1000
0001
0100
0001
1000
0010
1000
0100
0010
0001
0010
0100
,
1000
0010
0100
0001
0010
0001
1000
0010
0100
0001
1000
0100
0010
0001
0100
0001
,
1000
0010
1000
0100
1000
0001
0010
0001
1000
0100
1000
0010
0100
0001
0100
0010
,
1000
0100
0010
0001
1000
0010
1000
0001
0010
0100
1000
0001
0100
0010
1000
0100
,
1000
0001
0010
0001
0100
0001
1000
0010
1000
0001
0100
0001
0010
0100
1000
0100
,
0010
0001
0100
0010
1000
0100
1000
0001
0100
0010
1000
0001
0010
0100
1000
0010
,
1000
0001
1000
0010
1000
0001
1000
0100
0010
0001
1000
0001
0010
0001
1000
0001
,
0010
0100
1000
0001
0100
0010
1000
0100
,
0010
0100
1000
0001
0100
0001
0010
0100
,
1000
0001
1000
0010
0100
0001
0010
0001
,
0100
0010
1000
0100
0010
0100
1000
0010
,
0100
0001
0010
0100
0010
0100
1000
0001
,
0100
0010
0100
0001
0010
0100
1000
0001
,
0100
0010
1000
0001
0010
0001
0100
0001
,
1000
0000
0100
0000
1000
0000
0010
0000
0100
0000
0010
1000
0001
0000
0010
0000
,
0110
0000
0100
0000
1000
0001
0100
0000
,
0010
0000
1000
0001
0000
0010
0001
0000
,
1001
0000
1000
0000
0000
0010
0100
0000
,
1010
0000
1000
0000
0001
0000
0101
0000
0000
0000
0100
0000
0001
0000
0010
0100
,
1000
0000
0001
0000
0000
0100
0001
0000
,
0011
0010
0001
1000
0010
0100
0001
0010
,
0100
1000
0010
0100
0000
0001
1000
0010
,
0100
0000
0001
1000
0001
0000
0010
0000
0100
0000
1000
0000
0001
0000
1000
0000
,
0001
0100
0001
1000
0001
0100
0001
1000
0010
1000
0001
1000
0010
1000
0001
1000
,
0100
0010
0001
1000
0001
0100
0010
1000
0100
1000
0001
0010
0001
1000
0010
0100
,
0001
0010
0100
1000
0001
1000
0010
0100
0010
1000
0001
0010
0001
0100
0010
1000
,
0100
0010
0001
1000
0001
0100
0010
1000
0001
0010
0001
1000
0100
1000
0001
0100
,
0010
1000
0001
1000
0100
0010
0100
1000
0010
0100
0001
0010
0100
1000
0001
1000
,
0010
0100
0001
1000
0001
1000
0100
0010
0100
1000
0001
0100
0010
1000
0100
0010
,
0100
1000
0100
1000
0001
0100
0010
0100
0001
0010
0100
1000
0001
1000
0010
0100
,
0001
0010
0001
0010
0100
1000
0010
0100
0001
0010
0001
1000
0100
1000
0010
1000
,
0001
0100
0010
0100
0001
1000
0100
0010
0100
1000
0001
1000
0010
1000
0001
0100
,
0001
1000
0100
0010
0001
1000
0010
1000
0001
0100
0001
0010
0100
1000
0010
1000
,
0001
0100
0001
0010
0100
1000
0001
1000
0100
0010
0001
0100
0001
1000
0010
1000
,
0100
1000
0001
0010
0001
1000
0100
0010
0100
1000
0001
1000
0010
0100
0001
0010
,
0001
1000
0010
0100
0001
1000
0100
0010
0100
1000
0001
0100
0010
0100
0001
0010
,
0100
1000
0001
1000
0010
0100
0001
0100
0010
1000
0001
0010
0100
0010
0001
0100
,
0010
1000
0001
0010
0001
1000
0100
1000
0010
1000
0001
0100
0001
0010
0001
1000
,
0010
0100
0001
1000
0010
1000
0100
0010
0001
0100
0001
1000
0010
1000
0001
0010
,
0100
1000
0010
1000
0001
1000
0001
0100
0001
0010
0100
1000
0001
1000
0001
0100
,
0010
0100
0001
1000
0001
0010
0100
1000
0010
1000
0001
0100
0001
1000
0100
0010
,
0001
0100
0010
1000
0001
1000
0100
0010
0100
1000
0001
0100
0001
0010
0100
1000
,
0010
0100
0001
1000
0001
0010
0100
1000
0001
0100
0001
1000
0010
1000
0001
0010
,
0100
1000
0001
1000
0010
0100
0010
1000
0100
0010
0001
0100
0010
1000
0001
1000
,
0100
0010
0001
1000
0001
1000
0010
0100
0010
1000
0001
0010
0100
1000
0010
0100
,
0010
1000
0010
1000
0001
0010
0100
0010
0001
0100
0010
1000
0001
1000
0100
0010
,
0001
0100
0001
0100
0010
1000
0100
0010
0001
0100
0001
1000
0010
1000
0100
1000
,
0001
0010
0100
0010
0001
1000
0010
0100
0010
1000
0001
1000
0100
1000
0001
0010
,
0001
1000
0100
1000
0010
1000
0001
0100
0001
1000
0100
1000
0010
1000
0001
0100
,
0001
1000
0100
0010
0001
1000
0001
0100
0001
0010
0100
1000
0010
0100
0010
1000
,
0001
0010
0001
0100
0001
1000
0010
1000
0001
0010
0001
0100
0001
1000
0100
1000
,
0001
1000
0010
0100
0001
1000
0001
0010
0001
0100
0010
1000
0100
0010
0100
1000
,
0001
0100
0001
0010
0001
1000
0100
1000
0001
0100
0010
1000
0001
0010
0100
1000
,
0010
0100
0001
1000
0010
1000
0001
0010
0001
1000
0001
0100
0010
1000
0100
0010
,
0001
1000
0100
1000
0010
1000
0001
0100
0001
1000
0100
0010
0001
1000
0010
0100
,
0001
0010
0001
1000
0001
1000
0010
0100
0001
1000
0100
1000
0001
0100
0001
1000
,
0100
0010
0001
1000
0000
0010
1000
0100
,
0010
0100
1000
0010
0100
0001
0010
0001
,
1000
0010
0100
0001
0000
0010
0100
0010
,
0001
0100
0010
1000
0100
1000
0001
0100
,
0010
0100
0001
1000
0000
0100
0010
0001
,
1000
0010
0100
0001
1000
0100
0010
0100
,
1000
0010
0100
0001
0000
0100
0010
1000
,
0001
0000
0010
0000
0100
1000
0100
1000
0001
0100
0010
0000
1000
0000
0010
1000
,
0001
0100
0001
1000
0001
0010
0100
1000
0001
0100
0010
1000
0100
1000
0001
0010
,
0001
1000
0010
1000
0100
0010
0001
1000
0001
0100
0010
1000
0100
1000
0010
0100
,
0001
1000
0001
0010
0100
1000
0001
1000
0010
1000
0001
0100
0001
0010
0001
1000
,
0010
1000
0100
0010
0001
1000
0010
1000
0001
0010
0100
1000
0001
0100
0010
1000
,
0100
0010
0001
1000
0001
0010
0001
1000
0010
1000
0001
0100
0001
0010
0001
1000
,
0100
1000
0010
0100
0001
1000
0100
1000
0001
0100
0010
1000
0001
0010
0100
1000
,
0010
0100
0001
1000
0001
1000
0100
0010
0100
1000
0001
0100
0010
1000
0001
1000
,
0100
0010
0001
1000
0001
0100
0001
1000
0010
1000
0100
1000
0001
0100
0010
1000
,
0001
0010
0001
1000
0000
0010
0100
0001
,
0011
0010
0100
1000
1100
0100
1000
0010
,
0110
0100
0001
0010
0000
0100
1000
0001
,
0101
0100
0010
1000
1010
0010
0100
0001
,
1001
1000
0100
0010
0000
0100
1000
0010
,
0110
0100
0001
1000
1100
0100
1000
0001
,
0011
0010
0001
1000
0000
0010
0100
0001
,
1001
1000
0100
1000
0010
0100
0001
0010
,
0110
0100
1000
0001
0000
0100
0010
0100
,
0101
0001
0010
0100
1100
1000
0001
0100
,
0101
0001
1000
0100
0000
0010
0001
1000
,
1010
0010
0100
0001
0011
0010
0001
1000
,
1010
0010
0100
0001
0000
0010
0100
1000
,
1001
0001
0100
0010
0110
0100
0001
0010
,
0110
0100
1000
0001
0000
0100
0010
1000
,
1001
0001
0010
0100
1000
0010
0100
0001
,
2002
0000
0000
0000
,
0000
0000
0000
0000
,
0000
0000
0000
0000
,
0000
0000
0000
0000
,
3003
0000
0000
0000
;
