#TITLE:Stunt Flying;
#SUBTITLE:;
#ARTIST:Dr. Flowershirts;
#TITLETRANSLIT:;
#SUBTITLETRANSLIT:;
#ARTISTTRANSLIT:;
#CREDIT:;
#BANNER:stuntflying-bn.png;
#BACKGROUND:stuntflying-bg.PNG;
#LYRICSPATH:;
#CDTITLE:!boombaTitle.png;
#MUSIC:Stunt Flying.mp3;
#OFFSET:-0.230;
#SAMPLESTART:34.990;
#SAMPLELENGTH:12.000;
#SELECTABLE:YES;
#BPMS:0.000=148.000,126.000=74.000,134.000=37.000,146.000=74.000,162.000=148.000,202.000=74.000,218.000=148.000;
#STOPS:;
#BGCHANGES:;
// cache tags:
#FIRSTBEAT:0.500;
#LASTBEAT:250.000;
#SONGFILENAME:Songs/Fresh Flock of Fantastic Files F4/(b00mba) Stunt Flying/Stunt Flying.sm;
#HASMUSIC:1;
#HASBANNER:1;
#MUSICLENGTH:134.922;
// end cache tags

//---------------dance-single - ----------------
#NOTES:
     dance-single:
     :
     Hard:
     11:
     0.960,1.000,1.000,0.141,1.000,682.000,206.000,19.000,0.000,0.000:  // measure 1
0000
0110
0000
0000
0000
0000
0000
0000
,  // measure 2
0000
0000
0000
0000
,  // measure 3
0000
0000
0000
0000
,  // measure 4
0000
0200
0000
0300
,  // measure 5
0000
0000
0000
0000
0110
1000
0110
1000
,  // measure 6
0110
0000
1000
0000
0110
0000
1000
0000
0120
0030
1000
0000
0110
0000
1000
0000
,  // measure 7
0110
1000
0110
1000
0011
1000
0011
1000
,  // measure 8
0011
1000
0011
1000
0101
0010
0101
0010
,  // measure 9
0101
0000
0000
0000
0010
0100
0010
0100
1001
0000
0010
0000
0110
0000
1000
0100
,  // measure 10
0010
0100
1000
0000
0011
0000
1000
0100
1001
0000
0010
0000
0101
0000
0100
0010
,  // measure 11
0100
0001
0100
0000
0110
0000
1000
0010
1001
0000
0100
0000
0011
0000
1000
0100
,  // measure 12
0010
0100
0010
0000
1001
0000
1000
0100
0011
0000
0000
1000
0100
0000
0001
0000
,  // measure 13
0100
0000
0010
0000
0000
0000
0000
0000
1001
0100
0010
0001
1000
0100
1000
0001
,  // measure 14
1000
0100
1000
0001
1000
0100
1000
0010
1000
0010
0100
0010
1000
0010
0100
0010
,  // measure 15
0100
0001
0010
0001
0100
0001
0010
0001
0100
0001
0010
0100
1000
0001
0010
0100
,  // measure 16
1000
0001
0010
0100
1000
0001
1000
0100
1000
0100
0010
0001
1000
0100
0010
0001
,  // measure 17
1000
0100
0010
0001
0010
0100
0010
0001
0010
0100
1000
0001
0010
0100
1000
0001
,  // measure 18
0010
0100
1000
0001
0010
0100
1000
0100
1000
0100
0010
0001
1000
0100
0010
0001
,  // measure 19
1000
0001
0010
0001
1000
0001
0010
0001
1000
0001
0010
0100
1000
0001
0010
0100
,  // measure 20
1000
0001
0010
0100
1000
0001
0010
0100
1001
0000
0010
0000
1001
0000
0010
0000
,  // measure 21
0101
0010
1000
0001
0110
0001
1000
0010
0101
1000
0001
0010
0100
1000
0100
0010
,  // measure 22
0001
0000
0010
0000
0100
0000
1000
0000
0010
0100
0010
0100
0010
0100
0010
0100
1001
0000
0000
0000
1100
0000
0000
0000
1001
0000
0000
0000
0010
0000
0000
0000
,  // measure 23
1001
0100
0110
1001
0110
0001
0101
0011
,  // measure 24
0101
0000
0001
0000
0101
0000
0011
0000
0101
0000
0010
0000
1000
0100
1000
0000
,  // measure 25
0100
1000
0100
0000
1000
0100
1000
0000
0020
0000
0031
0000
0200
0000
0310
0000
,  // measure 26
2000
0000
0000
0000
0200
0000
0000
3300
2002
0000
3003
0000
0011
0000
1001
0000
,  // measure 27
0011
1001
0011
1001
1100
0001
0011
1001
,  // measure 28
1100
0001
0011
1001
1100
0001
0011
1001
,  // measure 29
0011
1001
0011
1001
0110
0000
0011
1001
,  // measure 30
1010
0100
0011
1001
1100
0000
0011
1001
,  // measure 31
1100
0000
0000
0000
0011
0000
1001
0000
0020
0030
0020
0030
0020
0030
0000
0000
,  // measure 32
0000
0000
0002
0003
0120
0030
0100
0000
2002
0000
0000
0000
3003
0000
0000
0000
,  // measure 33
0200
0000
0000
0300
0000
0000
0000
0000
0000
0000
0000
0000
0000
0000
0000
0000
,  // measure 34
0000
0000
0000
0000
0000
0000
0000
0000
0000
0000
0000
0000
0000
0000
0010
0000
1001
0100
1001
0100
0011
0100
1000
0110
0000
0110
0001
0100
1001
0001
1000
0100
,  // measure 35
1010
1000
0110
0100
1001
0100
0010
0101
0000
1001
0100
0010
0011
0100
1000
0010
0102
0013
0101
0010
1001
0100
0010
1001
0000
1100
1000
0010
0101
1000
0010
1000
,  // measure 36
2100
3010
0011
0001
0101
0010
1000
0110
0000
1001
0100
0001
1010
0100
0010
0001
0101
0010
1001
0010
1001
0100
1000
0110
0000
1010
0001
1000
0110
0001
1000
0100
,  // measure 37
1002
0103
1010
0001
1010
0100
0010
1001
0000
0101
0010
0100
1001
0100
1000
0010
0001
0000
0001
0000
0000
0000
0001
0000
0000
0000
0001
0000
0000
0000
0001
0000
,  // measure 38
0000
0001
0000
0010
0000
0010
1000
0100
0001
0001
0000
0001
0000
0001
0000
0001
,  // measure 39
0000
0001
0000
0010
0000
0010
1000
0100
0100
0100
0000
0100
0000
0100
0000
0100
,  // measure 40
0000
0100
0000
1000
0000
1000
0001
1000
0100
0100
0000
0100
0000
0100
0000
0100
,  // measure 41
0000
0100
0001
0010
0000
0010
0001
1000
0101
0000
0010
0000
0101
0000
1000
0100
,  // measure 42
1000
0100
0010
0000
0011
0000
1000
0000
1001
0000
0010
0000
0101
0000
0100
0010
,  // measure 43
1000
0001
1000
0000
0110
0000
0010
0000
1001
0000
0010
0000
0101
0000
0100
0010
,  // measure 44
0100
0001
1000
0000
1010
0000
1000
0000
0110
0000
0001
0000
1010
0000
1000
0100
,  // measure 45
1000
0010
1000
0000
1001
0000
0010
0000
0101
0000
0010
0000
1001
0000
0010
0100
,  // measure 46
0010
0100
1000
0000
1010
0000
0100
0000
0110
0000
0001
0000
0101
0000
1000
0100
,  // measure 47
1000
0001
0010
0000
0110
0000
1000
0000
1001
0000
0100
0000
1010
0000
0100
0010
,  // measure 48
0100
0001
1000
0000
0110
0000
0001
0000
1010
0000
0110
0000
0011
0000
1010
0000
,  // measure 49
0010
0000
0011
0000
0110
0000
1001
0000
0011
0000
0100
0000
1000
0001
0010
0100
,  // measure 50
1000
0100
1000
0100
0010
0100
1000
0100
1001
0100
0010
0001
0110
0001
1000
0100
,  // measure 51
0011
0000
0000
0000
0110
0000
0000
0000
1001
0000
0000
0000
1010
0000
0000
0000
0101
0000
0000
0000
1001
0000
1000
0100
0010
0000
0001
0000
1100
0000
0001
0000
,  // measure 52
0100
0000
0010
0000
0101
0000
0100
0010
1001
0000
0100
0000
0010
0000
1001
0000
1100
0000
0110
0000
0101
0000
1000
0010
1000
0000
0001
0000
1100
0000
0001
0000
,  // measure 53
0010
0000
0100
0000
1001
0000
1000
0010
0101
0000
0010
0000
1000
0000
0011
0000
1100
0000
1010
0000
0101
0000
0100
0010
0100
0000
0001
0000
1010
0000
0001
0000
,  // measure 54
1000
0000
0100
0000
1001
0000
1000
0100
0011
0000
0100
0000
1000
0000
0011
0000
1100
0000
0110
0000
0101
0000
0100
0010
1000
0000
0001
0000
1100
0000
0001
0000
,  // measure 55
0010
0000
0100
0000
1001
0000
1000
0100
0011
0000
1100
0000
1001
0000
0011
0000
1100
0000
0000
0000
0100
0000
0000
0000
1001
0000
0000
0000
1000
0000
0100
0000
,  // measure 56
0010
0001
0010
0000
1100
0000
0001
0000
0110
0000
0001
0000
1010
0000
1000
0100
,  // measure 57
0010
0100
0010
0000
1001
0000
0010
0000
0101
0000
0010
0000
1001
0000
1000
0100
,  // measure 58
0010
0001
0010
0000
1100
0000
0001
0000
1010
0000
0001
0000
0110
0000
1000
0100
,  // measure 59
0010
0001
1000
0000
1100
0000
0001
0000
0110
0000
0001
0000
1100
0000
0010
0001
,  // measure 60
0010
0100
1000
0000
0101
0000
0010
0000
1001
0000
0100
0000
0011
0000
0010
0100
,  // measure 61
1000
0001
1000
0000
0110
0000
0001
0000
1100
0000
0001
0000
0011
0000
0100
0001
,  // measure 62
0100
0010
1000
0000
1100
0000
0001
0000
0110
0000
0001
0000
1100
0000
0010
0100
,  // measure 63
0010
0011
1100
0110
1001
0000
0000
0000
;
