#TITLE:Koi no Mikuru Densetsu;
#SUBTITLE:(DDR Edit);
#ARTIST:Yuko Goto;
#TITLETRANSLIT:;
#SUBTITLETRANSLIT:;
#ARTISTTRANSLIT:;
#CREDIT:[the Whan Tahn DESTROYER.];
#BANNER:Koinomikurudensetsubnr.png;
#BACKGROUND:KoinoMikuruDensetsubg.png;
#LYRICSPATH:;
#CDTITLE:;
#MUSIC:Koi no Mikuru Densetsu (DDR Edit).mp3;
#OFFSET:-0.692;
#SAMPLESTART:22.820;
#SAMPLELENGTH:12.000;
#SELECTABLE:YES;
#BPMS:0.000=173.000;
#STOPS:;
#BGCHANGES:;
// cache tags:
#FIRSTBEAT:0.000;
#LASTBEAT:259.000;
#SONGFILENAME:Songs/toune 3/Koi No Mikuru Densetsu/Koi no Mikuru Densetsu (DDR Edit).sm;
#HASMUSIC:1;
#HASBANNER:1;
#MUSICLENGTH:90.909;
// end cache tags

//---------------dance-single - ----------------
#NOTES:
     dance-single:
     :
     Hard:
     8:
     0.536,0.605,0.022,0.165,0.006,324.000,2.000,15.000,0.000,0.000:
1000
0000
1000
0000
1000
0010
0100
0001
,
0000
0001
0000
0001
1000
0000
1000
0000
,
0001
0000
0001
0000
0001
0100
0010
1000
,
0000
1000
0000
1000
0001
0000
0001
0000
,
1000
0010
1000
0001
1000
0010
1000
0001
,
0100
0010
0100
0001
0100
0010
0100
0001
,
1000
1000
0000
0010
0010
0000
0001
0001
,
0000
0010
0010
0010
1000
0000
1000
0000
,
0002
0203
0320
2030
,
3010
0010
0000
0010
0000
0000
0000
0000
,
0001
0001
0100
0010
,
1000
1000
0000
2000
0000
3000
0000
0000
,
0000
0100
0100
0001
,
0100
0010
0010
0001
,
1000
0000
1000
0000
1000
0010
0100
0001
,
0000
0001
0000
0001
1000
0000
1000
0000
,
1000
0010
0100
0001
0100
0010
1000
0010
,
0100
0001
0010
0100
1000
0010
0100
0001
,
0100
0010
1000
0100
0010
0001
1000
0010
,
0100
0001
0100
0010
0100
0010
1000
0100
,
1000
0100
0010
0001
0010
0001
0100
0010
,
0100
0010
1000
0010
0100
0001
0010
0100
,
1000
0000
1000
0000
1000
0010
0100
0001
,
0000
0001
0000
0001
1000
0000
1000
0000
,
2000
0000
3000
0010
0000
0000
0000
0001
,
0010
0100
0100
1000
,
0100
0010
0001
1000
,
0020
0000
0030
0010
0000
0000
0000
0000
,
0000
0000
1000
1000
1000
0000
0010
0000
,
0001
0000
0010
0010
0000
0000
0000
1000
,
0100
0010
0001
0010
,
0200
0000
0300
0100
0000
1000
0100
1000
,
0100
0000
0010
0100
0000
0000
0000
0001
,
0010
0010
1000
0100
,
0010
0010
0001
0010
,
1000
0000
1000
2000
0000
0000
0000
3000
,
0000
0000
0010
0100
0010
0000
0010
0000
,
0001
0000
0010
0000
0100
0000
0000
1000
0000
0000
0000
0000
0000
0000
0000
0000
,
0001
0100
0010
0010
,
2000
0000
0000
0001
3002
0000
0000
0000
,
0000
1000
1000
1003
0010
0100
0001
0100
,
0010
0010
0000
0010
0000
0010
0000
0000
,
1000
1000
0000
1000
0000
1000
0000
0001
,
0000
0010
0010
0000
0000
0000
0000
1000
,
0000
1000
1000
0000
0010
0000
0100
0000
,
0001
0000
0001
0000
0010
0010
0000
0200
,
0000
0000
0000
0000
0000
0000
0000
0300
,
0000
0000
0000
1000
0100
1000
0000
0010
,
0000
0100
0000
0001
0000
1000
0000
0000
,
1000
0010
0100
0001
0010
0100
1000
0100
,
1000
0010
0100
0010
0100
0001
0010
0001
,
0010
0001
1000
0010
0100
0001
0100
0010
,
1000
0010
0100
0001
1000
0100
0010
0001
,
0100
0010
1000
0100
0010
0001
1000
2020
,
0000
0000
0000
3030
,
0001
0100
0010
1000
,
0010
0000
0010
0000
0100
0010
0000
2000
,
0000
0000
0000
3000
,
0001
0010
0100
1000
0010
0100
0001
0100
,
0010
1000
0100
0010
0001
0100
0010
1000
,
0001
0100
0010
1000
0010
0100
0001
1000
,
1000
0000
1000
0000
1000
0010
0100
0001
,
0000
0001
0000
0001
1000
0000
1000
0000
,
0001
0000
0001
0000
0001
0100
0010
1000
,
0000
1000
0000
1000
0001
0000
0101
0000
;

//---------------dance-single - Copied from----------------
#NOTES:
     dance-single:
     Copied from:
     Challenge:
     8:
     0.662,0.748,0.836,0.176,0.028,329.000,76.000,16.000,0.000,3.000:
1100
0000
0101
0000
1100
0010
0100
0011
,
0000
0110
0000
1010
1100
0000
0110
0000
,
0011
0000
1010
0000
0110
0100
0010
1100
,
0000
0000
0110
0000
0000
0000
0101
0000
0011
0000
0000
0000
0011
0000
1000
0100
,
1000
0000
0010
0000
1000
0000
0001
0000
1000
0000
0010
0000
1000
0000
0001
1000
,
0100
0010
0100
0001
0100
0010
0100
0001
,
1000
1100
0000
0010
0011
0000
0100
0110
,
0000
0010
0010
0010
1000
0000
1000
0000
,
0012
0213
0321
2130
,
3010
0010
0000
0010
0000
0000
0000
0000
,
0101
1010
0110
0011
,
1000
1100
0000
2010
0000
3000
0000
0000
,
0000
0100
0100
0001
,
0100
0010
0010
0001
,
1001
0000
1010
0000
0110
0010
0100
0110
,
0000
1010
0000
0110
1010
0000
1001
0000
,
0101
0010
0100
0001
0100
0010
1000
0010
,
0100
0001
0010
0100
1000
0010
0100
0001
,
0100
0010
1000
0100
0010
0001
1000
0010
,
0100
0001
0100
0010
0100
0010
1000
0100
,
1000
0100
0010
0001
0010
0001
0100
0010
,
0100
0000
0010
0000
1000
0000
0010
0000
0100
0000
0001
0000
0010
0000
1000
0100
,
1010
0000
0110
0000
0101
0010
0100
0110
,
0000
1010
0000
0110
0011
0000
0101
0000
,
2100
0000
3000
0010
0000
0000
0000
0001
,
0010
0100
0100
1000
,
0100
0010
0001
1000
,
0020
0000
0030
0010
0000
0000
0000
0000
,
0000
0000
1000
1000
1000
0000
0010
0000
,
0001
0000
0010
0010
0000
0000
0000
1000
,
0100
0010
0001
0010
,
0200
0000
0300
0100
0000
1000
0100
1000
,
0100
0000
0010
0100
0000
0000
0000
0001
,
0010
0010
1000
0100
,
0010
0010
0001
0010
,
1000
0000
1000
2000
0000
0000
0000
3000
,
0000
0000
0010
0100
0010
0000
0010
0000
,
0001
0000
0010
0000
0100
0000
0000
1000
0000
0000
0000
0000
0000
0000
0000
0000
,
0001
0100
0010
0010
,
2000
0000
0000
0001
3002
0000
0000
0000
,
0000
1000
1000
1003
0010
0100
0001
0100
,
1010
0010
0000
0011
0000
0110
0000
0000
,
1100
1000
0000
0110
0000
1010
0000
0001
,
0000
0010
0010
0000
0000
0000
0000
1000
,
0000
1000
1000
0000
0010
0000
0100
0000
,
0001
0000
0001
0000
0010
0010
0000
0200
,
0000
0000
0000
0000
0000
0000
0000
0300
,
0000
0000
0000
1000
0100
1000
0000
0010
,
0000
0100
0000
0001
0000
1000
0000
0000
,
1010
0010
0100
0001
0010
0100
1000
0100
,
1001
0010
0100
0010
0100
0001
0010
0001
,
0110
0001
1000
0010
0100
0001
0100
0010
,
1010
0010
0100
0001
1000
0100
0010
0001
,
0101
0010
1000
0100
0010
0001
1000
2020
,
0000
0000
0000
3030
,
0001
0100
0010
1000
,
0010
0000
0010
0000
0100
0010
0000
2002
,
0000
0000
0000
3003
,
0001
0010
0100
1000
0010
0100
0001
0100
,
0010
1000
0100
0010
0001
0100
0010
1000
,
0001
0000
0100
0000
0010
0000
1000
0000
0010
0000
0100
0000
0001
0000
1000
0100
,
0101
0000
0110
0000
1010
0010
0100
1100
,
0000
0110
0000
0101
1010
0000
0101
0000
,
0110
0000
1010
0000
0101
0100
0010
0110
,
0000
0101
0000
1010
0011
0000
0101
0000
;
