#TITLE:midare's OP -=GAMMA=-;
#SUBTITLE:;
#ARTIST:midare feat. DM mastamurshura;
#TITLETRANSLIT:;
#SUBTITLETRANSLIT:;
#ARTISTTRANSLIT:;
#CREDIT:;
#BANNER:../fthescorept1bn.png;
#BACKGROUND:../fthescorept1bg.png;
#LYRICSPATH:;
#CDTITLE:;
#MUSIC:midare gamma.ogg;
#OFFSET:-0.024;
#SAMPLESTART:22.020;
#SAMPLELENGTH:12.820;
#SELECTABLE:YES;
#BPMS:0.000=270.000;
#STOPS:;
#BGCHANGES:;
// cache tags:
#FIRSTBEAT:21.000;
#LASTBEAT:416.500;
#SONGFILENAME:Songs/Fuck The Score Part I/Midare's OP GAMMA [Dossar]/midare gamma.sm;
#HASMUSIC:1;
#HASBANNER:1;
#MUSICLENGTH:93.413;
// end cache tags

//---------------dance-single - ----------------
#NOTES:
     dance-single:
     :
     Challenge:
     16:
     1.000,1.000,0.000,0.193,1.000,844.000,0.000,18.000,0.000,0.000:
0000
0000
0000
0000
,
0000
0000
0000
0000
,
0000
0000
0000
0000
,
0000
0000
0000
0000
,
0000
0000
0000
0000
,
0000
0000
2000
0000
0000
0000
0000
3000
,
0002
0000
0000
0000
0000
0000
0000
0003
,
0200
0000
0000
0000
0000
0000
0000
0300
,
0010
0000
0000
0010
0000
0000
0010
0000
0000
0000
1000
0000
0001
0000
0000
0000
,
1000
0000
0000
1000
0000
0000
1000
0000
0000
0000
0100
0000
0010
0000
0000
0000
,
0001
0000
0000
0001
0000
0000
0001
0000
0000
0000
0010
0000
0100
0000
0000
0000
,
1000
0000
0000
1000
0000
0000
1000
0000
0000
0000
0001
0000
0100
0000
0000
0000
,
0010
0000
0000
0010
0000
0000
0010
0000
0000
0000
1000
0000
0001
0000
0000
0000
,
0100
0000
0000
0100
0000
0000
0100
0000
0000
0000
0010
0000
1000
0000
0000
0000
,
0002
0000
0000
0000
0000
0000
0000
0003
,
0200
0000
0000
0000
0000
0000
0000
0300
,
0001
0000
0000
0001
0000
0000
0001
0000
0000
0000
0100
0000
0010
0000
0000
0000
,
1000
0000
0000
1000
0000
0000
1000
0000
0000
0000
1000
0000
0000
0000
1000
0000
,
0001
0000
0000
0001
0000
0000
0001
0000
0000
0000
1000
0000
0100
0000
0000
0000
,
0010
0000
0000
0010
0000
0000
0010
0000
0000
0000
0010
0000
0000
0000
0010
0000
,
0001
1000
0010
0100
,
0001
0000
0000
1000
0000
0000
0100
0000
0000
0010
0000
0000
0000
0000
0000
0001
0000
0000
1000
0000
0010
0000
0100
0000
,
0001
1000
0100
0010
,
0001
1000
0100
0010
0001
1000
0010
0000
,
0100
0000
0001
0000
1000
0010
1000
0000
0000
0000
0001
0000
1000
0010
0100
0001
,
1000
0010
1000
0000
0001
0100
0000
0010
1000
0001
1000
0000
0010
0000
0100
0000
,
0001
0000
1000
0000
0010
0100
0010
0000
0000
0000
1000
0000
0001
0010
0100
1000
,
0001
0010
0001
0000
1000
0100
0010
0001
1000
0100
1000
0000
0001
0000
1000
0100
,
1000
0000
0001
0000
1000
0010
1000
0000
0001
0000
0100
0000
0001
1000
0010
0100
,
0001
1000
0001
0000
0100
0010
0000
1000
0001
0100
0001
0000
1000
0000
0010
0000
,
0100
0000
0001
0000
1000
0100
1000
0000
0001
0000
1000
0000
0001
0010
0001
1000
,
0100
0010
0001
0000
1000
0100
1000
0001
0010
0100
1000
0000
0001
0000
0100
0010
,
1000
0000
0001
0000
0100
0010
0100
0000
0000
0000
0001
0000
1000
0010
0100
0001
,
1000
0010
1000
0000
0001
0100
0000
0010
1000
0001
1000
0000
0010
0000
0100
0000
,
0001
0000
1000
0000
0001
0010
0001
0000
0000
0000
1000
0000
0001
0010
0100
1000
,
0001
0010
0001
0000
1000
0100
0010
0001
1000
0100
1000
0000
0001
0000
0010
0100
,
1000
0000
0001
0000
1000
0010
1000
0000
0001
0000
0100
0000
0001
1000
0010
1000
,
0001
0100
0001
0000
1000
0010
0000
0100
0001
1000
0001
0000
0100
0000
0010
0000
,
1000
0000
0001
0000
1000
0100
1000
0000
0000
0000
0001
0000
1000
0100
0010
0001
,
1000
0100
1000
0000
0001
0010
0100
1000
0001
0010
0001
0000
1000
0000
0100
0010
,
0001
0000
1000
0000
0010
0100
0010
0000
0000
0000
1000
0000
0001
0100
0001
1000
,
0010
0100
0001
0000
1000
0010
1000
0001
0100
0010
1000
0000
0001
0100
0010
1000
,
0001
0000
1000
0000
0100
0010
0000
0000
0001
0000
0000
0000
0010
0100
0000
0000
,
1000
0000
0000
0000
0001
0100
0000
0010
1000
0001
0100
0001
1000
0010
1000
0000
,
0001
0010
0000
0000
0001
0010
0100
1000
0001
0000
1000
0100
1000
0000
0001
0010
,
0001
0000
1000
0100
1000
0000
0001
0010
0100
1000
0001
0010
0001
1000
0100
0010
,
0001
0000
1000
0010
1000
0000
0001
0100
0001
0000
1000
0010
0100
0001
1000
0010
,
1000
0001
0100
0010
1000
0001
0100
0001
1000
0000
0001
0100
0001
0000
1000
0000
,
0001
0010
0001
1000
0100
0010
0001
0000
1000
0100
0000
0010
0001
0010
0100
0000
,
1000
0000
0001
0000
1000
0100
0010
0001
0000
1000
0000
0100
0000
0000
1000
0100
,
1000
0000
0001
0000
0100
0010
0100
0001
0000
1000
0000
0010
0100
0001
1000
0010
,
1000
0001
0100
0001
0000
0000
1000
0000
0001
0010
0001
0000
1000
0100
1000
0000
,
0001
0010
0100
1000
0001
0010
0100
1000
0000
0001
0010
0001
1000
0100
0010
0001
,
0000
1000
0100
1000
0001
0010
0100
1000
0000
0001
0100
0001
1000
0010
0100
0001
,
0000
1000
0010
1000
0001
0100
0010
1000
0000
0001
0100
0001
1000
0010
0100
0001
,
0000
1000
0010
1000
0001
0100
0010
1000
0000
0001
0100
0001
1000
0010
0100
0001
,
1000
0001
0100
0010
0000
1000
0001
0000
0100
0010
0000
1000
0001
0000
0100
0010
,
0000
1000
0010
0000
0100
0001
0000
1000
0010
0000
0100
0001
0000
1000
0010
0000
,
0100
0000
0001
1000
0000
0100
0010
0000
,
0001
0000
0000
0000
0000
0000
1000
0000
0000
0000
0000
0000
0001
0000
1000
0001
,
1000
0010
0100
0001
1000
0010
0100
0001
,
1000
0100
0010
0001
1000
0100
0010
0001
,
1000
0010
0100
0001
0000
0100
0001
1000
,
0010
0000
0100
0000
0001
0000
0010
0000
0000
0000
0010
0000
0100
1000
0100
0000
,
1000
0000
0001
0000
0100
0000
0010
1000
0001
0100
0001
0000
1000
0000
0001
0010
,
0001
0000
1000
0000
0100
0000
0010
0001
0010
0000
0100
0000
1000
0001
1000
0000
,
0100
0000
0010
0001
0010
0000
0100
0000
1000
0000
0100
0010
0100
0000
1000
0000
,
0001
0000
0100
0010
0100
0000
0001
0000
1000
0010
1000
0000
0001
0000
0100
0010
,
0100
0000
0001
1000
0001
0000
0100
0000
0010
0000
1000
0000
0001
0000
0010
0100
,
0010
0000
0001
0000
1000
0000
0100
0000
0010
0001
0010
0000
0100
0000
1000
0000
,
0001
0000
0100
0000
0010
0000
1000
0100
,
0010
0001
0100
0010
,
1000
0001
0000
0000
1000
0010
0100
0001
1000
0010
1000
0001
0100
0000
0001
0100
,
0001
0000
0000
0100
0010
0000
1000
0001
0100
0010
1000
0001
0100
0001
1000
0010
,
1000
0001
0000
0010
0000
0001
0010
0001
0000
1000
0000
0100
0010
0100
1000
0000
,
0001
0010
0000
0100
0000
0000
1000
0001
0000
0010
0000
0001
0010
0100
1000
0000
,
0001
0100
0000
0020
0030
1000
0001
1000
0000
0000
0001
2000
3100
0000
0010
0000
,
0001
1000
0000
0200
0300
0000
1000
0001
0000
0000
1000
0020
1030
0001
0100
0000
,
0010
1000
0000
0002
0003
0000
0100
0010
0000
0000
1000
0002
0103
0000
0010
0000
,
1000
0001
0000
0020
0030
0000
0001
1000
0000
0000
0000
2000
3100
0000
0010
0000
,
0001
0000
0010
0000
0100
0000
1000
0100
0010
0100
1000
0000
0001
0000
1000
0100
,
0010
0000
0100
0000
1000
0000
0001
0000
0100
0010
1000
0000
0001
0000
1000
0000
,
0010
0000
0100
0000
0001
0000
1000
0010
1000
0001
0100
0000
0010
0000
1000
0001
,
1000
0000
0001
0100
0001
0000
1000
0000
0100
0010
0100
0000
1000
0000
0100
0010
,
0001
1000
0010
0100
,
0001
0000
0010
0000
0100
0000
1000
0010
,
0200
0000
0000
0000
,
0000
0000
0000
0000
0000
0000
0000
0300
,
0001
0100
0000
0000
0010
1000
0001
0100
0001
1000
0010
1000
0001
0000
0000
0000
,
1000
0000
0000
0100
1000
0000
0001
0010
0001
1000
0100
0010
0001
0000
1000
0000
,
0100
0010
0000
0100
0000
1000
0100
1000
0000
0100
0000
0010
0001
0000
1000
0000
,
0010
0100
0000
0001
0000
0000
0100
0010
0000
1000
0000
0001
0100
0001
1000
0000
,
0001
0000
0100
0000
0010
0000
1000
0001
1000
0010
0100
0000
0001
0000
1000
0000
,
0100
0010
0001
0010
0100
1000
0100
0010
,
0001
0000
1000
0100
1000
0000
0001
0010
0100
1000
0001
0000
0010
0000
0001
0010
,
0001
0000
1000
0100
1000
0000
0001
0000
0100
0010
0100
0000
0001
0000
0100
0010
,
2000
0000
0000
0000
0000
0000
0000
0000
0000
0000
3000
0000
0001
0100
0001
0000
,
1000
0000
0000
0010
0000
0000
0100
0000
,
0002
0000
0000
0000
0000
0000
0000
0000
0003
0000
0100
0000
0000
0000
0010
1000
,
0010
0000
0000
0100
0000
0000
0001
0000
,
1000
0100
0010
0001
,
0100
0000
0000
0010
0000
0000
1000
0000
0000
0001
0000
0000
0000
0000
0000
1000
0000
0000
0001
0000
0010
0000
0100
0000
,
1000
0001
0100
0010
,
1000
0100
0010
0001
0100
0010
2000
0002
,
0000
3003
0000
0000
0000
0000
0000
0000
;
